#TITLE:辞世テンプレート;
#SUBTITLE:;
#ARTIST:ギラギラ眼帯団;
#TITLETRANSLIT:JISEI TEMPLATE;
#SUBTITLETRANSLIT:;
#ARTISTTRANSLIT:GYRAGYRA GANTAI DAN;
#CREDIT:DigiMindAxel;
#BANNER:JISEI TEMPLATE.png;
#BACKGROUND:JISEI TEMPLATE-bg.png;
#LYRICSPATH:JISEI TEMPLATE.lrc;
#CDTITLE:pop'n music.png;
#MUSIC:JISEI TEMPLATE.mp3;
#OFFSET:-5.900;
#SAMPLESTART:93.693;
#SAMPLELENGTH:12.000;
#SELECTABLE:YES;
#BPMS:0.000=220.000;
#STOPS:;
#BGCHANGES:;

//---------------dance-single - ----------------
#NOTES:
     dance-single:
     :
     Easy:
     5:
     0.419,0.425,0.292,0.065,0.000:
0000
0000
0000
0000
0000
0000
0000
1001
,
0000
0000
0000
0000
0000
0000
0000
0110
,
0000
0000
0000
0000
0000
0000
0000
1001
,
0000
0000
0000
0000
0000
0000
0000
0110
,
0000
0000
0000
0000
1001
0000
0000
0002
,
0000
0000
0000
0000
0000
0000
0000
2003
,
0000
0000
0000
0000
0000
0000
0000
3002
,
0000
0000
0000
0000
0000
0000
0000
2003
,
0000
0000
0000
0000
,
3000
0010
0010
0010
,
0010
0100
0001
1000
,
0010
0010
0010
0010
,
0010
0010
0110
0000
,
0010
0100
0010
0100
,
0010
1000
0010
1000
,
0001
1000
0001
1000
,
0001
0010
0100
1000
,
0010
0100
0010
0100
,
0001
0100
0001
0100
,
0001
1000
0001
1000
,
0100
0010
0001
1000
,
0001
0001
0001
0001
,
0001
0001
1000
0010
,
0100
0100
0100
0100
,
0100
0100
0010
1000
,
0001
0001
0001
0001
,
0001
0001
0010
0100
,
1000
1000
1000
1000
,
1000
1000
0010
0100
,
0010
0010
0010
0010
,
0010
0010
0010
0100
,
0010
1000
0100
1000
,
0001
0010
0001
0100
,
0010
0100
0100
0220
,
0000
0000
0330
0000
,
0001
1000
0001
1000
,
0001
1000
0001
0010
,
0100
1000
0100
1000
,
0100
1000
0100
0010
,
0001
0010
0001
0010
,
0001
0010
0001
0100
,
0010
0100
0010
0100
,
0010
0100
0010
0100
,
0100
0100
0100
0100
,
0100
0100
0100
0010
,
0220
0000
0000
0000
,
0000
0330
0000
0000
,
0010
0010
0010
0010
,
0010
0010
0010
0100
,
0110
0000
0100
0001
,
0000
1001
0000
0000
,
1001
0000
0000
0010
0000
0000
0010
0000
,
0000
0010
0000
0000
1001
0000
0000
0000
,
0100
0100
0100
0100
,
0100
0100
0100
0100
,
0010
0010
0010
0010
,
0010
0010
0010
0010
,
0100
0100
0100
0100
,
0100
0100
0100
0100
,
0010
0100
0010
0100
,
0010
0000
0000
0000
,
1000
0001
1000
0001
,
1000
0001
1000
0001
,
0010
0001
0010
0001
,
1000
0001
1000
0100
,
1000
0000
1001
0000
,
0001
0000
1001
0000
,
1000
0000
1001
0000
,
0001
0000
1001
0000
,
1000
0000
1001
0000
,
0010
0000
0110
0000
,
1000
0000
1001
0000
,
0010
0000
0110
0000
,
1000
0001
1000
0000
,
0010
0100
0010
0000
,
1000
0001
1000
0000
,
0001
0010
0001
0000
,
1000
0010
1000
0000
,
0100
1000
0100
0000
,
0010
0001
0010
0000
,
0001
0000
1000
0000
0010
0000
0000
1001
,
0000
0000
0000
0000
0000
0000
0000
0110
,
0000
0000
0000
0000
0000
0000
0000
1001
,
0000
0000
0000
0000
0000
0000
0000
0110
,
0000
0000
0000
0000
,
0001
1000
0001
1000
,
0001
1000
0001
1000
,
0100
1000
0100
1000
,
0001
1000
0001
0010
,
0001
0010
0001
0010
,
0001
0100
0001
0100
,
0010
0100
0010
0100
,
0010
1000
0010
1000
,
0100
1000
0100
1000
,
0100
0010
0001
1000
,
0010
0100
0010
1000
,
0100
0010
0001
1000
,
1001
0000
0001
0000
,
1001
0000
1000
0000
,
0110
0000
0001
0000
,
0110
0000
1000
0000
,
1001
0000
1001
0000
,
0110
0000
0110
0000
,
1001
0000
1001
0000
,
0110
0000
0000
0000
0000
0000
0000
1001
;

//---------------dance-single - ----------------
#NOTES:
     dance-single:
     :
     Medium:
     7:
     0.536,0.553,0.430,0.041,0.000:
0000
0000
0000
0000
0000
0000
0000
0011
,
0000
0000
0000
0000
0010
0000
0000
0110
,
0000
0000
0000
0000
0100
0000
0000
1100
,
0000
0000
0000
0000
1000
0000
0000
1001
,
0000
0000
0000
0000
1001
0000
0000
0010
,
0000
0001
0010
0000
0100
0000
1000
0001
,
0000
1000
0100
0000
0010
0000
0001
1000
,
0000
0001
0010
0000
0100
0000
1000
0001
,
0000
1000
0100
0000
0110
0000
0000
0110
,
0000
1000
1000
1000
,
1000
0100
0010
0001
,
1000
0100
1000
0100
,
1000
0000
0001
0000
0100
0010
0100
0000
,
0001
1000
0001
1000
0000
0010
0100
0000
,
0001
1000
0001
1000
0000
0010
0100
0000
,
0001
1000
0001
1000
0000
0010
0100
0000
,
0001
0010
0110
0000
,
1000
0001
1000
0001
0000
0100
0010
0000
,
1000
0001
1000
0001
0000
0100
0010
0000
,
1000
0001
1000
0001
0000
0100
0010
0000
,
1000
0000
0001
0000
0100
0010
0100
0000
,
0001
0010
0001
0010
,
0001
1000
0100
1000
,
0010
0100
0010
0100
,
0010
0000
1000
0000
0001
1000
0001
0000
,
1000
0100
1000
0100
,
1000
0001
0100
0001
,
0100
0010
0100
0010
,
0100
0000
0001
1000
0001
0000
1000
0000
,
1001
0000
1000
0000
0010
0000
1000
0001
,
0000
0100
0000
0100
0000
0001
0010
0001
,
0000
1000
0010
1000
0000
0001
0010
0001
,
0000
1000
0010
1000
0001
0000
0001
0000
,
1001
0000
0001
0000
0100
0000
0001
1000
,
0000
0100
0000
0100
0000
0000
0000
0000
,
1000
0100
1000
0010
,
1000
0000
0100
0000
1000
0001
0000
0001
,
0000
0010
0100
1000
,
0100
0000
0010
0000
0001
1000
0000
1000
,
0000
0010
0100
0001
,
0100
0000
0010
0000
1000
0001
0000
0001
,
0000
0010
0100
1000
,
0010
0100
0001
1001
,
1001
0000
0001
0000
0100
0000
0001
1000
,
0000
1000
0000
1000
0001
0100
0001
0000
,
1001
0000
0000
1001
0000
0000
1001
0000
,
0000
0100
0000
0000
0010
0100
0010
0000
,
1001
0000
1000
0000
0010
0000
1000
0001
,
0000
0001
0000
1000
0000
0001
0100
0001
,
0000
1000
0100
1000
0000
0001
0100
0001
,
0000
1000
0100
1000
0000
0001
1000
0000
,
0001
0010
0000
0001
0010
0000
0001
0010
,
0000
0001
0010
0000
0001
1000
0000
0000
,
0010
0000
0200
0000
,
0010
0000
0310
1000
,
0002
0000
1000
0000
,
1003
0000
0001
1000
,
0020
0000
0100
0000
,
0130
0000
0001
1000
,
0110
0110
0110
0110
,
0000
0020
0000
0000
0000
0000
0130
0000
,
0001
0000
0100
0000
0001
0000
1000
0100
,
0000
1000
0100
0000
1000
0000
0010
0000
,
0100
0000
0010
0000
1000
0001
1000
0010
,
0000
0000
0100
0010
0100
0010
0100
0000
,
0101
0000
0101
0000
,
1100
0000
1100
0000
,
0011
0000
0011
0000
,
1010
0000
1010
0000
,
0110
0000
0101
0000
,
0110
0000
1010
0000
,
0110
0000
0101
0000
,
0110
0000
1010
0000
,
0010
0100
0000
0000
0001
0100
0000
0000
,
0010
0100
0000
0000
0010
1000
0000
0000
,
1000
0100
0000
0000
1000
0001
0000
0000
,
0001
0010
0000
0000
0001
1000
0000
0000
,
1000
0010
0000
0000
1000
0001
0000
0000
,
0001
0100
0000
0000
0001
1000
0000
0000
,
1000
0010
0000
0000
0010
0100
0000
0000
,
0100
0001
0000
0000
0001
1000
0000
1001
,
0000
0000
0000
0000
0000
0000
0000
1010
,
0000
0000
0000
0000
0000
0000
0000
0101
,
0000
0000
0000
0000
0000
0000
0000
0110
,
0000
0000
1000
1000
,
1001
0010
0100
0001
,
1000
0000
0001
0010
0001
0010
0001
0000
,
0100
0010
1000
0001
,
1000
0000
0010
0000
1000
0001
1000
0001
,
1000
0000
0010
0100
0010
1000
0000
0000
,
0001
0100
0010
1000
,
0001
0000
0100
0010
0100
0001
0000
0000
,
1000
0010
0100
0001
,
1000
0001
0011
0001
,
0011
0100
1000
0001
,
1001
0000
0001
0000
0100
0000
0001
2000
,
0000
0000
3001
0000
0100
0010
0100
0000
,
1100
0000
1100
0000
,
0101
0000
0101
0000
,
0110
0000
0110
0000
,
1010
0000
1010
0000
,
1000
0001
0000
0000
0001
0100
0000
0000
,
0100
0010
0000
0000
0010
1000
0000
0000
,
1000
0100
0000
0000
0100
0010
0000
0000
,
0010
0001
0000
0000
0100
0010
0000
0110
;

//---------------dance-single - ----------------
#NOTES:
     dance-single:
     :
     Hard:
     9:
     0.687,0.638,0.357,0.057,0.000:
0000
0000
0000
0000
0000
0000
0000
1001
,
0000
0000
0000
0000
1100
0000
0000
1100
,
0000
0000
0000
0000
0011
0000
0000
0011
,
0000
0000
0000
0000
1001
0000
0000
1001
,
0000
0000
0000
0000
0001
1000
0000
0010
,
0000
0100
0010
0000
1000
0000
0001
1000
,
0000
0001
1000
0000
0010
0000
1000
0001
,
0000
0100
0010
0000
0100
0000
0001
1000
,
0000
0001
1000
0000
0010
0100
0010
1000
,
0000
1000
0001
1000
0001
1000
0000
0000
,
0001
0010
0100
1000
,
0000
0001
1000
0001
1000
0001
0100
0000
,
0010
0000
0100
0000
0010
0100
0001
0000
,
1000
0100
1000
0001
0000
0001
1000
0000
,
0001
0010
0001
1000
0000
1000
0001
0000
,
1000
0100
1000
0001
0000
0001
1000
0010
,
1000
0000
0001
0000
0100
0010
1000
0000
,
0001
0100
0001
1000
0000
1000
0001
0000
,
1000
0010
1000
0001
0000
0001
1000
0000
,
0001
0100
0001
1000
0000
1000
0001
0010
,
0001
1001
1000
1001
,
0010
0100
0010
0000
0100
0010
0100
0000
,
0001
1000
0001
0000
1000
0010
1000
0000
,
0001
0100
0001
0000
1000
0001
1000
0000
,
0010
0100
0010
0100
0001
1000
0001
0000
,
1000
0100
1000
0000
0100
1000
0100
0000
,
1000
0001
1000
0000
0001
0100
0001
0000
,
0100
0001
0100
0000
0001
1000
0001
0000
,
0100
0010
0100
0010
1000
0001
1000
0000
,
1001
0000
1001
0000
1001
0000
0001
1000
,
0000
0010
0100
0010
0000
1000
0010
0100
,
0000
0001
0010
0100
0000
1000
0100
0010
,
0000
0001
0100
0010
1000
0001
1000
0000
,
1001
0000
1001
0000
1001
0000
1000
0001
,
0000
0100
0010
0100
0001
1000
0001
0000
,
0100
0010
0100
0000
0001
1000
0001
0000
,
0100
0010
0100
0000
0002
1000
0000
1003
,
0001
0100
0001
0000
1000
0010
1000
0000
,
0001
1000
0001
0000
2000
0001
0000
3001
,
1000
0010
1000
0000
0010
0100
0010
0000
,
1000
0001
1000
0000
0002
1000
0000
1003
,
0001
0010
0001
0000
1000
0100
1000
0002
,
0000
1003
0010
0110
,
1001
0000
1001
0000
1001
0000
1000
0001
,
0000
0001
0100
0010
0100
0010
0100
0000
,
1001
0000
0000
1001
0000
0000
0110
0000
,
0000
0110
0000
0000
0100
1000
0100
0000
,
1001
0000
1001
0000
1001
0000
0001
1000
,
0000
1000
0001
0100
0001
1000
0100
1000
,
0000
0001
0010
0100
0000
1000
0100
0010
,
0000
0001
0100
0010
0000
1000
0001
0000
,
1100
0000
0000
0110
0000
0000
0011
0000
,
0000
1001
0000
0000
1000
0001
1000
0010
,
0100
0000
0100
0000
0200
0000
0000
0001
,
0000
0301
1000
0001
,
0010
0000
0010
0000
0020
0000
0000
0100
,
0000
0130
1000
0001
,
0100
0000
0100
0000
0200
0000
0000
0010
,
0000
0310
1000
0001
,
0110
0110
0110
0110
,
0000
0001
1000
0001
1000
0001
1000
0001
,
1000
0100
1000
0000
0001
0000
0010
0001
,
0000
0001
1000
0000
0010
0100
0010
0000
,
1000
0100
1000
0000
0001
0000
0100
0001
,
0000
0001
1000
0100
1000
0010
0100
0000
,
0001
1000
0000
0000
0001
1000
0000
0000
,
1000
0010
0000
0000
1000
0010
0000
0000
,
0100
0010
0000
0000
0100
0010
0000
0000
,
0100
0001
0000
0000
0100
0001
0000
0000
,
1000
0100
0000
0000
1000
0001
0000
0000
,
0001
0010
0000
0000
0001
1000
0000
0000
,
1000
0010
0000
0000
1000
0001
0000
0000
,
0001
0100
0000
0000
0001
1000
0000
0000
,
0010
0100
0010
0000
1000
0010
1000
0000
,
0010
0100
0010
0000
1000
0010
1000
0000
,
0001
0010
0001
0000
0100
0010
0100
0000
,
0001
0010
0001
0000
0100
0010
0100
0000
,
0001
1000
0001
0000
0010
0001
0010
0000
,
0001
1000
0001
0000
1000
0100
1000
0000
,
0010
0100
0010
0000
1000
0010
1000
0000
,
0010
0100
0010
0000
0100
0001
0000
1001
,
0000
0000
0010
0000
0010
0100
0000
0101
,
0000
0000
0100
0000
0100
0010
0000
1010
,
0000
0000
0010
0000
0010
0100
0000
0101
,
0000
1000
0100
1000
,
1001
0000
0010
1000
0010
0000
1000
0001
,
1000
0100
0010
0001
0010
0100
0010
0000
,
0001
1000
0001
0000
0100
0001
0100
0000
,
0001
1000
0001
0010
0100
1000
0010
1000
,
0001
0000
1000
0010
0100
0001
0000
0001
,
1000
0100
1000
0100
1000
0010
0100
0001
,
1000
0000
0010
0100
0010
1000
0000
1000
,
0001
0010
0001
0010
0001
0100
0010
1000
,
0001
1000
1010
0010
,
0110
0100
0101
0001
,
1001
0000
1000
0000
0001
0000
1000
0010
,
0100
0000
0001
1000
0010
0100
0010
0000
,
1000
0001
0000
0000
1000
0001
0000
0000
,
1000
0100
0000
0000
1000
0100
0000
0000
,
0010
0100
0000
0000
0010
0100
0000
0000
,
0010
0001
0000
0000
0010
0001
0000
0000
,
0100
0010
0100
0000
0001
0010
0001
0000
,
0010
0100
0010
0000
0001
1000
0001
0000
,
1000
0010
1000
0000
0100
0010
0100
0000
,
1000
0001
1000
0001
0010
0100
0000
1001
;

//---------------dance-single - ----------------
#NOTES:
     dance-single:
     :
     Challenge:
     9:
     0.797,0.723,0.300,0.041,0.000: // measure 1
0000
0000
0000
0000
0000
0000
0000
1001
,  // measure 2
0000
0000
0010
0001
1000
0100
0000
1100
,  // measure 3
0000
0000
0100
1000
0001
0010
0000
0011
,  // measure 4
0000
0000
0100
0001
1000
0010
0000
1010
,  // measure 5
0000
0000
0010
1000
0001
0001
0000
1001
,  // measure 6
0000
0001
0010
0100
1000
0100
0010
0001
,  // measure 7
0000
1000
0010
0100
0010
1000
0010
0200
,  // measure 8
0000
0301
0010
0100
1000
0100
0010
0001
,  // measure 9
0000
1000
0010
0100
0010
1000
0100
0010
,  // measure 10
0000
0001
1000
0100
1000
0100
0010
0001
,  // measure 11
0000
1000
0001
0010
0001
0010
0100
1000
,  // measure 12
0000
0001
0100
0010
0100
0001
0100
0010
,  // measure 13
0100
0001
0010
0100
1000
1000
0001
0000
,  // measure 14
0010
0100
1000
0010
0000
1000
0001
0000
,  // measure 15
0010
0100
1000
0010
0000
1000
0001
0000
,  // measure 16
0100
0001
1000
0100
0000
1000
0001
0010
,  // measure 17
0100
1000
0001
0000
1000
0001
1000
0000
,  // measure 18
0100
0010
0001
0100
0000
0001
1000
0000
,  // measure 19
0100
0010
0001
0100
0000
0001
1000
0000
,  // measure 20
0010
1000
0001
0010
0000
0001
1000
0100
,  // measure 21
0010
0001
1000
0010
1000
0001
0010
0000
,  // measure 22
0001
1000
0001
1000
0001
1000
0100
1000
,  // measure 23
0100
1000
0100
1000
0001
0010
0100
1000
,  // measure 24
0001
0010
0001
0010
0001
1000
0010
1000
,  // measure 25
0010
1000
0010
1000
0100
0010
0001
1000
,  // measure 26
0100
0010
0100
0010
0100
0010
0001
1000
,  // measure 27
0001
1000
0001
1000
0001
0010
0100
1000
,  // measure 28
0010
0100
0010
0100
0010
0100
0001
1000
,  // measure 29
0001
1000
0001
1000
0100
0010
0001
0000
,  // measure 30
1001
0000
1001
0000
1001
0000
1000
0001
,  // measure 31
0000
0010
0000
0001
1000
0001
0010
0100
,  // measure 32
0000
1000
0100
0010
0000
0001
0010
0100
,  // measure 33
0000
1000
0100
0010
0001
1000
0001
0000
,  // measure 34
1001
0000
1001
0000
1001
0000
0001
1000
,  // measure 35
0000
0100
0000
1000
0010
0100
0010
0000
,  // measure 36
1000
0100
1000
0100
1000
0100
1000
0001
,  // measure 37
1000
0001
1000
0001
0010
0200
0000
1300
,  // measure 38
0001
0100
0001
0100
0001
0100
0001
1000
,  // measure 39
0001
1000
0001
1000
0100
0020
0000
0031
,  // measure 40
1000
0010
1000
0010
1000
0010
0100
0010
,  // measure 41
0100
0010
0100
0001
0010
0200
0000
1300
,  // measure 42
0001
0100
0001
0100
0001
0100
0010
0200
,  // measure 43
0000
0310
0100
0001
0010
0100
1000
0000
,  // measure 44
1001
0000
1001
0000
1001
0000
1000
0001
,  // measure 45
0000
0001
1000
0100
1000
0010
0100
0000
,  // measure 46
1001
0000
0000
0110
0000
0000
1001
0000
,  // measure 47
0000
0000
0001
0000
0001
1000
0001
0000
,  // measure 48
1001
0000
1001
0000
1001
0000
0001
1000
,  // measure 49
0000
1000
0001
0100
0010
0100
0001
0010
,  // measure 50
0000
0100
0010
0001
0000
1000
0100
0010
,  // measure 51
0000
0100
1000
0001
0010
0100
1000
0000
,  // measure 52
0001
0100
0000
0100
0010
0000
0010
1000
,  // measure 53
0000
1000
0001
0000
0001
1000
0100
0010
,  // measure 54
0100
0000
0100
0000
0100
0000
0100
1000
,  // measure 55
0000
0100
0010
0000
0001
1000
0001
0000
,  // measure 56
0010
0000
0010
0000
0010
0000
0010
0001
,  // measure 57
0000
0100
0010
0000
1000
0001
1000
0000
,  // measure 58
0100
0000
0100
0000
0100
0000
0100
0010
,  // measure 59
0000
0001
0100
0000
0010
0100
0010
0000
,  // measure 60
0110
0110
1001
1001
,  // measure 61
0000
0001
0010
0100
1000
0100
0010
0000
,  // measure 62
0001
0100
0010
0100
0001
0100
0010
1000
,  // measure 63
0000
1000
0100
0010
0001
1000
0001
0000
,  // measure 64
1000
0010
0100
0010
1000
0010
0100
0001
,  // measure 65
0000
0001
0010
0100
1000
0001
1000
0000
,  // measure 66
0001
0100
0000
0000
1000
0100
0000
0000
,  // measure 67
0001
0100
0000
0000
1000
0100
0000
0000
,  // measure 68
0001
0010
0000
0000
1000
0010
0000
0000
,  // measure 69
0001
0010
0000
0000
1000
0010
0000
0000
,  // measure 70
0001
0100
0000
0000
1000
0100
0000
0000
,  // measure 71
0001
0010
0000
0000
1000
0010
0000
0000
,  // measure 72
0001
0100
0000
0000
1000
0100
0000
0000
,  // measure 73
0001
0100
0010
0100
0001
0010
0100
0000
,  // measure 74
1000
0010
1000
0010
0100
0010
0100
0010
,  // measure 75
1000
0001
1000
0001
0010
0100
0010
0100
,  // measure 76
1000
0001
1000
0001
0010
0001
0010
0001
,  // measure 77
0010
0100
0010
0100
1000
0100
1000
0100
,  // measure 78
0010
0100
0010
0100
0010
0001
0010
0001
,  // measure 79
1000
0001
1000
0001
0100
0001
0100
0001
,  // measure 80
1000
0010
1000
0010
0100
0010
0100
0010
,  // measure 81
0001
0010
0100
1000
0001
0100
0000
0101
,  // measure 82
0000
0000
0100
0001
1000
0100
0000
1100
,  // measure 83
0000
0000
0010
0100
1000
0001
0000
1001
,  // measure 84
0000
0000
0100
0010
0001
1000
0000
1001
,  // measure 85
0000
0100
0100
1001
,  // measure 86
1000
0010
0100
0010
1000
0000
0001
0100
,  // measure 87
0001
1000
0100
0010
0001
0010
0100
1000
,  // measure 88
0010
0100
0010
0000
1000
0001
0010
0001
,  // measure 89
1000
0000
1000
0001
0010
0100
1000
0001
,  // measure 90
0100
0001
1000
0100
0010
0001
1000
0010
,  // measure 91
1000
0010
1000
0001
0010
0100
1000
0001
,  // measure 92
0010
0001
1000
0100
0010
0001
1000
0100
,  // measure 93
1000
0100
1000
0001
0010
0100
1000
0001
,  // measure 94
0100
0001
1000
0000
1001
0000
1001
0000
,  // measure 95
1100
1100
0101
0101
,  // measure 96
1001
0000
0001
0100
0010
0100
0001
1000
,  // measure 97
0000
1000
0001
0100
0010
0100
0010
0000
,  // measure 98
1000
0100
0000
0000
0001
0100
0000
0000
,  // measure 99
1000
0100
0000
0000
0001
0100
0000
0000
,  // measure 100
1000
0010
0000
0000
0001
0010
0000
0000
,  // measure 101
1000
0010
0000
0000
0001
1000
0100
0000
,  // measure 102
1000
0100
0001
0000
0100
1000
0001
0000
,  // measure 103
1000
0010
0001
0000
0010
1000
0001
0000
,  // measure 104
1000
0100
0001
0000
0100
1000
0001
0000
,  // measure 105
0010
0100
1000
0001
0100
0100
0000
0110
;

//---------------dance-single - ----------------
#NOTES:
     dance-single:
     :
     Beginner:
     2:
     0.109,0.170,0.097,0.000,0.000:
0000
0000
0000
0000
,
0000
0000
0000
0000
,
0000
0000
0000
0000
,
0000
0000
0000
0000
,
0000
0000
0000
0000
0000
0000
0000
0010
,
0000
0000
0000
0000
,
0000
0000
0000
0000
0000
0000
0000
0010
,
0000
0000
0000
0000
,
0000
0000
0000
0000
0000
0000
0000
0010
,
0000
0000
0000
0000
,
0000
0000
0000
0000
,
0010
0000
0000
0000
,
0000
0000
0000
0000
,
0100
0000
0000
0000
,
0010
0000
0000
0000
,
0100
0000
0000
0000
,
0010
0000
0000
0000
,
1000
0000
0000
0000
,
0001
0000
0000
0000
,
1000
0000
0000
0000
,
0001
0000
0000
0000
,
0001
0000
0000
0000
,
0100
0000
0000
0000
,
0001
0000
0000
0000
,
0100
0000
0000
0000
,
0001
0000
0000
0000
,
1000
0000
0000
0000
,
0001
0000
0000
0000
,
1000
0000
0000
0000
,
0010
0000
0000
0000
,
0000
0000
0000
0000
,
0010
0000
0000
0000
,
0000
0000
0000
0000
,
0100
0000
0000
0000
,
0100
0000
0000
0000
,
0001
0000
0000
0000
,
0010
0000
0000
0000
,
0001
0000
0000
0000
,
1000
0000
0000
0000
,
0100
0000
0000
0000
,
1000
0000
0000
0000
,
0001
0000
0000
0000
,
1000
0000
0000
0000
,
0001
0000
0000
0000
,
0000
0000
0000
0000
,
1000
0000
0000
0000
,
0000
0000
0000
0000
,
0001
0000
0000
0000
,
0000
0000
0000
0000
,
0100
0000
0000
0000
,
0000
0000
0000
0000
,
0110
0000
0000
0000
,
0000
0000
0000
0000
,
0010
0000
0000
0000
,
0000
0000
0000
0000
,
0010
0000
0000
0000
,
0000
0000
0000
0000
,
0010
0000
0000
0000
,
0000
0000
0000
0000
,
0010
0000
0000
0000
,
0000
0000
0000
0000
,
1001
0000
0000
0000
,
1000
0000
0000
0000
,
0001
0000
0000
0000
,
1000
0000
0000
0000
,
1001
0000
0000
0000
,
0000
0000
0000
0000
,
0010
0000
0000
0000
,
0000
0000
0000
0000
,
1001
0000
0000
0000
,
0000
0000
0000
0000
,
0100
0000
0000
0000
,
0000
0000
0000
0000
,
1001
0000
0000
0000
,
0000
0000
0000
0000
,
0010
0000
0000
0000
,
0000
0000
0000
0000
,
1001
0000
0000
0000
,
0000
0000
0000
0000
,
0100
0000
0000
0000
,
0000
0000
0000
0000
0000
0000
0000
1001
,
0000
0000
0000
0000
0000
0000
0000
0010
,
0000
0000
0000
0000
0000
0000
0000
1001
,
0000
0000
0000
0000
0000
0000
0000
0010
,
0000
0000
0000
0000
,
0001
0000
1000
0000
,
0001
0000
0000
0000
,
1000
0000
0001
0000
,
1000
0000
0000
0000
,
0010
0000
0100
0000
,
0010
0000
0000
0000
,
0100
0000
0010
0000
,
0100
0000
0000
0000
,
0001
0000
1000
0000
,
0001
0000
0001
0000
,
0001
0000
0000
0000
0000
0000
0000
1000
,
0000
0000
0000
0000
,
1001
0000
0000
0000
,
0000
0000
0000
0000
,
0010
0000
0000
0000
,
0000
0000
0000
0000
,
1001
0000
0000
0000
,
0100
0000
0000
0000
,
1001
0000
0000
0000
,
0010
0000
0000
0000
0000
0000
0000
1001
;
