#TITLE:ジングルベル第765番;
#SUBTITLE:;
#ARTIST:増渕裕二;
#TITLETRANSLIT:JINGLE BELLS DAI 765BAN;
#SUBTITLETRANSLIT:;
#ARTISTTRANSLIT:YUUJI MASUBUCHI;
#CREDIT:DigiMindAxel;
#BANNER:JINGLE BELLS DAI 765BAN.png;
#BACKGROUND:JINGLE BELLS DAI 765BAN-bg.png;
#LYRICSPATH:;
#CDTITLE:TAIKO NO TATSUJIN.png;
#MUSIC:JINGLE BELLS DAI 765BAN.mp3;
#OFFSET:-4.480;
#SAMPLESTART:40.197;
#SAMPLELENGTH:12.000;
#SELECTABLE:YES;
#BPMS:0.000=140.000;
#STOPS:;
#BGCHANGES:;

//---------------dance-single - ----------------
#NOTES:
     dance-single:
     :
     Easy:
     2:
     0.201,0.216,0.084,0.048,0.000:
1000
1000
1000
0000
,
0001
0001
0001
0000
,
1000
1000
1000
0000
,
0001
0001
0001
0000
,
0100
0010
0100
0000
,
0010
0100
0010
0000
,
0100
0010
0100
0100
,
0010
0100
0010
0000
,
1000
0001
1000
0001
,
1000
0000
1000
0000
,
1001
0000
0001
0000
,
1000
0000
0000
0000
,
0001
1000
0001
1000
,
0001
0000
0001
0000
,
1001
0000
1000
0000
,
0001
0000
2000
0000
,
3010
0000
0200
0000
,
0301
0000
1000
0000
,
0001
0001
0001
0001
,
1001
0000
0000
0000
,
0000
0000
0000
0000
,
0100
0010
0100
0000
,
0001
0100
0010
0000
,
0100
0010
0100
0000
,
0010
1000
0100
0000
,
1000
0001
1000
0000
,
0010
0100
0001
0000
,
0010
0100
1000
0000
,
0010
0100
0010
0000
,
0110
0100
0010
0100
,
0010
0100
0001
0000
,
1001
0000
0000
0000
,
0000
0000
0000
0000
,
0110
0010
0100
0010
,
0100
0001
1000
0000
,
1001
0000
0000
0000
,
0000
0000
2000
0000
,
3001
0100
0002
0000
,
1003
0100
1000
0100
,
0010
0001
0100
0010
,
1000
0000
0000
0000
;

//---------------dance-single - ----------------
#NOTES:
     dance-single:
     :
     Medium:
     5:
     0.333,0.361,0.036,0.265,0.000:
0001
0100
0010
1000
,
0001
0100
0010
1000
,
0100
0010
0001
1000
,
0100
0000
0010
0000
0001
1000
0001
1000
,
0001
0100
0010
0100
,
0001
0100
0010
0100
,
0010
1000
0100
0010
,
0100
0000
1000
0000
0010
0100
0010
0100
,
0010
0010
0010
0000
0100
0100
0100
0000
,
0010
0100
0010
0000
0100
0000
0000
0000
,
0002
0000
2003
0000
,
3002
0000
1003
0000
,
0001
0001
0001
0000
1000
1000
1000
0000
,
0001
0001
1000
0000
0100
0000
0000
0000
,
0020
0000
0230
0000
,
0320
0000
0000
0000
0031
0010
0100
1000
,
0002
0000
0000
0000
1003
0100
0010
0001
,
2000
0000
3002
0000
,
2003
3020
0230
0302
,
1003
0000
0000
0000
,
0000
0000
0000
0000
,
0001
0100
0000
0001
0000
1000
0000
0100
,
1000
0010
0000
0100
0000
0010
0000
0100
,
0001
0010
0000
0001
0000
1000
0000
0100
,
1000
0010
0000
0100
0010
0100
0010
0100
,
0001
1000
0000
0100
0000
1000
0000
0010
,
0100
0001
0000
0010
0000
0001
0000
1000
,
0100
0010
0000
0100
0000
1000
0000
0001
,
0100
0010
0100
0010
0100
0000
0000
0000
,
0001
0001
0001
0000
1000
1000
1000
0000
,
0001
0100
0010
0000
0110
0000
0000
0000
,
2001
0000
3002
0000
,
2003
0000
3000
0000
,
0010
0010
0010
0000
0100
0100
0100
0000
,
0010
1000
0001
0000
1001
0000
0000
0000
,
0200
0000
0320
0000
,
0230
0000
0000
0000
0301
0010
0100
1000
,
0002
0000
0000
0000
1003
0100
0010
0001
,
2000
3100
2000
3100
,
0010
0001
0010
0001
0100
0010
1000
0100
,
1000
0000
0000
0000
;

//---------------dance-single - ----------------
#NOTES:
     dance-single:
     :
     Hard:
     7:
     0.531,0.457,0.156,0.421,0.186:
1000
0100
0010
0100
2000
0000
0000
3001
,
0001
0100
0010
0100
0002
0000
0000
1003
,
1000
0100
0010
0001
0200
0000
0000
0301
,
0001
0000
0010
0000
0100
0000
1000
0000
0001
0100
0002
0000
0000
0000
1003
0000
,
1000
0001
0010
0100
0020
0000
0000
0031
,
0001
1000
0100
0010
0200
0000
0000
1300
,
1000
0000
0010
0000
0100
0000
0001
0000
1000
0000
1000
0000
1000
0000
0000
0001
,
1000
0100
0010
0001
2000
0000
3002
0000
,
0103
0100
0200
0000
0310
0010
0020
0000
,
1030
0000
0100
0000
0010
0000
0000
0001
0200
0000
0000
0000
0310
0000
0000
0000
,
2002
3003
0220
0330
,
2002
0000
3003
2000
,
3010
0010
0020
0000
0130
0100
0200
0000
,
0301
0000
0010
0000
0100
0000
0000
1000
0020
0000
0000
0000
0130
0000
0000
0000
,
2002
3003
0220
0330
,
2002
0000
0000
0000
3003
0000
0000
0000
1000
0001
1000
0000
0100
0000
0010
0000
,
0002
0000
0000
0000
1003
0000
0000
0000
0001
1000
0001
0000
0010
0000
0100
0000
,
1000
1000
0010
0000
0010
0010
0100
0000
,
0001
0010
1000
0010
0001
1000
0010
0100
,
0110
0000
0010
0000
,
0010
0000
0000
0000
0000
0000
0000
0000
0010
0000
0000
0000
0000
0000
0100
0010
,
0100
0000
0001
0000
0010
0000
0100
0000
0010
0000
0001
0000
0000
0000
0100
0010
,
0100
0000
0001
0000
0010
0000
1000
0000
0010
0000
0001
0000
0000
0000
1000
0001
,
1000
0000
0100
0000
0010
0000
0100
0000
1000
0000
0010
0000
0000
0000
1000
0001
,
1000
0000
0100
0000
0001
0000
0100
0000
1000
0000
1000
0000
1000
0000
0001
1000
,
0001
0000
0100
0000
1000
0000
0100
0000
0001
0000
1000
0000
0000
0000
0010
0100
,
0010
0000
1000
0000
0100
0000
0010
0000
0100
0000
1000
0000
0000
0000
0100
0010
,
0100
0000
1000
0000
0100
0000
0010
0000
0001
0000
0001
0000
0001
0000
0000
1000
,
0001
0000
0010
0000
1000
0000
0010
0000
0001
0000
0001
0000
1000
0001
1000
0001
,
1000
0100
1100
0000
1000
0100
1100
0000
,
1000
0000
0100
0000
0010
0000
0000
0001
0100
0000
0010
0000
1000
0000
1000
0000
,
1002
0013
0200
1300
,
0200
0000
0000
0000
0310
0000
0000
0001
1000
0000
0000
0000
0001
1000
0001
1000
,
0001
0100
0101
0000
0001
0100
0101
0000
,
0001
0000
0100
0000
0010
0000
0000
1000
0001
0000
0010
0000
0100
0000
0100
0000
,
0210
0301
2000
3010
,
0200
0000
0000
0000
0310
0000
0000
0000
1000
0001
1000
0000
0010
0100
0010
0000
,
0200
0000
0000
0000
0310
0000
0000
0000
1000
0001
1000
0000
0010
0100
0010
0000
,
1000
0000
0000
1000
0010
0000
0000
0000
0100
0000
0000
0100
0001
0000
0000
0000
,
0010
0100
0010
0000
0001
0000
1000
0000
0100
0010
0100
0000
1000
0001
1000
0001
,
0100
0000
0000
0000
;

//---------------dance-single - ----------------
#NOTES:
     dance-single:
     :
     Challenge:
     9:
     0.625,0.601,0.240,0.192,0.373: // measure 1
0001
0000
0010
0000
0100
0000
1000
0000
0002
0000
0000
0000
0003
0000
1000
0100
,  // measure 2
1000
0000
0001
0000
0010
0000
0100
0000
2000
0000
0000
0000
3000
0000
0100
0010
,  // measure 3
0100
0000
1000
0000
0001
0000
0010
0000
0200
0000
0000
0000
0300
0000
0010
0001
,  // measure 4
0010
0000
0100
0000
1000
0000
0001
0000
0100
0010
0200
0000
0000
0000
0301
1000
,  // measure 5
0001
0000
0010
0000
0100
0000
1000
0000
0002
0000
0000
0000
0003
0000
1000
0010
,  // measure 6
1000
0000
0100
0000
0010
0000
0100
0000
2000
0000
0000
0000
3000
0000
0001
0100
,  // measure 7
0001
0000
0010
0000
0100
0000
0010
0000
0001
0000
0001
0000
1001
0000
0000
1000
,  // measure 8
0001
0010
0100
0010
0001
0001
1000
1000
,  // measure 9
0110
0110
0110
0000
1001
1001
1001
0000
,  // measure 10
0110
0000
0100
0000
0001
0000
0000
1000
0001
0000
0010
0000
0100
0000
1000
0000
,  // measure 11
0002
0000
0100
0000
0103
0000
0000
0010
2000
0000
0100
0000
3100
0000
1000
0000
,  // measure 12
0001
0000
0010
0000
0100
0000
0000
1000
0001
0000
0000
0000
1000
0001
1000
0000
,  // measure 13
0110
0110
0110
0000
1001
1001
1001
0000
,  // measure 14
1000
0000
0010
0000
0100
0000
0000
0001
1000
0000
0100
0000
0010
0000
0001
0000
,  // measure 15
2000
0000
0100
0000
3100
0000
0000
0010
0002
0000
0100
0000
0103
0000
0001
0000
,  // measure 16
1000
0000
0100
0000
0010
0000
0001
0000
1000
0010
1000
0010
0100
0001
0100
0001
,  // measure 17
1000
0000
1000
0000
0100
0000
0010
0000
0001
0100
0001
0100
0010
1000
0010
1000
,  // measure 18
0001
0001
0010
0010
0001
0001
1000
1000
,  // measure 19
0010
0100
0010
0000
1000
0001
1000
0000
0010
0100
0010
0000
1000
0001
1000
0001
,  // measure 20
0100
0000
0100
0000
,  // measure 21
0100
0000
0000
0000
0000
0000
0000
0000
0100
0000
0000
0000
0000
0000
0001
1000
,  // measure 22
0001
0000
0100
0000
1000
0000
0100
0000
0001
0000
1000
0000
0100
0000
0010
0100
,  // measure 23
0010
0000
0001
0000
0010
0000
1000
0000
0010
0000
0001
0000
1000
0000
0100
1000
,  // measure 24
0100
0000
0010
0000
0100
0000
1000
0000
0010
0000
0100
0000
0001
0000
0010
0001
,  // measure 25
0010
0000
0100
0000
0010
0000
0001
0000
1000
0000
1000
0000
0010
0000
0100
0001
,  // measure 26
0100
0000
0001
0000
0100
0000
1000
0000
0100
0000
0001
0000
1000
0000
0100
0010
,  // measure 27
0100
0000
0010
0000
0100
0000
1000
0000
0001
0000
0100
0000
0010
0000
1000
0001
,  // measure 28
1000
0000
0100
0000
0010
0000
0100
0000
1000
0000
1000
0000
0001
0000
0000
0100
,  // measure 29
0001
0000
0010
0000
0100
0000
1000
0000
0001
0000
0001
0000
1000
0001
1000
0001
,  // measure 30
1000
0000
0010
0000
0110
0000
0000
0000
0001
0000
0100
0000
0110
0000
0000
1000
,  // measure 31
0001
0000
0010
0000
0100
0000
0000
1000
0010
0000
0100
0000
0001
0000
0001
0000
,  // measure 32
2001
3100
0020
0031
,  // measure 33
0020
0000
0000
0000
0130
0000
0000
1000
0001
0000
0000
0000
1000
0001
1000
0001
,  // measure 34
1000
0000
0100
0000
0110
0000
0000
0000
0001
0000
0010
0000
0110
0000
0000
0001
,  // measure 35
1000
0000
0010
0000
0100
0000
0000
0001
1000
0000
0100
0000
0010
0000
0010
0000
,  // measure 36
0120
1030
0002
0103
,  // measure 37
0020
0000
0000
0000
0130
0000
0000
0000
0001
0100
0001
0100
0010
1000
0010
1000
,  // measure 38
0001
0000
0001
0000
0010
0000
0100
0000
1000
0010
1000
0010
0100
0001
0100
0001
,  // measure 39
1000
0000
0000
0001
0100
0000
0010
0000
1000
0000
0000
0100
0010
0000
0001
0000
,  // measure 40
0010
0100
0010
0100
1000
0001
1000
0001
0010
0100
0010
0100
1000
0010
1000
0001
,  // measure 41
0010
0000
0000
0000
;

//---------------dance-single - ----------------
#NOTES:
     dance-single:
     :
     Beginner:
     1:
     0.076,0.096,0.072,0.000,0.000:
1000
0000
0000
0000
,
1000
0000
0000
0000
,
1000
0000
0000
0000
,
1000
0000
0000
0000
,
0001
0000
0000
0000
,
0001
0000
0000
0000
,
0001
0000
0000
0000
,
0001
0000
0000
0000
,
0100
0000
0000
0000
,
0000
0000
0000
0000
,
0110
0000
0000
0000
,
0000
0000
0000
0000
,
0010
0000
0000
0000
,
0000
0000
0000
0000
,
0110
0000
0000
0000
,
0000
0000
1000
0000
,
0001
0000
1000
0000
,
0010
0000
0000
0000
,
0010
0000
0000
0000
,
1001
0000
0000
0000
,
0000
0000
0000
0000
,
0001
0000
0000
0000
,
1000
0000
0000
0000
,
0001
0000
0000
0000
,
1000
0000
0000
0000
,
0100
0000
0000
0000
,
0010
0000
0000
0000
,
0100
0000
0000
0000
,
0010
0000
0000
0000
,
0001
0000
0000
0000
,
0001
0000
0000
0000
,
1001
0000
0000
0000
,
0000
0000
0000
0000
,
1000
0000
0000
0000
,
0001
0000
0000
0000
,
1001
0000
0000
0000
,
0000
0000
0100
0000
,
0100
0000
0010
0000
,
0010
0000
0000
0000
,
0100
0000
0000
0000
,
1001
0000
0000
0000
;
