#TITLE:It's my Miracle;
#SUBTITLE:;
#ARTIST:Another Infinity feat. Mayumi Morinaga;
#TITLETRANSLIT:;
#SUBTITLETRANSLIT:;
#ARTISTTRANSLIT:;
#CREDIT:DigiMindAxel;
#BANNER:It's my Miracle.png;
#BACKGROUND:It's my Miracle-bg.png;
#LYRICSPATH:It's my Miracle.lrc;
#CDTITLE:REFLEC BEAT.png;
#MUSIC:It's my Miracle.mp3;
#OFFSET:-7.635;
#SAMPLESTART:34.986;
#SAMPLELENGTH:12.000;
#SELECTABLE:YES;
#BPMS:0.000=175.000,144.000=87.500,160.000=175.000;
#STOPS:;
#BGCHANGES:;

//---------------dance-single - ----------------
#NOTES:
     dance-single:
     :
     Easy:
     3:
     0.233,0.275,0.027,0.155,0.000:
0001
0100
0001
0100
,
0001
1000
0001
1000
,
0001
0010
0100
1000
,
0020
0000
0000
0000
,
0130
0000
0000
0000
,
0000
0000
0000
0000
,
0001
0000
0000
0000
,
0000
0000
0000
0000
,
1000
0000
0000
0000
,
0000
0000
0000
0000
,
0100
0000
0000
0000
,
0010
0000
0000
0000
,
0001
1000
0001
0000
,
0010
0001
0100
0000
,
0001
1000
0001
0000
,
0100
0001
0010
0000
,
0100
1000
0100
0000
,
1000
0001
1000
0000
,
0010
1000
0010
0000
,
2000
0000
0000
0000
,
3001
0010
0100
1000
,
0001
0001
0001
0000
,
1000
0100
0010
0001
,
1000
1000
1000
0000
,
0010
0100
0001
1000
,
0010
0010
0010
0000
,
0100
0010
1000
0001
,
0200
0000
0000
0000
,
0301
0000
0010
0000
,
0100
0000
1000
0000
,
0010
0000
0100
0000
,
0001
0000
1000
0001
,
1000
0100
0010
0000
,
0001
1000
0100
0010
,
0001
1000
0001
1000
,
0020
0000
0000
0000
,
0130
0000
0000
0000
,
0002
0000
0000
0000
0000
0000
0000
0003
,
2000
0000
3000
0000
,
0020
0000
0030
0000
,
2002
0000
0000
0000
,
3003
0000
0000
0000
,
0200
0000
0000
0000
,
1300
0000
0000
0000
,
2002
0000
0000
0000
,
3003
0000
0000
0000
,
0020
0000
0000
0000
,
0032
0000
0000
0000
,
0203
0000
0320
0000
,
0130
0010
0100
0010
,
0000
0000
0000
0000
,
1000
0100
0010
0001
,
1000
1000
0001
0001
,
0010
0100
1000
0010
,
0100
0100
0001
0001
,
1000
0010
0100
0001
,
1000
1000
0001
0001
,
0010
0100
1000
0001
,
0200
0000
0000
0300
,
0010
0100
0010
0100
,
0001
0010
0100
0000
,
1000
0001
1000
0001
,
1000
0010
0100
0000
,
0001
1000
0001
1000
,
0001
0010
0100
0000
,
0010
0001
0010
0001
,
0100
0000
0000
0000
,
1001
0000
0000
0000
;

//---------------dance-single - ----------------
#NOTES:
     dance-single:
     :
     Medium:
     6:
     0.377,0.397,0.155,0.164,0.014:
0001
0100
0010
1000
,
0001
0010
0100
1000
,
0010
0100
0010
0100
0010
0100
0010
0100
,
0020
0000
0000
0000
,
0130
0010
0100
0010
,
1000
0000
0000
0000
,
0010
0100
0010
0100
,
0001
0000
0000
0000
,
0010
0001
0010
0001
,
1000
0000
0000
0000
,
0100
1000
0100
1000
,
0001
0000
0000
0000
,
1001
0100
1000
0100
,
0001
0100
1000
0100
,
0001
0010
0100
1000
,
0010
0100
0001
0000
,
1000
0010
0001
0010
,
1000
0010
0001
0010
,
1000
0010
0100
0001
,
2000
0000
0000
3001
,
0101
0000
0100
0000
0001
0010
0100
1000
,
0000
0010
0100
0010
1000
0000
0000
0000
,
1010
0000
0010
0000
1000
0100
0010
0001
,
0000
0100
0010
0100
0001
0000
0000
0000
,
0011
0000
0010
0000
0001
0100
0010
1000
,
0000
0100
0010
0100
1000
0000
0000
0000
,
1100
0000
0100
0000
1000
0010
0100
0001
,
2000
0000
0000
3000
,
0020
0000
0100
0130
,
0002
0000
1000
1003
,
0020
0000
0100
0130
,
0002
0000
0000
0003
,
1000
0010
0101
0000
,
0010
1000
1100
0000
,
0100
0010
0100
0010
0100
0010
0100
0010
,
0200
0000
0000
0000
,
0320
0000
0000
0000
0000
0000
0000
0030
,
0000
0000
0000
0000
,
0200
0000
0000
0000
0000
0000
0000
0300
,
0000
0000
0000
0000
0000
0000
0000
0000
0000
0001
1000
0001
1000
0010
0100
0000
,
0020
0000
0130
0100
,
0002
0000
0000
0003
2000
0000
0000
3000
,
0020
0000
0130
0100
,
2002
0000
0000
3003
,
0001
0100
1000
0100
,
0001
0100
1000
0100
,
0001
0010
0100
1000
,
0001
0010
0100
1000
,
0010
0001
0010
1000
,
0010
0001
0010
1000
,
0002
0000
0000
1003
,
0001
0100
0010
0000
0100
0000
0001
0000
,
0010
0100
1000
0000
0001
0010
0100
0000
,
0010
0001
0100
0000
0001
0000
0010
0000
,
0001
0010
0100
0000
1000
0010
0100
0000
,
0001
1000
0100
0000
0010
0000
0001
0000
,
1000
0100
0010
0000
0100
0010
0001
0000
,
1000
0001
0100
0000
0001
0000
1000
0000
,
0020
0000
0000
0130
,
1001
0000
0110
0000
1000
0100
0010
0001
,
0000
0010
0001
0100
0010
1000
0000
0000
,
0110
0000
1001
0000
1000
0100
0010
0001
,
0000
0100
0001
0010
0100
0000
0000
0000
,
1001
0000
0110
0000
0001
0010
0100
1000
,
0000
0100
1000
0010
0100
0001
0000
0000
,
0110
0000
1001
0000
0001
0010
0100
1000
,
0000
0010
1000
0100
0010
0000
0010
0000
,
1001
0000
0000
0000
;

//---------------dance-single - ----------------
#NOTES:
     dance-single:
     :
     Hard:
     8:
     0.613,0.763,0.182,0.210,0.273: // measure 1
1000
0000
0001
0000
1000
0100
0001
0000
,  // measure 2
0100
1000
0001
0010
,  // measure 3
1000
0010
0001
0100
0010
1000
0010
0100
,  // measure 4
0001
1000
0001
1000
0001
1000
0001
0000
,  // measure 5
0200
0000
0310
0000
0001
0010
1000
0010
,  // measure 6
0000
0001
0001
1000
0100
0010
0000
0000
,  // measure 7
0200
0000
0310
0000
1000
0100
0001
0100
,  // measure 8
0000
1000
1000
0010
0100
0000
0000
0000
,  // measure 9
0020
0000
0130
0000
0001
0100
1000
0100
,  // measure 10
0000
0001
0001
1000
0010
0100
0000
0000
,  // measure 11
0020
0000
0130
0000
1000
0010
0001
0010
,  // measure 12
0000
1000
1000
0001
0010
0100
1000
0000
,  // measure 13
1001
0000
1000
0100
0001
0000
0001
0100
,  // measure 14
1000
0000
0001
0010
1000
0000
1000
0010
,  // measure 15
0001
0000
1000
0100
0001
0000
0001
0100
,  // measure 16
1000
0000
0001
0010
1000
0010
0001
1000
,  // measure 17
1000
0000
0001
0010
1000
0000
1000
0010
,  // measure 18
0001
0000
1000
0100
0001
0000
0001
0100
,  // measure 19
1000
0000
0001
0010
1000
0000
1000
0010
,  // measure 20
0002
0000
0000
0100
0000
0000
0103
0000
0000
0000
0010
0100
0010
0000
0000
0000
,  // measure 21
1100
0000
0101
0000
0010
0100
1000
0001
,  // measure 22
0000
0001
1000
0100
0001
0100
0000
0000
,  // measure 23
1001
0000
0110
0000
0010
0100
0001
0001
,  // measure 24
0000
0001
1000
0100
0010
0000
0110
0000
,  // measure 25
0101
0000
1100
0000
1000
0001
0100
0010
,  // measure 26
0000
0010
0100
0001
1000
0100
0010
0000
,  // measure 27
0102
0000
0010
0000
0103
0001
0010
0100
,  // measure 28
2000
0001
0001
3000
,  // measure 29
0200
0000
0000
1000
0000
0000
1300
0000
0020
0000
0000
0100
0000
0000
0130
0000
,  // measure 30
0002
0000
0000
0010
0000
0000
0013
0000
0200
0000
0000
0010
0000
0000
0310
0000
,  // measure 31
2000
0000
0000
0010
0000
0000
3010
0000
0200
0000
0000
0010
0000
0000
0310
0000
,  // measure 32
2000
0000
0000
0001
0000
0000
3001
0000
0200
0000
0000
0001
0000
0000
0301
0000
,  // measure 33
1000
0000
0100
0000
0010
0000
0001
0000
1000
0000
0001
0100
0002
0000
0000
0000
,  // measure 34
1003
0000
0100
0000
0010
0000
0001
0000
1000
0000
0001
0100
0002
0000
0000
0000
,  // measure 35
1003
0010
0100
0001
0100
0010
1000
0001
,  // measure 36
0100
1000
0100
0001
0010
1000
0010
0001
,  // measure 37
1000
0000
1000
0000
0010
1000
0100
0010
0000
0001
0100
0010
0100
0001
0000
0000
,  // measure 38
0010
0100
1000
0010
0100
0001
0001
0000
,  // measure 39
1000
0000
1000
0000
0010
1000
0100
0010
0000
0001
0100
0010
0100
0001
0000
0000
,  // measure 40
0010
0000
0100
0000
1000
0001
0010
0001
0000
1000
0100
0001
0100
1000
0001
0000
,  // measure 41
0201
0000
0010
0000
0010
0000
0310
1000
,  // measure 42
0100
0001
0100
1000
,  // measure 43
0020
0000
0100
0000
0100
0000
0130
0002
,  // measure 44
2000
0000
0000
3003
,  // measure 45
0001
0000
0100
0000
0001
0000
0000
0000
1000
0000
0000
0100
0000
0000
0010
0000
,  // measure 46
0100
0000
0000
1000
0000
0000
0010
0000
0100
0000
0000
0001
0000
0000
0001
0000
,  // measure 47
1000
0000
0100
0000
0010
0000
0000
0000
0100
0000
0000
1000
0000
0000
0001
0000
,  // measure 48
1000
0000
0100
0000
0010
0000
0000
0000
0100
0000
0000
1000
0000
0000
0001
0000
,  // measure 49
0110
0000
1000
0010
0110
0000
0001
0100
,  // measure 50
0010
0000
0010
0000
0100
0000
0100
0000
0001
1000
0001
1000
0001
1000
0002
0000
,  // measure 51
0000
0000
0000
1003
,  // measure 52
0001
0000
0100
0000
0001
1000
0000
1000
0100
0000
0000
1000
0000
0000
0100
0000
,  // measure 53
0001
0000
0000
0100
0000
0000
1000
0000
0001
0000
0000
0001
0000
0000
0001
0000
,  // measure 54
1000
0000
0010
0000
0100
0001
0000
0001
1000
0000
0000
0001
0000
0000
0100
0000
,  // measure 55
1000
0000
0000
0100
0000
0000
0001
0000
0100
0000
1000
0000
0100
0000
0010
0000
,  // measure 56
0001
0000
1000
0000
0100
1000
0000
1000
0001
0000
0000
0010
0000
0000
1000
0000
,  // measure 57
0010
0000
0000
0001
0000
0000
1000
0000
0001
0000
0000
0100
0000
0000
1000
0000
,  // measure 58
0100
0000
0001
0000
1000
0001
0000
0001
0100
0000
0000
0010
0000
0000
1000
0000
,  // measure 59
0200
0000
0000
0010
0000
0000
0310
0000
0000
0000
0001
1000
0001
0000
0000
0000
,  // measure 60
0101
0000
1100
0000
1000
0001
0100
0100
,  // measure 61
0000
0001
0010
1000
0100
0001
1000
0000
,  // measure 62
1001
0000
0110
0000
0001
1000
0100
0010
,  // measure 63
0000
0010
0100
1000
0001
0000
1001
0000
,  // measure 64
1100
0000
0101
0000
0001
1000
0100
0100
,  // measure 65
0000
1000
0010
0001
0100
1000
0001
0000
,  // measure 66
1000
0001
1000
0100
0001
0010
1000
0001
,  // measure 67
1000
0001
1000
0001
1000
0001
1000
0001
1000
0001
1000
0001
1000
0000
0000
0000
,  // measure 68
0110
0000
0000
0000
;

//---------------dance-single - ----------------
#NOTES:
     dance-single:
     :
     Beginner:
     1:
     0.074,0.122,0.036,0.000,0.000:
0001
0000
0000
0000
,
0001
0000
0000
0000
,
0001
0000
0000
0000
,
0001
0000
0000
0000
,
1001
0000
0000
0000
,
0000
0000
0000
0000
,
1000
0000
0000
0000
,
0000
0000
0000
0000
,
0001
0000
0000
0000
,
0000
0000
0000
0000
,
1000
0000
0000
0000
,
0000
0000
0000
0000
,
0100
0000
0000
0000
,
0100
0000
0000
0000
,
0100
0000
0000
0000
,
0100
0000
0000
0000
,
1000
0000
0000
0000
,
1000
0000
0000
0000
,
1000
0000
0000
0000
,
1000
0000
0000
0000
,
0010
0000
0000
0000
,
0000
0000
0000
0000
,
0010
0000
0000
0000
,
0000
0000
0000
0000
,
0100
0000
0000
0000
,
0000
0000
0000
0000
,
0100
0000
0000
0000
,
0000
0000
0000
0000
,
0001
0000
0000
0000
,
1000
0000
0000
0000
,
0001
0000
0000
0000
,
1000
0000
0000
0000
,
0001
0000
0000
0000
,
0001
0000
0000
0000
,
1000
0000
0000
0000
,
1000
0000
0000
0000
,
1000
0000
0000
0000
,
0000
0000
0000
0000
,
0010
0000
0000
0000
,
0000
0000
0000
0000
,
1001
0000
0000
0000
,
0000
0000
0000
0000
,
1000
0000
0000
0000
,
0000
0000
0000
0000
,
0001
0000
0000
0000
,
0000
0000
0000
0000
,
1000
0000
0000
0000
,
0001
0000
0000
0000
,
1000
0000
0000
0000
,
0001
0000
0000
0000
,
1000
0000
0000
0000
,
1001
0000
0000
0000
,
0010
0000
0000
0000
,
0100
0000
0000
0000
,
0010
0000
0000
0000
,
0001
0000
0000
0000
,
1000
0000
0000
0000
,
0001
0000
0000
0000
,
1000
0000
0000
0000
,
0100
0000
0000
0000
,
0000
0000
0000
0000
,
0010
0000
0000
0000
,
0000
0000
0000
0000
,
0100
0000
0000
0000
,
0000
0000
0000
0000
,
1000
0000
0001
0000
,
1000
0000
0000
0000
,
1001
0000
0000
0000
;
