#TITLE:I know You know;
#SUBTITLE:;
#ARTIST:Suke+Suke feat. Ribbon;
#TITLETRANSLIT:;
#SUBTITLETRANSLIT:;
#ARTISTTRANSLIT:;
#CREDIT:DigiMindAxel;
#BANNER:I know You know.png;
#BACKGROUND:I know You know-bg.png;
#LYRICSPATH:I know You know.lrc;
#CDTITLE:beatmania IIDX.png;
#MUSIC:I know You know.mp3;
#OFFSET:-0.040;
#SAMPLESTART:45.221;
#SAMPLELENGTH:15.000;
#SELECTABLE:YES;
#BPMS:0.000=136.000;
#STOPS:;
#BGCHANGES:1.000=I know You know.avi=1.000=0=0=0,
267.500=I know You know-bg.png=1.000=0=0=1,
99999=-nosongbg-=1.000=0=0=0 // don't automatically add -songbackground-
;

//---------------dance-single - ----------------
#NOTES:
     dance-single:
     :
     Beginner:
     1:
     0.077,0.135,0.082,0.000,0.000:
0000
0000
0000
0000
,
0000
0000
0000
0000
,
0000
0000
0000
0000
,
0000
0000
0000
0000
,
0000
0000
0000
0000
,
0000
0000
0000
0000
,
1000
0000
0000
0000
,
0000
0000
0001
0000
,
0000
0000
0000
0000
,
1000
0000
0000
0000
,
1001
0000
0000
0000
,
0001
0000
0000
0000
,
1000
0000
0000
0000
,
0001
0000
0000
0000
,
0110
0000
0000
0000
,
0100
0000
0000
0000
,
0010
0000
0000
0000
,
0100
0000
0000
0000
,
1001
0000
0000
0000
,
0000
0000
0000
0000
,
0001
0000
0000
0000
,
0000
0000
0000
0000
,
1000
0000
1000
0000
,
0001
0000
0001
0000
,
1000
0000
0000
0000
,
0010
0000
0000
0000
,
0110
0000
0000
0000
,
0100
0000
0000
0000
,
0010
0000
0000
0000
,
0100
0000
0000
0000
,
1001
0000
0000
0000
,
0001
0000
0000
0000
,
1000
0000
0000
0000
,
0001
0000
0000
0000
,
1001
0000
0000
0000
,
1000
0000
0000
0000
,
0001
0000
0000
0000
,
1000
0000
0000
0000
,
0110
0000
0000
0000
,
0010
0000
0000
0000
,
0010
0000
0000
0000
,
0000
0000
0000
0000
,
0100
0000
0000
0000
,
0010
0000
0000
0000
,
0100
0000
0000
0000
,
0010
0000
0000
0000
,
1000
0000
0000
0000
,
0001
0000
0000
0000
,
1000
0000
0000
0000
,
0001
0000
0000
0000
,
1001
0000
0000
0000
,
0000
0000
0000
0000
,
0001
0000
0000
0000
,
0000
0000
0000
0000
,
1000
0000
0000
0000
,
0001
0000
0000
0000
,
1001
0000
0000
0000
,
0000
0000
0000
0000
,
0100
0000
0000
0000
,
0100
0000
0000
0000
,
0010
0000
0000
0000
,
0010
0000
0000
0000
,
0100
0000
0000
0000
,
0100
0000
0000
0000
,
0010
0000
0000
0000
,
0010
0000
0000
0000
,
1001
0000
0000
0000
;

//---------------dance-single - ----------------
#NOTES:
     dance-single:
     :
     Easy:
     3:
     0.227,0.247,0.016,0.025,0.000:
0000
0000
0000
0000
,
0000
0000
0000
0000
,
0000
0000
0000
0000
,
0000
0000
0000
0000
,
0000
0000
0000
0000
,
0000
0000
0000
0000
,
0001
1000
0001
0000
,
0100
0001
0100
0000
,
0010
1000
0010
0000
,
0000
0100
0010
0100
,
1001
1000
1000
1000
,
1000
1000
1000
0000
,
0001
0001
0001
0001
,
0000
0000
0000
0000
,
0100
0100
0100
0100
,
0100
0100
0100
0000
,
0010
0010
0010
0000
,
0000
1000
0001
1000
,
0100
1000
0100
0000
,
0010
0001
0010
0000
,
0001
1000
0001
0000
,
0100
0001
0100
0000
,
0010
1000
0010
0000
,
0100
0010
0100
0000
,
0001
0000
0000
1000
0000
0000
0000
0001
,
0000
0000
0000
0000
,
1000
0100
1000
0100
,
1000
0100
1000
0100
,
0010
0001
0010
0001
,
0010
0001
0010
0001
,
0010
0100
0010
0100
,
1000
0001
1000
0001
,
0010
0100
1000
0010
,
0100
0010
0000
0000
,
1000
0001
1000
0001
,
1000
0001
1000
0001
,
0100
0001
0100
0001
,
0100
0001
0100
0001
,
1000
0000
0000
0010
0000
0000
0000
0000
,
0100
0000
0000
0001
0000
0000
0000
0000
,
0010
0000
0000
0000
0100
0000
0000
1000
,
0000
0000
0000
0000
,
0001
1000
0001
1000
,
0010
0100
0010
0100
,
0001
0010
0100
1000
,
0001
0100
0001
0100
,
0010
1000
0010
1000
,
0100
0010
0100
0010
,
0001
1000
0001
0010
,
0100
0000
0000
0000
,
1000
0100
1000
0100
,
1000
0100
1000
0100
,
0010
0001
0010
0001
,
0010
0001
0100
0001
,
1000
0000
0000
0100
0000
0000
0000
0000
,
0010
0000
0000
0001
0000
0000
0000
0000
,
0200
0000
0000
0000
,
0300
0000
0000
0000
,
0001
1000
0001
0000
,
0010
0001
0010
0100
,
1000
0001
1000
0000
,
0100
1000
0100
0010
,
0001
0100
0001
0000
,
0010
0100
0010
0100
,
0010
0001
0010
0000
,
0100
1000
0100
0010
,
2002
0000
0000
0000
0000
0000
0000
3003
;

//---------------dance-single - ----------------
#NOTES:
     dance-single:
     :
     Medium:
     5:
     0.354,0.411,0.345,0.074,0.000:
0000
0000
0000
0000
,
0000
0000
0000
0000
,
0000
0000
0000
0000
,
0000
0000
0000
0000
,
0000
0000
0000
0000
,
0000
0000
0000
0000
,
1000
0100
0010
0100
,
1000
0010
0100
0010
,
1000
0000
0001
0000
0100
0000
0010
0200
,
0000
0000
0300
0000
,
0101
0101
0110
0110
,
0101
0101
0110
0000
,
1000
0000
0100
0000
1000
0000
0010
0100
,
0001
0010
0100
1000
,
1100
1100
0110
0110
,
1100
1100
0110
0000
,
0001
0000
0100
0010
0000
1000
0000
1000
,
0000
0001
0100
0000
0010
0000
0100
0000
,
0110
0000
0101
0000
0110
0000
0000
0100
,
0000
0010
0100
0000
1000
0001
1000
0000
,
0110
0000
1100
0000
0110
0000
0000
0010
,
0000
0100
0010
0000
0001
1000
0001
0000
,
0010
0100
1000
0100
,
0010
0001
0100
0010
,
1001
0000
0000
0110
0000
0000
0000
2002
,
0000
0000
3003
0000
,
0001
0000
0100
0010
0100
0010
0100
0001
,
0000
0010
0000
0100
0000
0000
0000
0000
,
1000
0000
0010
0100
0010
0100
0010
1000
,
0000
0100
0000
0010
0000
0000
0000
0000
,
0101
0100
0110
0100
,
0101
0100
0110
1000
,
1100
0000
0010
0100
0010
0100
0010
0000
,
1000
0001
0001
0000
1000
0100
1000
0000
,
1001
0000
0010
0100
0010
0100
0010
1000
,
0000
0100
0000
0010
0000
0000
0001
1000
,
0001
0000
0100
0010
0100
0010
0100
0001
,
0000
0010
0000
0100
0000
0000
1000
0000
,
1001
0000
0000
1100
0000
0000
0000
0000
,
1001
0000
0000
0011
0000
0000
0000
0000
,
0110
0000
0000
0000
0110
0000
0000
1001
,
0000
0000
0000
0000
,
2000
0001
0100
3001
,
1000
0100
0010
0001
,
1000
0100
1000
0000
0100
0010
0100
0000
,
0010
0000
0001
1000
0001
0100
0010
0000
,
1000
0000
0100
0000
0001
0100
1000
0000
,
0001
0000
0010
0000
1000
0010
0001
0000
,
2000
0000
0001
0000
0100
0000
3001
1000
,
0000
0000
0000
0000
,
0101
0000
0010
0100
0010
0100
0010
0001
,
0000
0100
0000
0010
0000
0000
1000
0010
,
1000
0000
0100
0010
0100
0010
0100
1000
,
0000
0010
0000
0100
0000
0000
0001
1000
,
0001
0000
0000
0011
0000
0000
0000
0000
,
0100
0000
0000
0110
0000
0000
0000
0000
,
2001
0000
0000
0000
0000
0000
0000
3002
,
0000
0000
0000
0003
,
1000
0001
0100
0001
1000
0000
0100
0000
,
0010
0100
0010
0000
0001
0100
0010
0000
,
1000
0001
1000
0000
0001
0100
0010
0000
,
0100
0100
0010
0000
0100
0000
0110
0000
,
1000
0010
0100
0000
0010
0100
0010
0000
,
1000
0001
0010
0000
0001
0010
0001
0000
,
0100
0010
1000
0000
0100
1000
0100
0000
,
0010
0010
0100
0000
1000
0001
0100
0000
,
2002
0000
0000
0000
0000
0000
0000
3003
;

//---------------dance-single - ----------------
#NOTES:
     dance-single:
     :
     Hard:
     8:
     0.580,0.658,0.386,0.180,0.271: // measure 1
0000
0000
0000
0000
,  // measure 2
0000
0000
0000
0000
,  // measure 3
0000
0000
0000
0000
,  // measure 4
0000
0000
0000
0000
,  // measure 5
0000
0000
0000
0000
,  // measure 6
0000
0000
0000
0000
,  // measure 7
0001
1000
0010
0100
0001
0000
0000
0010
,  // measure 8
0100
0000
1000
0000
0001
0000
0000
0000
1000
0000
0000
0100
0000
0000
0001
0000
,  // measure 9
0100
1000
0000
0010
0000
0100
0001
2000
,  // measure 10
0000
0000
0001
0000
0000
0000
3001
0100
0001
0000
1000
0000
0100
0000
0000
0000
,  // measure 11
0010
0010
0100
0100
1000
1000
0001
0001
,  // measure 12
0100
0100
0010
0010
0100
0001
1000
0000
,  // measure 13
0001
0010
1000
0010
0001
0000
0010
0100
,  // measure 14
1000
0000
0010
0100
0000
0100
0010
0000
1000
0000
1000
0000
0010
0000
0100
0000
,  // measure 15
0001
0001
0010
0010
0100
0100
0010
0010
,  // measure 16
0001
0001
1000
1000
0010
0100
0001
0001
,  // measure 17
1001
0000
0100
0100
0000
1100
0000
1100
,  // measure 18
0000
0000
1000
0000
0001
0000
0001
0000
0100
0000
0100
0000
0010
0100
0010
0000
,  // measure 19
1001
0000
0110
0000
1001
0000
0110
0100
,  // measure 20
0000
0000
0010
0000
0100
0000
0001
1000
0001
0000
1000
0000
0100
0000
0010
0000
,  // measure 21
1001
0000
0110
0000
1001
0000
0110
0010
,  // measure 22
0000
0000
0100
0000
0010
0000
1000
0001
1000
0000
0100
0000
0010
0000
0001
0000
,  // measure 23
1000
0100
0001
0100
1000
0100
0001
0100
,  // measure 24
1000
0010
0001
0010
1000
0010
0001
0010
,  // measure 25
1010
0000
0100
0110
0000
0001
0000
2002
,  // measure 26
0000
0000
0003
0200
3300
0000
0000
0000
,  // measure 27
1000
0010
0100
0001
0100
1000
0100
0010
,  // measure 28
0000
1100
0000
0011
0000
1000
1000
1000
,  // measure 29
0001
0010
0100
1000
0010
0001
0010
0100
,  // measure 30
0000
0011
0000
1100
0000
0001
0001
0001
,  // measure 31
1000
0001
0010
0100
0000
0100
0010
0001
,  // measure 32
0000
0001
0010
0100
0000
1001
0000
1001
,  // measure 33
0000
0000
1000
0100
1000
0000
0001
0100
0001
0000
0010
0100
0010
0000
0100
0000
,  // measure 34
0010
0000
0001
0000
0001
0000
1000
0000
0010
0000
0100
0010
0100
0010
0100
0000
,  // measure 35
0001
0010
0100
1000
0100
0001
0100
0010
,  // measure 36
0000
0101
0000
1010
0000
1000
1000
1000
,  // measure 37
0001
0100
0010
1000
0010
0001
0010
0100
,  // measure 38
0000
0101
0000
1010
0000
0001
0001
0001
,  // measure 39
0110
0000
0000
0110
0000
0000
2100
0000
0000
0000
0001
0000
3001
0000
0000
0000
,  // measure 40
0110
0000
0000
0110
0000
0000
0102
0000
0000
0000
1000
0000
1003
0000
0000
0000
,  // measure 41
1100
0000
0000
0100
0101
0001
0000
1001
,  // measure 42
0000
0001
0010
0001
0200
0000
0000
0300
,  // measure 43
0001
0000
0100
0000
0010
0000
0100
0001
0000
2000
0000
0000
3000
0000
0010
0100
,  // measure 44
0000
0002
0000
1003
0100
1000
0001
0000
0010
0000
0100
0000
1000
0000
0001
1000
,  // measure 45
0001
0010
1000
0010
0001
0010
1000
0010
,  // measure 46
0001
0000
1000
0100
1000
0100
1000
0000
0001
0000
0100
0010
0100
0010
0100
0000
,  // measure 47
0001
0000
0000
1000
0000
0000
0100
1000
0000
0001
0000
0001
0000
0100
0010
1000
,  // measure 48
0200
0000
0000
0000
0000
0000
0000
0000
0000
0000
0000
0000
1300
0000
0000
0000
0000
0000
0001
0000
0000
1000
0000
0000
0001
0000
0000
0000
0010
0000
0000
0000
0100
0000
0000
0000
1000
0000
0000
0000
0010
0000
0000
0000
0100
0000
0000
0000
,  // measure 49
0002
0000
0000
0000
1003
0000
0000
0000
0001
0000
0100
0010
1000
0000
2002
0000
,  // measure 50
0000
0000
0000
3003
,  // measure 51
1000
0100
0001
0100
1000
0010
0100
0101
,  // measure 52
0000
1010
0000
0110
0000
1000
1000
1000
,  // measure 53
0001
0100
1000
0100
0001
0010
0100
1100
,  // measure 54
0000
0011
0000
0110
0000
0001
0001
0001
,  // measure 55
1100
0000
0000
1100
0000
0000
1020
0000
0000
0000
0100
0000
0130
0000
0000
0000
,  // measure 56
0011
0000
0000
0011
0000
0000
0201
0000
0000
0000
0010
0000
0310
0000
0000
0000
,  // measure 57
2002
0000
0000
0000
0000
0003
0000
3020
,  // measure 58
0000
0000
0000
0000
0000
0000
0000
0000
0130
0000
0001
1000
0001
0000
0010
0000
,  // measure 59
0100
0000
1000
0001
0000
0001
1000
0000
0010
0000
0100
0010
0100
0000
0001
1000
,  // measure 60
0000
1000
0010
0100
0020
0000
0000
0000
1030
0000
0001
0010
0001
0000
1000
0000
,  // measure 61
1000
0000
0010
0100
0010
0000
1000
0000
0001
0000
0100
0001
0000
0100
0001
0000
,  // measure 62
1000
0000
1000
0000
0100
0010
0100
0000
1000
0000
0010
0000
0200
0000
0000
0000
,  // measure 63
0301
0000
1000
0010
0000
1000
0010
0000
0100
0000
0001
1000
0001
0000
1000
0100
,  // measure 64
0000
0100
1000
0001
2000
0000
0000
0000
3001
0000
0100
0010
0100
0000
0001
0000
,  // measure 65
1000
0000
0100
1000
0100
0000
1000
0000
0001
0000
0010
0100
0000
0010
0100
0000
,  // measure 66
1000
0000
1000
0000
0010
0100
0001
0010
0100
0000
0010
0100
0010
0100
0010
0100
,  // measure 67
2000
0000
0000
0000
0000
0001
0000
3001
;
