#TITLE:High School Love;
#SUBTITLE:;
#ARTIST:DJ YOSHITAKA feat. DWP;
#TITLETRANSLIT:;
#SUBTITLETRANSLIT:;
#ARTISTTRANSLIT:;
#CREDIT:DigiMindAxel;
#BANNER:High School Love.png;
#BACKGROUND:High School Love-bg.png;
#LYRICSPATH:High School Love.lrc;
#CDTITLE:pop'n music.png;
#MUSIC:High School Love.mp3;
#OFFSET:-11.137;
#SAMPLESTART:44.953;
#SAMPLELENGTH:12.000;
#SELECTABLE:YES;
#BPMS:0.000=180.000;
#STOPS:101.000=1.000
,218.000=1.000
;
#BGCHANGES:;

//---------------dance-single - ----------------
#NOTES:
     dance-single:
     :
     Easy:
     3:
     0.217,0.256,0.181,0.095,0.000:
2002
0000
0000
3003
,
0001
0000
1000
0000
,
0220
0000
0000
0330
,
1000
0000
0001
0000
,
2002
0000
0000
3003
,
0010
0000
0010
0000
,
0110
0000
0100
0000
,
0010
0100
0010
0000
,
1000
0000
0001
0000
,
1000
0000
0100
0000
,
1000
0000
0001
0000
,
0100
0000
0010
0000
,
0110
0000
1000
0000
,
1001
0000
0001
0000
,
1001
0000
1000
0000
,
1001
0000
0000
0000
0001
0000
0000
2000
,
0000
0000
0000
0000
0000
0000
0000
3001
,
0000
0000
0000
0000
1000
0000
0000
0002
,
0000
0000
0000
0000
0000
0000
0000
1003
,
0000
0000
0000
0000
0001
0000
0000
2000
,
0000
0000
0000
0000
,
0000
0000
0000
0000
,
3001
0000
0100
0000
,
0010
0000
1000
0000
,
0001
1000
0001
1000
,
0001
0000
1001
0000
,
0000
1000
0000
0001
,
0100
0001
0000
1000
,
0010
1000
0000
0010
,
0100
0010
0000
1000
,
0000
0001
0000
0010
,
0000
0100
0000
1000
,
0000
0010
0100
0010
,
0000
0000
1001
0000
,
1000
0000
0000
0001
,
1000
0001
0000
1000
,
0100
1000
0000
0010
,
0100
0010
0000
0000
,
0000
0110
0000
0000
0000
0000
0000
0000
,
0000
0100
0000
0000
,
0000
0110
0000
0000
0000
0000
0000
0000
,
0000
0010
0000
0000
,
0000
0110
0000
0000
0000
0000
1000
0000
,
0000
1001
0000
0001
,
0000
1001
0000
1000
,
0000
0001
1000
0100
,
0000
0000
1000
0001
,
0100
0000
0001
1000
,
0001
0000
1000
0001
,
1000
0000
0010
0100
,
0010
0100
0010
0100
,
0000
0001
0000
1000
,
0000
0001
0000
0010
,
0000
0100
1000
0100
,
1000
0001
0000
1001
,
0000
0000
0000
0000
,
0000
0000
2000
0000
,
0000
0000
3000
0000
,
0000
0000
1001
0000
,
0000
0000
0002
0000
,
0000
0003
1001
0000
,
1000
0000
0001
1000
,
0001
0000
0000
1000
,
0100
1000
0000
0000
,
0001
0000
1000
0001
,
1000
0000
0010
0000
,
0100
0010
0100
0000
,
0000
0000
0000
0110
0000
0000
0000
0000
,
0000
0000
0001
0000
,
0000
0000
0000
1001
0000
0000
0000
0000
,
0000
0000
1000
0000
,
0000
0000
0000
1001
0000
0000
0000
0000
,
0000
0000
0010
0000
,
0010
0000
0010
0100
,
0010
0100
0000
0000
;

//---------------dance-single - ----------------
#NOTES:
     dance-single:
     :
     Medium:
     6:
     0.426,0.416,0.310,0.146,0.000:
1001
0000
0000
1000
0000
0001
0000
1000
,
0000
0010
0100
0010
,
1001
0000
0000
0001
0000
1000
0000
0001
,
0000
0100
0010
0100
,
1001
0000
0000
1000
0000
0001
0000
1000
,
0000
0010
0100
0010
,
1001
0000
0110
0000
,
1000
0001
1000
0001
,
1000
0100
1000
0000
,
0001
0100
0010
0000
,
0100
0010
0100
0000
,
0010
1000
0100
0000
,
1002
0000
1000
0000
,
1003
0100
0010
0001
,
2001
0000
0001
0000
,
3001
0000
0010
0000
0100
0000
1000
0001
,
0000
0000
0000
0100
0000
0001
0000
0101
,
0000
0000
0000
0000
1000
0000
0001
1000
,
0000
0000
0000
0010
0000
0100
0000
0110
,
0000
0000
0000
0000
0001
0000
1000
0002
,
0000
1000
1000
1003
,
0010
0100
0001
1000
,
0101
0000
0000
0100
0000
0000
0110
0000
,
0000
0010
0000
0000
1010
0000
0010
0000
,
0010
0100
0010
0000
1000
0001
1000
0000
,
0001
0001
0001
0000
1001
0000
1000
0000
,
0010
0100
0000
0001
0000
1000
0001
0000
,
0001
0000
1000
0000
0010
0100
0010
0000
,
1000
0000
0001
1000
0001
1000
0001
0000
,
0010
0000
1001
0000
1000
0001
0000
0100
,
0000
0010
0000
1000
0001
0000
0100
0000
,
0001
0000
1000
0100
1000
0000
0010
0100
,
0010
0000
0100
0000
0100
0000
0100
0010
,
0100
0010
0000
0000
1001
0000
0001
1000
,
0000
0010
0000
0100
0000
0001
1000
0000
,
1000
0000
0010
0100
0010
0000
1000
0001
,
1000
0000
0010
0100
0010
0100
0010
0000
,
1000
0000
1002
0000
0000
0100
0000
0103
,
0000
0110
0000
0000
0010
0000
1000
0000
,
0001
0000
2001
0000
0000
0100
0000
3100
,
0000
0110
0000
0000
0100
0000
0001
0000
,
1000
0000
1002
0000
0000
0010
0000
0013
,
0000
0110
0000
0000
0010
0000
1000
0000
,
0001
0000
1001
0000
1000
0001
1000
0000
,
0001
1000
0001
0000
0100
0010
0100
0010
,
0000
2000
0000
0000
3001
0000
0010
0000
,
0100
0010
0000
0000
0001
0000
0010
0000
,
0100
0010
0000
0000
0001
0100
0001
0000
,
1000
0100
0000
0000
1000
0000
0100
0000
,
0010
0100
0000
0000
1000
0001
1000
0001
,
1000
0000
0010
1000
0100
0000
0010
0001
,
0100
0010
0100
0001
,
0010
0100
1000
0001
,
0100
0000
0010
0100
0010
0100
0010
0000
,
1000
0001
1000
1000
1000
0000
2002
0000
,
0000
0000
0000
3003
,
0000
0000
0000
0000
0002
0000
0000
1000
,
0000
0000
1003
0000
,
0000
0000
2002
0000
,
0000
3003
0220
0000
,
0000
0330
1001
0000
,
0011
0000
1100
0001
,
1000
0001
1000
0001
0000
0000
1001
0000
,
1000
0001
0000
0100
0000
0010
0000
1000
,
0001
0000
0001
0000
0100
0001
0100
0000
,
0010
1000
0010
0000
0100
0010
0100
0010
,
0100
0000
0001
0000
2001
0000
0000
0001
,
0000
3001
0000
0101
0000
0000
0001
0000
,
0010
0000
0100
0000
1002
0000
0000
1000
,
0000
1003
0000
1100
0000
0000
1000
0000
,
0100
0000
0010
0000
1002
0000
0000
1000
,
0000
1003
0000
1010
0000
0000
0010
0000
,
1000
0000
0001
0000
1001
0000
0100
0010
,
0100
0000
0010
0100
0010
0000
1000
0001
,
1000
0001
1000
0100
0000
0000
0000
0000
;

//---------------dance-single - ----------------
#NOTES:
     dance-single:
     :
     Hard:
     8:
     0.573,0.544,0.534,0.043,0.013:
1001
0000
0000
1100
0000
1100
0000
1100
,
0000
0000
1000
0100
1000
0100
0010
0000
,
1001
0000
0000
0101
0000
0101
0000
0101
,
0000
0000
0001
0100
0001
0100
0010
0000
,
0110
0000
0000
1001
0000
1001
0000
1001
,
0000
0000
1000
0001
0010
0001
1000
0000
,
1001
1000
1001
0001
,
1000
0100
0010
0001
0100
0010
0100
0000
,
0101
0000
0001
1000
0100
1000
0001
0000
,
0010
0000
0100
0010
0001
0010
0100
0000
,
1010
0000
1000
0001
0100
0001
1000
0000
,
0010
0100
0001
0100
0010
0100
0001
0000
,
1001
0000
0001
0010
0100
0010
0001
0000
,
1001
0000
1000
0010
0100
0010
1000
0000
,
1001
1000
1001
0001
,
1000
0100
1000
0100
0010
0001
0010
0100
,
0000
1000
0100
1000
0010
0100
0000
1010
,
0000
0001
0010
0001
0100
0010
0000
0110
,
0000
0001
0100
0001
0010
0100
0000
0101
,
0000
1000
0100
1000
0001
0100
0010
2000
,
0000
0000
3001
0100
0001
0000
0010
0000
,
0100
0000
1000
0010
1000
0000
0001
0000
,
1001
0000
0010
0100
1000
0010
0110
0000
,
0100
0010
0001
0100
0110
0000
0110
0000
,
1000
0100
0001
0100
1000
0010
0100
0001
,
1000
1000
1001
0000
1001
0000
1000
0010
,
0100
0010
0000
0010
0100
0001
0010
0100
,
0010
0000
0001
0100
0010
1000
0000
1000
,
0000
1000
0001
0010
0100
1000
0001
0000
,
0101
0000
1001
0000
1000
0010
0100
0001
,
1000
0001
0000
0001
0010
0100
1000
0001
,
1000
0000
1100
0000
0010
0001
0100
0010
,
0100
0000
0110
0000
0001
0000
0010
0100
,
1000
0001
0000
0000
1001
0000
0001
0100
,
0010
1000
0000
1000
0000
1000
0100
0010
,
0100
0000
1000
0010
0100
0001
0000
0001
,
0000
0001
1000
0100
1000
0010
0100
0000
,
0110
0000
1001
0000
0001
0010
1000
0010
,
0000
0011
0000
0000
0010
0000
0010
0000
,
0010
0000
1001
0000
1000
0100
0001
0100
,
0000
1100
0000
0000
0100
0000
0100
0000
,
0100
0000
1001
0000
0001
0100
1000
0100
,
0000
0101
0000
0000
0100
0000
0100
0000
,
0100
1001
0001
0101
,
0100
0000
0110
0000
0010
1000
0100
0010
,
0000
0101
0000
0010
1000
0100
0010
0100
,
1000
0010
0000
1000
0001
0001
0010
0100
,
1000
0001
0000
1000
0010
0100
0001
0100
,
0010
1000
0000
0001
0100
1000
0100
0001
,
1000
0000
1001
0000
0000
0000
0000
0000
0001
0000
0000
0001
1000
0000
0000
1000
,
0010
0000
0000
0010
0100
0000
0001
0000
0010
0000
0100
0000
0010
0000
0001
0000
,
0100
0000
0120
0000
1000
2030
0000
0001
,
3001
0100
0010
0000
1000
0000
0100
0000
,
0010
0000
0001
0100
1000
0100
0001
1000
,
0010
0100
0001
0001
1001
0000
2001
0000
,
0000
0000
0000
0000
,
0000
0000
3002
0000
,
0000
0000
0000
0000
,
0000
0003
0110
0100
,
0100
0100
0110
0010
,
0010
0010
0110
1000
,
1001
0000
0001
0000
1001
0000
1000
0100
,
0001
0100
1000
0001
0000
0000
1001
0000
,
0001
0001
1000
0010
0000
0010
0000
0010
,
1000
0100
0010
0001
0100
1000
0100
0001
,
1000
0010
1000
0000
0100
0010
0001
0010
,
0100
0000
0100
0000
1001
0000
0001
0100
,
1000
0100
0000
0101
0000
0000
0100
0000
,
0100
0000
0100
0000
1001
0000
1000
0100
,
0001
0100
0000
1100
0000
0000
0100
0000
,
0100
0000
0100
0000
1001
0000
0001
0010
,
1000
0010
0000
0011
0000
0000
0010
0000
,
0010
0000
0010
0000
1001
0000
0001
0001
,
0010
0100
1000
1000
0010
0100
0001
0100
,
1000
0100
0001
0000
0000
0000
0000
0000
;

//---------------dance-single - ----------------
#NOTES:
     dance-single:
     :
     Challenge:
     9:
     0.743,0.769,0.603,0.017,0.194: // measure 1
0001
0010
0100
1100
0000
1001
0000
1100
,  // measure 2
0000
1000
0001
0100
0001
1000
0100
0010
,  // measure 3
0001
0010
0100
1100
0000
1001
0000
1100
,  // measure 4
0000
1000
0001
0010
0001
1000
0010
0100
,  // measure 5
0001
0100
0010
1010
0000
1001
0000
1010
,  // measure 6
0000
1000
0001
0010
0100
1000
0001
1000
,  // measure 7
0001
0100
1000
0100
0001
0100
1000
0100
,  // measure 8
0001
0010
0100
1000
0010
0100
0010
0000
,  // measure 9
0110
0000
0110
0000
1000
0010
1000
0010
,  // measure 10
1000
0001
0010
0100
1000
0100
0010
0001
,  // measure 11
1001
0000
1001
0000
0001
0010
0001
0010
,  // measure 12
0001
1000
0010
0100
0001
0100
0010
1000
,  // measure 13
1001
0000
1001
0000
0001
0010
0100
1000
,  // measure 14
1001
0000
1000
0010
0100
0001
1000
0001
,  // measure 15
1001
0000
0001
1000
1001
0000
1000
0001
,  // measure 16
1000
0100
0001
0100
1000
0001
0010
0100
,  // measure 17
0000
1000
0001
0010
0100
1100
0000
0101
,  // measure 18
0000
0001
1000
0100
0001
0100
1000
1001
,  // measure 19
0000
1000
0001
0100
0010
1010
0000
0011
,  // measure 20
0000
0001
1000
0010
0001
0010
1000
1001
,  // measure 21
0000
1000
0001
0010
0001
0000
1000
0100
,  // measure 22
1000
0000
0001
0100
0001
0000
1000
0010
,  // measure 23
1000
0001
0010
0100
0010
0001
0101
0000
,  // measure 24
0001
1000
0100
0010
0100
1000
1010
0000
,  // measure 25
1000
0100
0001
0100
1000
0010
0100
0001
,  // measure 26
1001
1001
1001
0000
1001
0000
1000
0100
,  // measure 27
0010
0001
0000
0001
0100
0010
0001
0010
,  // measure 28
0100
0001
1000
0100
0010
0002
0000
1003
,  // measure 29
0000
0000
0001
1000
0001
0000
1000
0000
0100
0000
1000
0000
0010
0000
0100
0000
,  // measure 30
0001
1000
1001
0000
0001
1000
0001
0010
,  // measure 31
0100
1000
0000
1000
0010
0100
1000
0100
,  // measure 32
0010
1000
0001
0000
0010
0100
1000
0100
,  // measure 33
0010
0000
0001
0000
1000
0000
0000
0000
1000
0000
0000
0000
1000
0000
0001
0100
,  // measure 34
0001
0100
0001
0100
0000
0000
0000
0000
1001
0000
0000
0000
0001
0000
0100
0000
,  // measure 35
0010
1000
0000
1000
0010
0100
1000
0100
,  // measure 36
0010
1000
0001
0100
0010
2000
0000
3001
,  // measure 37
0000
0000
1000
0001
1000
0000
0001
0000
0010
0000
0100
0000
1000
0000
0100
0000
,  // measure 38
0010
0001
0101
0100
0001
1001
0000
1100
,  // measure 39
0000
1001
0000
1000
0001
0010
0001
1000
,  // measure 40
0010
1000
1010
0010
0100
0101
0000
1001
,  // measure 41
0000
0101
0000
0001
1000
0010
1000
0100
,  // measure 42
1000
0001
0101
0100
0001
1001
0000
1100
,  // measure 43
0000
1001
0000
1000
0001
0100
0001
1000
,  // measure 44
0100
1000
1001
0000
1000
0100
0001
0100
,  // measure 45
1000
0010
0001
0010
1000
0001
0010
0100
,  // measure 46
0000
0000
1000
0000
0100
0000
1000
0000
0001
0100
0001
0100
0001
0000
0010
0000
,  // measure 47
0100
0000
0110
0000
0000
0000
1000
0000
0001
0010
0001
0010
0001
0000
1000
0000
,  // measure 48
0010
0000
0110
0000
0000
0000
0001
0000
1000
0010
0000
0100
0000
0100
0000
0001
,  // measure 49
1000
0000
1100
0000
0000
0000
1000
0100
1000
0100
0010
0001
0010
0001
0100
0000
,  // measure 50
0100
0000
0110
0000
0000
0000
0010
0000
0100
0000
0001
0010
0001
0000
0010
0100
,  // measure 51
0010
0000
0100
1000
0100
1000
0001
1000
0001
0000
1000
0010
1000
0010
0100
0001
,  // measure 52
0100
0001
0100
0000
1001
0000
0000
0000
0001
0000
0101
0000
0000
0000
0100
0000
,  // measure 53
0001
0000
0000
1000
0000
0000
0001
0000
0000
1000
0000
0000
0001
0000
0000
0000
0000
0000
0000
0000
0010
0000
0000
0000
0000
0000
0000
0000
0100
0000
0000
0000
0000
0000
0000
0000
1000
0000
0000
0000
0000
0000
0000
0000
0100
0000
0000
0000
,  // measure 54
0000
0000
0000
0000
0010
0000
0000
0000
0000
0000
0000
0000
0001
0000
0000
0000
0000
0000
1000
0000
0000
0010
0000
0000
1000
0000
0000
0000
0000
0000
0010
0000
0000
0100
0000
0000
0010
0000
0000
0000
0000
0000
0100
0000
0000
0001
0000
0000
,  // measure 55
0100
0001
0100
0001
1000
0000
1001
0000
1001
0000
0000
0000
1001
0000
0000
0000
,  // measure 56
0001
0001
0001
0001
,  // measure 57
0010
0100
1000
0100
,  // measure 58
0001
0100
1000
1000
,  // measure 59
1000
0000
1000
0000
0110
0000
0010
0100
,  // measure 60
0010
0001
0010
0000
0110
0000
0100
1000
,  // measure 61
0100
0010
0100
0000
0110
0000
0001
0100
,  // measure 62
1000
0100
0001
0010
1000
0010
0001
1000
,  // measure 63
0100
0000
0010
0001
1000
0001
1000
0001
0000
0000
0000
0000
1001
0000
0000
0000
,  // measure 64
1000
0010
0100
0001
0000
0001
0100
0010
,  // measure 65
0001
0010
0100
0001
1000
0100
0001
0100
,  // measure 66
1000
0000
0010
0000
0100
0000
0001
1000
0001
0000
0010
0000
0100
0000
1000
0000
,  // measure 67
0001
0000
0001
0000
0101
0100
0001
1001
,  // measure 68
0000
1100
0000
1001
0000
0001
1000
0100
,  // measure 69
0010
0100
1000
0010
1010
1000
0001
0011
,  // measure 70
0000
1001
0000
0011
0000
0001
1000
0010
,  // measure 71
0100
0010
1000
0001
0011
0010
0001
1001
,  // measure 72
0000
1100
0000
1001
0000
1000
0001
0100
,  // measure 73
0010
0100
0001
1000
0001
0100
1000
0100
,  // measure 74
0001
0010
1000
0010
0001
0001
1000
1000
,  // measure 75
0010
0100
0010
0100
0001
1000
0001
1000
0000
0000
0000
0000
0000
0000
0000
0000
;

//---------------dance-single - ----------------
#NOTES:
     dance-single:
     :
     Beginner:
     2:
     0.144,0.191,0.129,0.000,0.000:
1001
0000
0000
0000
,
0000
1000
0000
0000
,
1001
0000
0000
0000
,
0000
0001
0000
0000
,
1001
0000
0000
0000
,
0000
1000
0000
0000
,
0001
0000
1000
0000
,
0001
0000
0000
0000
,
1001
0000
1000
0000
,
0001
0000
0000
0000
,
0010
0000
0001
0000
,
0010
0000
0000
0000
,
0100
0000
1000
0000
,
0100
0000
0000
0000
,
1000
0000
0001
0000
,
1000
0000
0000
0000
,
0010
0000
1000
0000
,
0010
0000
0000
0000
,
0100
0000
0001
0000
,
0100
0000
0000
0000
,
0001
0000
1000
0000
,
0001
0000
0000
0000
,
1001
0000
1000
0000
,
0001
0000
1000
0000
,
0001
0000
1000
0000
,
1001
0000
1001
0000
,
0000
0000
0000
0001
,
0000
1000
0000
0001
,
0000
1000
0000
0100
,
0000
1000
0000
0000
,
0000
0100
0000
0000
,
0000
0010
0000
0001
,
0000
0010
0000
0001
,
0000
0000
1001
0000
,
0000
0000
0000
0000
,
0000
0001
0000
1000
,
0000
0001
0000
0100
,
0000
0010
0000
0000
,
0000
0000
0100
0000
,
0000
0110
0000
0000
,
0000
0000
0010
0000
,
0000
0110
0000
0000
,
0000
0000
0000
0000
,
0000
1000
0000
0001
,
0000
1000
0000
0001
,
0000
1000
0000
0100
,
0000
1000
0000
0100
,
0000
1000
0000
0001
,
0000
0100
0000
0001
,
0000
1000
0000
0001
,
0000
1000
0000
0001
,
0000
0010
0000
0001
,
0000
0010
0000
0001
,
0000
1000
0000
0010
,
0000
0110
0000
0010
,
0000
0000
0000
0000
,
0000
0000
0000
0000
,
0000
0000
0000
0000
,
0000
0000
0010
0000
,
0000
0000
0010
0000
,
0000
0000
0010
0000
,
0010
0000
0010
0000
,
0010
0000
0000
0110
,
0000
0000
0000
0000
,
0001
0000
1000
0000
,
0001
0000
1000
0000
,
0100
0000
1001
0000
,
0000
0000
0000
0000
,
0000
0000
1001
0000
,
0000
0000
0000
0000
,
0000
0000
0110
0000
,
0000
0000
0000
0000
,
0000
0000
0010
0000
,
0010
0000
0010
0000
,
0100
0000
0000
0000
;
