#TITLE:ひゃくごじゅういち;
#SUBTITLE:;
#ARTIST:石塚運昇とポケモンキッズ;
#TITLETRANSLIT:HYAKUGOJUUICHI;
#SUBTITLETRANSLIT:;
#ARTISTTRANSLIT:UNSHOU ISHIZUKA TO POKEMON KIDS;
#CREDIT:DigiMindAxel;
#BANNER:HYAKUGOJUUICHI.png;
#BACKGROUND:HYAKUGOJUUICHI-bg.png;
#LYRICSPATH:HYAKUGOJUUICHI.lrc;
#CDTITLE:DigiMindAxel original simfile.png;
#MUSIC:HYAKUGOJUUICHI.mp3;
#OFFSET:-4.390;
#SAMPLESTART:49.360;
#SAMPLELENGTH:12.000;
#SELECTABLE:YES;
#BPMS:0.000=127.900;
#STOPS:;
#BGCHANGES:-12.000=HYAKUGOJUUICHI.avi=1.000=1=1=0,
99999=-nosongbg-=1.000=0=0=0 // don't automatically add -songbackground-
;

//---------------dance-single - ----------------
#NOTES:
     dance-single:
     :
     Easy:
     2:
     0.159,0.196,0.037,0.074,0.000:
1000
0000
0001
0000
,
1000
0000
0010
0000
,
0100
0000
0010
0000
,
1000
0000
0000
0000
,
0001
0000
1000
0000
,
0001
0000
0010
0000
,
0100
0000
0010
0000
,
0002
0000
0000
0003
,
1000
0000
0001
0000
,
0010
0000
0100
0000
,
1000
0000
0001
0000
,
1000
0000
0000
0000
,
0100
0000
0010
0000
,
0100
0000
0010
0000
,
0001
0000
1000
0000
,
0002
0000
0000
0003
,
1000
0000
0001
0000
,
0100
0000
0000
0000
,
0010
0000
1000
0000
,
0001
0000
0000
0000
,
0010
0000
0100
0000
,
1000
0000
0000
0000
,
0100
0000
0010
0000
,
0001
0000
0000
0000
,
1000
0001
1000
0000
,
0001
1000
0001
0000
,
1000
0001
1000
0000
,
0001
1000
0001
0000
,
0100
0010
0100
0000
,
0010
0100
0010
0000
,
1000
0010
1000
0000
,
0001
0100
0001
0000
,
0100
0010
0100
0000
,
0010
0100
0010
0000
,
2000
0000
0000
3001
0000
0000
0000
0000
,
0002
0000
0000
1003
0000
0000
0000
0000
,
1001
0000
0000
0000
,
0000
0000
0100
0100
,
0220
0000
0000
0330
,
0001
0000
0000
1000
0000
0000
1001
0000
;

//---------------dance-single - ----------------
#NOTES:
     dance-single:
     :
     Hard:
     6:
     0.403,0.392,0.136,0.136,0.000:
1000
0001
0100
1000
0100
0001
1000
0000
,
0010
0100
1000
0100
,
0001
1000
0100
0001
0100
1000
0001
0000
,
0010
0100
0001
0100
,
1000
0001
0010
1000
0010
0001
1000
0000
,
0010
0100
1000
0100
,
0001
1000
0010
0001
0010
1000
0001
0001
,
0000
0000
0000
0000
,
0010
0100
1000
0100
0001
0100
1000
0000
,
0010
0100
0001
1000
,
0100
0010
0001
0010
1000
0010
0001
1000
,
0000
0010
0010
0100
0001
0001
1000
0001
,
0010
0100
1000
0100
0001
0100
1000
0000
,
0010
0100
0001
1000
,
0010
0000
0110
0000
1000
0100
0010
0001
,
1000
0000
0000
0000
0000
0000
0001
1001
,
0000
0001
0010
0100
1000
0100
0010
0000
,
1000
0000
0010
0000
0001
0000
1000
0001
,
2000
3100
0020
0130
,
0002
0000
1003
0000
0001
0010
0100
1000
,
0001
1000
0100
0001
0100
1000
0000
0001
,
0100
1000
0100
0001
0000
1000
1000
0000
,
1001
0000
0000
0000
0001
0010
0100
1000
,
0000
0001
0001
1000
1000
0000
1001
0000
,
1000
0100
0010
0100
2000
0000
3000
0000
,
0001
0010
0100
0010
0002
0000
0003
0000
,
1000
0010
0100
0010
1000
0000
0001
0000
,
0100
0010
0100
0000
0001
0001
1000
1000
,
1001
0000
0001
0010
0100
0000
0100
0010
,
0001
0000
0010
0100
1000
0000
0001
0000
,
1000
0000
0001
0100
0010
0000
0010
0100
,
0001
0000
0010
0100
1000
0000
0001
0000
,
1001
0000
1000
0100
0010
0000
0010
0100
,
1000
0000
0100
0010
0001
0000
1000
0000
,
0001
0100
0010
0220
0000
0000
0330
0000
,
1000
0010
0100
0220
0000
0000
0330
0000
,
1001
0000
0000
0000
,
0000
0000
0000
0000
0100
0010
0100
0010
,
2002
0000
0000
3003
,
1000
0100
0010
0001
0000
0100
0110
0000
;

//---------------dance-single - ----------------
#NOTES:
     dance-single:
     :
     Challenge:
     8:
     0.574,0.515,0.148,0.086,0.111: // measure 1
0001
1000
0010
0010
1000
0100
0010
0001
,  // measure 2
1000
0000
0100
0000
0010
0000
0100
1000
0010
0000
0100
0010
0100
0000
0001
0000
,  // measure 3
1000
0200
0000
0310
0100
1000
1000
0001
,  // measure 4
1000
0100
0100
0001
0100
0100
1000
0010
,  // measure 5
1000
0001
0010
1000
0010
0001
1000
0100
,  // measure 6
1000
0000
0001
0000
0100
0000
0010
0100
0001
0000
1000
0001
1000
0000
0001
0000
,  // measure 7
1000
1000
0100
0001
0100
1000
0001
0101
,  // measure 8
0100
0000
0000
0000
0100
0000
0000
0000
0100
0010
0100
0010
0100
0000
0000
0000
,  // measure 9
0001
1000
0010
0001
0010
1000
0001
0100
,  // measure 10
0010
0000
0010
0000
1000
0000
0001
0010
0001
0000
0010
0100
1000
0000
0001
0000
,  // measure 11
1000
0001
0010
1000
0010
0001
0100
0010
,  // measure 12
1000
0100
0100
0001
0100
0100
1000
0010
,  // measure 13
1000
0001
0010
1000
0010
0001
1000
0010
,  // measure 14
0100
0000
0001
0000
1000
0000
0001
0010
0001
0000
0010
0100
1000
0000
0001
0000
,  // measure 15
1000
0100
0001
0100
1000
0010
0100
0220
,  // measure 16
0000
0000
0000
0000
0330
0000
0000
0000
0010
0100
0000
0100
0010
0000
0110
0000
,  // measure 17
0000
1000
0100
0001
0100
1000
0100
0001
,  // measure 18
0100
1000
0001
0000
1000
1000
0001
0010
,  // measure 19
0100
1000
0000
0001
0100
1000
0100
0001
,  // measure 20
0100
1000
0100
0000
0001
0010
0100
1000
,  // measure 21
0001
1000
0010
0001
0010
1000
0010
0001
,  // measure 22
0010
1000
0001
0100
0000
0100
0001
1000
,  // measure 23
0100
0010
0100
0000
1000
0000
1000
0000
0001
0000
0010
0000
0100
0000
1000
0000
,  // measure 24
0000
0000
0010
0000
0010
0000
0010
0000
0110
0000
0000
0000
1000
0001
1000
0000
,  // measure 25
0001
0010
0100
0001
0100
1000
0001
0000
,  // measure 26
0010
0000
0100
0000
0001
0000
0100
0000
1000
0001
2000
0000
0000
0000
3001
0000
,  // measure 27
1000
0010
0100
1000
0100
0001
1000
1000
,  // measure 28
0000
0000
0010
0100
0010
0000
1000
0000
0001
0000
0001
0000
0100
0000
0100
0000
,  // measure 29
0101
0010
0100
1000
0010
0001
0010
0100
,  // measure 30
0001
1000
0010
0100
0000
0100
0010
0010
,  // measure 31
1000
0100
0010
0001
0100
1000
0100
0010
,  // measure 32
1000
0001
0100
0010
0010
1000
1000
0001
,  // measure 33
1000
0100
0010
0001
0010
0100
0001
0100
,  // measure 34
1000
0001
0100
0010
1000
0001
0001
1000
,  // measure 35
1010
0100
0010
0002
0000
1000
1003
0000
,  // measure 36
0101
0010
0100
2000
0000
0001
3001
0000
,  // measure 37
1001
0000
0001
1000
0001
0000
1000
0000
0100
0010
0001
0000
0100
0000
1000
0000
,  // measure 38
0100
0001
0010
1000
0010
0001
1000
1000
,  // measure 39
0120
0000
0100
0130
,  // measure 40
0001
0100
0010
1010
0000
1010
1001
0000
;

//---------------dance-single - ----------------
#NOTES:
     dance-single:
     :
     Medium:
     5:
     0.321,0.343,0.173,0.074,0.000:
0001
1000
0010
0000
1000
0000
0010
0000
,
0100
0001
1000
0000
0001
0000
1000
0000
,
0000
0020
0000
0130
0010
0000
1000
0001
,
0000
0000
0000
0000
,
1000
0001
0010
0000
0001
0000
0010
0000
,
0001
1000
0010
0000
1000
0000
0001
0000
,
0100
0000
0110
0000
0001
0000
0001
1000
,
0000
0000
0000
0000
,
0100
1000
0001
0000
1000
0000
0001
0000
,
1000
0001
0100
0000
0001
0000
0100
0000
,
0001
0000
0010
0000
0100
0000
1000
0001
,
0000
0000
0000
0000
,
0100
0001
1000
0000
0100
0000
1000
0000
,
1001
0000
0010
0000
0100
0000
1000
0001
,
0100
0000
0010
0100
0010
0000
0000
0110
,
0000
0000
0000
0000
0000
0000
1000
1000
,
0001
0100
0010
0100
,
0001
0000
0010
0000
0100
0000
1000
0001
,
1000
0100
0010
0100
,
1000
0000
0010
0000
0100
0000
0001
1000
,
0001
0000
0010
0000
0100
0010
0100
0000
,
1000
0000
0010
0100
0000
0100
0010
0000
,
0110
0000
0000
0000
1000
0100
1000
0001
,
0000
0100
0100
0010
0100
0000
0000
0000
,
1001
0000
0110
0000
0100
0100
0000
0000
,
1001
0000
0110
0000
0100
0100
0000
0001
,
1000
0000
0001
0000
0100
0010
0100
0001
,
0000
0000
0000
0000
,
1001
0000
1000
0100
1000
0000
0100
0010
,
0100
0000
0010
0001
0010
0000
0000
0000
,
0001
0000
1000
0010
1000
0000
0010
0100
,
0010
0000
0100
0001
0100
0000
0000
0000
,
1001
0000
0001
0010
0001
0000
0010
0100
,
0010
0000
0100
1000
0100
0000
0000
0000
,
1001
0000
0010
0200
0000
0000
0000
0000
,
0310
0000
1000
0001
0000
0100
0100
0000
,
0220
0000
0000
0000
,
0000
0330
0100
0100
,
2002
0000
0000
3003
,
0010
0100
0010
1000
0000
0001
1001
0000
;

//---------------dance-single - ----------------
#NOTES:
     dance-single:
     :
     Beginner:
     1:
     0.067,0.098,0.074,0.000,0.000:
0001
0000
0000
0000
,
1000
0000
0000
0000
,
0001
0000
0000
0000
,
0000
0000
0000
0000
,
0100
0000
0000
0000
,
0010
0000
0000
0000
,
0100
0000
0000
0000
,
0000
0000
0000
0000
,
0001
0000
0000
0000
,
1000
0000
0000
0000
,
0001
0000
0000
0000
,
0000
0000
0000
0000
,
0010
0000
0000
0000
,
0100
0000
0000
0000
,
0010
0000
0000
0000
,
0000
0000
0000
0000
,
1001
0000
0000
0000
,
0000
0000
0000
0000
,
1000
0000
0000
0000
,
0001
0000
0000
0000
,
1000
0000
0000
0000
,
0100
0000
0000
0000
,
0010
0000
0000
0000
,
0000
0000
0000
0000
,
1001
0000
0000
0000
,
1000
0000
0000
0000
,
0001
0000
0000
0000
,
0000
0000
0000
0000
,
0110
0000
0000
0000
,
0010
0000
0000
0000
,
0100
0000
0000
0000
,
0010
0000
0000
0000
,
1000
0000
0000
0000
,
0001
0000
0000
0000
,
1001
0000
0000
0000
,
1000
0000
0000
0000
,
0010
0000
0000
0000
,
0000
0000
0000
0000
,
0110
0000
0000
0000
,
0000
0000
0000
1001
;
