#TITLE:ハレハレロックマン;
#SUBTITLE:;
#ARTIST:てつくずおきば;
#TITLETRANSLIT:HARE HARE ROCKMAN;
#SUBTITLETRANSLIT:;
#ARTISTTRANSLIT:TETSUKUZU OKIBA;
#CREDIT:DigiMindAxel;
#BANNER:HARE HARE ROCKMAN.png;
#BACKGROUND:HARE HARE ROCKMAN-bg.png;
#LYRICSPATH:;
#CDTITLE:DigiMindAxel original simfile.png;
#MUSIC:HARE HARE ROCKMAN.mp3;
#OFFSET:-2.640;
#SAMPLESTART:30.604;
#SAMPLELENGTH:12.000;
#SELECTABLE:YES;
#BPMS:0.000=172.750;
#STOPS:;
#BGCHANGES:-8.000=HARE HARE ROCKMAN.avi=1.000=1=1=0,
99999=-nosongbg-=1.000=0=0=0 // don't automatically add -songbackground-
;

//---------------dance-single - ----------------
#NOTES:
     dance-single:
     :
     Easy:
     3:
     0.278,0.272,0.107,0.168,0.000:
0000
1000
0000
0001
,
0000
1000
0000
0010
,
0000
0100
0000
0001
,
0000
2002
0000
0000
0000
0000
0000
3003
,
0000
1000
0001
1000
,
0000
0000
0001
1000
,
0001
0000
0100
0001
,
0200
0000
0000
0300
,
0000
0010
0100
0010
,
0000
1000
0001
1000
,
0000
0100
1000
0100
,
0000
1000
0001
1000
,
0001
0200
0000
0000
,
0000
0320
0000
0000
,
0000
0230
0000
0000
,
0000
0302
0000
0000
,
0000
1003
0000
0001
,
0000
1000
0000
0001
,
0000
0010
0100
0010
,
0100
0010
0000
1001
,
0000
1000
0001
1000
,
0000
0100
1000
0100
,
0000
0010
0001
0010
,
0000
0001
1000
0001
,
0000
0100
0001
0100
,
0001
1000
0010
1000
,
0000
0001
0010
0100
,
0000
2002
0000
0000
0000
0000
0000
3003
,
0000
0100
0001
0100
,
0000
0010
1000
0010
,
0000
0100
0010
0100
,
0000
0001
1000
0001
,
0000
0010
0100
0010
,
0001
0100
0001
0000
,
0000
0010
0100
1000
,
0010
0100
0001
0010
,
0100
1000
0000
0001
,
0000
1000
0000
0010
,
0000
0100
0000
0001
,
0000
1000
0000
0000
,
0000
0000
0000
1001
0000
0000
0000
1001
,
0000
0000
0000
1000
0000
0001
0000
0000
,
2002
0000
0000
0000
0000
3003
0000
1001
,
0000
0000
0000
0100
0000
0000
0000
0010
,
0000
0001
0000
1000
0000
0000
0000
0000
;

//---------------dance-single - ----------------
#NOTES:
     dance-single:
     :
     Hard:
     8:
     0.608,0.578,0.245,0.123,0.000:
0000
0000
1000
0000
0001
0100
0000
0001
,
1000
1000
0001
0010
0100
1000
0000
0001
,
0000
1000
0100
1000
0001
0200
0000
0000
,
0000
0310
0000
0110
0000
0110
0000
0010
,
1000
0001
0000
0000
1000
0100
1000
0001
,
0000
0001
0000
1000
0001
0100
0001
1000
,
0000
1000
0010
0000
0010
0100
0000
0001
,
1000
0001
0000
1001
0000
1001
0000
1001
,
0000
0000
0010
0100
1000
0010
0100
0010
,
0000
0010
0100
0001
0000
0001
0000
1000
,
0000
1000
0010
0100
0000
0010
0000
0010
,
0000
0010
1000
0100
0010
0001
0010
0100
,
1000
0000
0020
0000
0000
0000
0000
0130
,
0000
0001
2000
0000
0000
0000
0000
3100
,
0000
0010
0002
0000
0000
1003
0010
0000
,
0010
0100
0000
0001
0000
1000
0000
0000
,
0001
1000
0001
0010
0100
1000
0000
1000
,
0010
0100
0000
0001
0010
0100
0000
0100
,
0010
0001
0010
0001
1000
0100
1000
0100
,
0010
0001
0000
0001
0000
0100
0110
0000
,
0000
0000
0010
0100
0010
0100
0010
1000
,
0010
1000
0010
0100
0001
0100
0001
0010
,
0100
1000
0010
0100
0010
0100
0010
1000
,
0010
1000
0001
1000
0001
0010
0100
1000
,
0010
0100
0001
0000
1000
0100
0000
0001
,
0100
1000
0001
0000
0100
0010
0000
1000
,
0100
0010
0001
0010
0100
1000
0010
0100
,
0010
1000
0000
1001
0000
1001
0000
1001
,
0000
0000
0100
0010
0100
0010
0100
0001
,
0100
0001
1000
0010
1000
0010
1000
0100
,
0010
0001
1000
0100
1000
0100
0010
0001
,
0010
0001
0100
0010
1000
0100
0000
0010
,
0100
1000
0001
0000
1000
0100
0000
0001
,
0100
1000
0001
0000
0100
0010
0000
1000
,
0000
0000
0010
0100
0010
0100
0010
0100
,
0010
0100
0001
1000
0001
1000
0001
1000
,
0001
1000
0200
0000
0301
0200
0000
1300
,
0010
0100
0001
0000
0001
1000
0000
1000
,
0001
0100
2000
0000
3100
0002
0000
1003
,
0000
1001
0000
0000
,
0000
1100
0000
0001
0100
0000
0000
1000
,
0100
0000
0000
0001
0010
0100
1000
0000
,
1001
0000
0000
0110
0000
0000
0000
1100
,
0000
0010
0001
0100
0000
0010
1000
0100
,
0000
1001
0000
1001
0000
0000
0000
0000
;

//---------------dance-single - ----------------
#NOTES:
     dance-single:
     :
     Challenge:
     9:
     0.724,0.612,0.306,0.214,0.138:
0000
1000
0002
0000
0100
0103
0000
0210
,
0000
0000
0301
0010
0100
1000
0000
0110
,
0000
0000
0001
1000
0001
0000
0010
0000
0100
0000
2000
0000
0000
0000
0000
0000
,
0000
3001
0000
0110
0000
1001
0000
1000
,
0010
0100
0001
1000
0100
1000
0000
1000
,
0100
0000
1000
0001
1000
0000
0001
0000
0010
0000
0001
0000
0000
0000
0001
0000
,
0010
0000
0001
1000
0001
0000
0010
0000
0100
0000
1000
0000
0000
0000
0001
0000
,
0000
1001
0000
1100
0000
0011
0000
0001
,
1000
0000
0001
1000
0001
0000
1000
0000
0010
0000
1000
0000
0000
0000
1000
0000
,
0010
0000
1000
0001
1000
0000
0001
0000
0100
0000
0001
0000
0000
0000
0001
0000
,
0100
0000
0001
1000
0001
0000
1000
0000
0010
0000
0200
0000
0000
0000
0001
0000
,
0000
0301
0010
1000
0010
0001
1000
0010
,
0100
0001
1002
0000
1003
0100
0010
0001
,
0100
0010
2000
0000
0001
3001
0000
1000
,
0000
0010
0100
0000
0000
0001
1000
0000
,
1000
0100
0000
0001
0000
0100
0000
1000
,
0001
0010
0100
1000
0001
0100
0000
0100
,
0001
1000
0000
1000
0001
0020
0000
0130
,
1000
0001
1000
0100
0001
0100
1000
0010
,
0100
0001
0000
0001
0000
0001
1001
0000
,
0000
0000
1000
0010
0100
0010
1000
0001
,
0010
0100
0010
0001
1000
0020
0000
0130
,
0001
1000
0001
0010
0100
0010
0001
1000
,
0010
0100
0010
1000
0001
0200
0000
0310
,
1000
0000
0001
0010
0001
0000
1000
0000
0100
0000
0010
0000
0000
0000
0001
0000
,
1000
0000
0001
0100
0001
0000
0010
0000
0100
0000
1100
0000
0000
0000
0000
0000
,
1000
0000
0001
1000
0001
0000
0010
0000
1000
0000
0010
0000
0001
0000
1000
0000
,
0001
1001
0000
0110
0000
1001
0000
0110
,
0000
0000
0001
0001
1000
0100
0001
0100
,
1000
0000
0010
0100
0010
0000
1000
0000
0100
0000
0010
0000
0100
0000
1000
0000
,
0001
0100
0001
1000
0001
0100
1000
0100
,
0001
0000
0010
0100
0010
0000
0001
0000
0100
0000
0010
0000
0100
0000
0001
0000
,
1000
0000
0001
0100
0001
0000
0010
0000
0100
0000
1000
0000
0000
0000
1000
0000
,
0001
0000
0100
0001
0100
0000
0001
0000
1000
0000
1100
0000
0000
0000
0001
0000
,
0000
0000
1000
0001
1000
0000
0001
0000
0001
0000
0010
0000
1000
0000
0010
0000
,
0001
0000
1000
0001
1000
0000
0010
0000
0010
0000
0100
0000
0100
0000
0001
0000
,
0010
0000
0100
0000
1000
0000
0000
0001
1000
0000
0100
0000
0001
0000
0100
0000
,
1000
0000
0000
0000
0001
0000
0000
1000
0001
0000
0100
0000
1000
0000
0100
0000
,
0001
0000
0000
0000
1000
0000
0000
0010
0100
0000
0001
0000
0010
0000
0100
0000
,
1000
0000
1001
0000
0100
0000
0100
0010
,
0000
2000
0000
3001
0200
0000
0301
1000
,
0020
0000
1030
0001
0010
1000
0010
0000
,
0102
0000
0000
2000
0000
3003
0000
1001
,
0000
1000
0100
0001
0000
0100
1000
0001
,
0000
1001
0000
1001
0000
0000
0000
0000
;

//---------------dance-single - ----------------
#NOTES:
     dance-single:
     :
     Medium:
     6:
     0.486,0.476,0.138,0.123,0.000:
0000
0000
0001
0000
0000
1000
0000
0100
,
0000
0000
1000
0000
0000
0010
0000
0100
,
0000
0000
0002
0000
0000
2003
0000
0000
,
0000
3001
0000
0010
0000
0100
0000
1000
,
0001
1000
0000
0000
0010
0000
0100
0000
,
0010
1000
0001
0000
1000
0000
0001
0000
,
1000
0001
0100
0000
0001
0000
0100
0000
,
0001
0100
0000
0010
0000
1000
0000
0001
,
1000
0001
0000
0000
0100
0000
0001
0000
,
0100
0000
0001
1000
0100
0000
1000
0000
,
0100
0000
1000
0100
0010
0000
0100
0000
,
0010
0000
0001
0010
0100
1000
0010
0100
,
0001
1000
0002
0000
0000
0000
0000
0103
,
0000
0001
2000
0000
0000
0000
3000
0010
,
0000
0100
0002
0000
0000
1003
0100
0000
,
0010
0100
0000
1000
0000
0001
0000
0000
,
0010
0100
1000
0010
0100
0010
0000
1000
,
0001
1000
0000
0100
1000
0100
0000
0010
,
0001
0010
0002
0000
0000
0000
0000
0000
,
0000
1003
0000
0010
0000
0100
0100
0000
,
0000
0000
0001
1000
0001
0000
0001
0100
,
0001
0000
0001
1000
0001
0000
0100
0010
,
1000
0100
1000
0100
1000
0000
1000
0001
,
1000
0000
1000
0100
1000
0000
0010
0100
,
0001
0010
0001
0000
1000
0010
0000
0100
,
0001
1000
0100
0000
0000
1001
0000
0000
,
0001
0010
0100
0000
1000
0000
0001
0000
,
1000
0010
0000
0100
0000
0010
0000
0110
,
0000
0000
0000
0000
0010
0100
0010
0000
,
1000
0001
1000
0000
0100
0010
0100
1000
,
0001
0000
0010
0001
0010
0000
0100
0010
,
0100
0000
0010
0001
0010
0100
1000
0000
,
0010
0100
0001
0000
0010
0100
0000
0000
,
1000
0010
0100
0000
0001
1000
0000
1000
,
0000
0001
0100
1000
,
0100
0001
1000
0010
,
0100
0000
0010
0000
1000
0001
0000
0000
,
0010
0000
0100
0000
1000
0001
0000
0000
,
0010
0000
0100
0000
1000
0010
0000
0100
,
0000
1001
0000
0000
,
0000
0110
0000
0001
1000
0000
0000
1000
,
0001
0000
0000
0001
0010
0100
1000
0000
,
1001
0000
0000
0202
0000
0303
0000
1001
,
0000
0010
1000
0010
0000
1000
0001
0010
,
0000
1001
0000
1001
0000
0000
0000
0000
;

//---------------dance-single - ----------------
#NOTES:
     dance-single:
     :
     Beginner:
     1:
     0.090,0.102,0.015,0.000,0.000: // measure 1
0000
0001
0000
1000
,  // measure 2
0000
0001
0000
0000
,  // measure 3
0000
1000
0000
0001
,  // measure 4
0000
1000
0000
0000
,  // measure 5
0000
0010
0000
0000
,  // measure 6
0000
0010
0000
0000
,  // measure 7
0000
0010
0000
0000
,  // measure 8
0000
0000
0000
0000
,  // measure 9
0000
0100
0000
0000
,  // measure 10
0000
0100
0000
0000
,  // measure 11
0000
0100
0000
0000
,  // measure 12
0000
0001
0000
0000
,  // measure 13
0000
1000
0000
0000
,  // measure 14
0000
0000
0000
0000
,  // measure 15
0000
0001
0000
0000
,  // measure 16
0000
0000
0000
0000
,  // measure 17
0000
0010
0000
0000
,  // measure 18
0000
0100
0000
0000
,  // measure 19
0000
1000
0000
0000
,  // measure 20
0000
0000
0000
0000
,  // measure 21
0000
0001
0000
0000
,  // measure 22
0000
1000
0000
0000
,  // measure 23
0000
0001
0000
0000
,  // measure 24
0000
1000
0000
0000
,  // measure 25
0000
0010
0000
0000
,  // measure 26
0000
0100
0000
0000
,  // measure 27
0000
0001
0000
0000
,  // measure 28
0000
0000
0000
0000
,  // measure 29
0000
1000
0000
0000
,  // measure 30
0000
0001
0000
0000
,  // measure 31
0000
1000
0000
0000
,  // measure 32
0000
0100
0000
0000
,  // measure 33
0000
0010
0000
0000
,  // measure 34
0000
0001
0000
0000
,  // measure 35
0000
1000
0000
0000
,  // measure 36
0000
1000
0000
0000
,  // measure 37
0000
0001
0000
0000
,  // measure 38
0000
0001
0000
0000
,  // measure 39
0000
1000
0000
0000
,  // measure 40
0000
1000
0000
0000
,  // measure 41
0000
0000
0000
0000
,  // measure 42
0000
0000
0000
0000
,  // measure 43
0010
0000
0000
0000
0000
0000
0000
0010
,  // measure 44
0000
0000
0000
0000
,  // measure 45
0000
0000
0000
1001
0000
0000
0000
0000
;
