#TITLE:GRAIN;
#SUBTITLE:;
#ARTIST:蓜島邦明;
#TITLETRANSLIT:;
#SUBTITLETRANSLIT:;
#ARTISTTRANSLIT:KUNIAKI HAISHIMA;
#CREDIT:DigiMindAxel;
#BANNER:GRAIN.png;
#BACKGROUND:GRAIN-bg.png;
#LYRICSPATH:;
#CDTITLE:DigiMindAxel original simfile.png;
#MUSIC:GRAIN.mp3;
#OFFSET:-10.430;
#SAMPLESTART:20.511;
#SAMPLELENGTH:12.000;
#SELECTABLE:YES;
#BPMS:0.000=94.825;
#STOPS:;
#BGCHANGES:-18.000=GRAIN.avi=1.000=1=1=0,
99999=-nosongbg-=1.000=0=0=0 // don't automatically add -songbackground-
;

//---------------dance-single - ----------------
#NOTES:
     dance-single:
     :
     Beginner:
     1:
     0.048,0.075,0.046,0.000,0.000:
1000
0000
0000
0000
,
0001
0000
0000
0000
,
1000
0000
0000
0000
,
0010
0000
0000
0000
,
0100
0000
0000
0000
,
0000
0000
0000
0000
,
0010
0000
0000
0000
,
0000
0000
0000
0000
,
0000
1000
0000
0000
,
0000
0001
0000
0000
,
0000
1000
0000
0000
,
0000
0010
0000
0000
,
0000
0100
0000
0000
,
0001
0000
0000
1000
,
0001
0000
0000
1000
,
0001
0000
0000
0100
,
0010
0000
0000
0000
,
0000
0000
0000
0000
,
1001
0000
0000
0000
,
0000
0000
0000
0000
,
1001
0000
0000
0000
,
0000
0000
0000
0000
,
1001
0000
0000
0000
,
0100
0000
0000
0000
,
0010
0000
0000
0000
,
1000
0000
0000
0000
,
1001
0000
0000
0000
;

//---------------dance-single - ----------------
#NOTES:
     dance-single:
     :
     Easy:
     2:
     0.190,0.241,0.289,0.220,0.000:
1000
1001
0000
0010
,
0100
0110
0000
0001
,
1000
1001
0000
0100
,
0010
0110
0000
1000
,
0002
0000
0000
1003
,
0020
0000
0000
0130
,
0002
0000
0000
0103
,
0020
0000
0000
1030
,
0100
0110
0001
1001
,
0010
0110
1000
1001
,
0100
0110
0001
1001
,
0100
0110
1000
1001
,
0002
0023
0230
2300
,
3020
0230
0302
1003
,
0010
0100
0010
0110
,
1000
0001
1000
1001
,
0220
0000
0000
0330
,
2002
0000
0000
3003
,
1001
0000
0000
0000
,
0110
0000
0000
0000
,
2001
0000
3001
0000
,
0120
0000
0130
0000
,
1002
0000
1003
0000
,
0210
0000
0310
0000
,
1001
0001
1000
0000
,
0110
0100
0010
0000
,
1001
0000
0000
0000
;

//---------------dance-single - ----------------
#NOTES:
     dance-single:
     :
     Medium:
     4:
     0.268,0.257,0.312,0.174,0.000:
1000
0001
0100
0001
1000
0000
0010
0000
,
0100
0010
0001
0010
0100
0000
1000
0000
,
0010
1000
0001
0010
0001
0000
1000
0000
,
0100
0010
0001
0010
0100
0000
1000
0000
,
0001
0100
1000
0100
0001
0000
0000
0000
,
1000
0010
0001
0010
1000
0000
0000
0000
,
0001
0010
1000
0010
0001
0000
0000
0000
,
1000
0100
0001
0100
1000
0000
0000
0000
,
1001
0000
0100
0010
1000
0000
1001
0000
,
0110
0000
0010
1000
0001
0000
1001
0000
,
0110
0000
0100
0001
1000
0000
1001
0000
,
0110
0000
0010
0100
0001
0000
1001
0000
,
0102
0023
0230
2300
,
3020
0230
0302
1003
,
0001
0010
0100
1000
0001
0000
1001
0000
,
1000
0100
0010
0001
1000
0000
1001
0000
,
1010
0000
0100
0100
0000
0000
0100
0000
,
0101
0000
0010
0010
0000
0000
0010
0000
,
0110
0220
0000
0000
0000
0000
0330
0000
,
1001
2002
0000
0000
0000
0000
3003
0000
,
1100
2200
0000
0000
0000
0000
3300
0000
,
0011
0022
0000
0000
0000
0000
0033
0000
,
0110
0000
0100
0001
1000
0000
0000
0000
,
0110
0000
0010
1000
0001
0000
0000
0000
,
0110
0000
0100
0001
1000
0000
1000
0000
,
0110
0000
0010
1000
0001
0000
0001
0000
,
1001
1001
0000
0000
0000
0000
0000
0000
;

//---------------dance-single - ----------------
#NOTES:
     dance-single:
     :
     Hard:
     6:
     0.393,0.363,0.509,0.093,0.121: // measure 1
1001
0000
0100
0001
0100
0000
0010
0000
0110
0000
0000
0000
1000
0000
0010
1000
,  // measure 2
0100
0000
1000
0100
1000
0000
0010
0000
0110
0000
0000
0000
1000
0000
0001
0100
,  // measure 3
0010
0000
0100
0001
0100
0000
0010
0000
0110
0000
0000
0000
0001
0000
0100
0001
,  // measure 4
0010
0000
0100
0010
0100
0000
1000
0000
1001
0000
0000
0000
0010
0000
0100
0010
,  // measure 5
2000
0001
0001
0010
0100
0000
3001
1000
,  // measure 6
0002
1000
1000
0100
0010
0000
1003
0001
,  // measure 7
2000
0001
0001
0100
0010
0000
3001
1000
,  // measure 8
0002
1000
1000
0010
0100
0000
1003
0001
,  // measure 9
1001
0000
0010
0100
1000
0000
0010
0000
0110
0000
0000
0000
1001
0000
0100
0010
,  // measure 10
0001
0000
0100
0010
0100
0000
0001
0000
0101
0000
0000
0000
1001
0000
0010
0100
,  // measure 11
1000
0000
0010
0100
0010
0000
1000
0000
1100
0000
0000
0000
1001
0000
0100
0001
,  // measure 12
0010
0000
0001
1000
0001
0000
0100
0000
0101
0000
0000
0000
1001
0000
0000
0000
,  // measure 13
0101
0000
0100
1100
0100
0000
1001
0000
,  // measure 14
1010
0000
0000
0000
0010
0000
0011
0000
0010
0000
0000
0000
1001
0000
0001
0100
,  // measure 15
0001
0000
0100
0001
0100
0000
0010
1000
0100
0000
0000
0000
1001
0000
1000
0100
,  // measure 16
1000
0000
0100
1000
0100
0000
1000
0001
0100
0000
0000
0000
1001
0000
0000
0000
,  // measure 17
1010
0000
0100
0110
0000
0000
0100
0000
,  // measure 18
0101
0000
0010
0110
0000
0000
0100
0000
,  // measure 19
1001
1002
0010
0000
0100
0000
1003
0001
,  // measure 20
1001
2001
0100
0000
0010
0000
3001
1000
,  // measure 21
1001
1002
1000
0000
0100
0000
0013
0001
,  // measure 22
1001
2001
0001
0000
0010
0000
3100
1000
,  // measure 23
0110
0110
0001
0100
0010
0000
0000
0001
,  // measure 24
0110
0110
1000
0010
0100
0000
0000
0001
,  // measure 25
1100
1100
0001
0010
0100
0000
0000
1000
,  // measure 26
0011
0011
1000
0100
0010
0000
0000
0100
,  // measure 27
1001
1001
0000
0000
0000
0000
0000
0000
;
