#TITLE:ゴーゴー・キッチン;
#SUBTITLE:;
#ARTIST:みすみゆり;
#TITLETRANSLIT:GO GO KITCHEN;
#SUBTITLETRANSLIT:;
#ARTISTTRANSLIT:YURI MISUMI;
#CREDIT:DigiMindAxel;
#BANNER:GO GO KITCHEN.png;
#BACKGROUND:GO GO KITCHEN-bg.png;
#LYRICSPATH:GO GO KITCHEN.lrc;
#CDTITLE:TAIKO NO TATSUJIN.png;
#MUSIC:GO GO KITCHEN.mp3;
#OFFSET:-5.375;
#SAMPLESTART:5.306;
#SAMPLELENGTH:12.000;
#SELECTABLE:YES;
#BPMS:0.000=206.000,256.000=103.000,272.000=206.000;
#STOPS:;
#BGCHANGES:;

//---------------dance-single - ----------------
#NOTES:
     dance-single:
     :
     Easy:
     4:
     0.289,0.486,0.068,0.103,0.000:
1000
0001
1000
0000
,
0100
0000
1000
0000
,
0010
0000
0100
0000
,
0001
0000
1000
0000
,
0001
1000
0001
0000
,
0010
0000
0100
0000
,
1000
0000
0010
0000
,
0100
0000
0000
0000
,
0020
0000
0130
0000
,
0020
0000
0130
0000
,
0002
0000
1003
0000
,
0002
0000
1003
0000
,
0200
0000
1300
0000
,
0200
0000
1300
0000
,
0020
0000
0031
0000
,
0020
0000
0031
0000
,
1000
0001
1000
0000
,
0100
0000
0010
0000
,
0001
1000
0001
0000
,
0010
0000
0100
0000
,
1000
0001
1000
0000
,
0010
0000
0100
0000
,
0001
1000
0001
0000
,
0100
0000
0010
0000
,
1000
0001
1000
0000
,
0001
1000
0001
0000
,
1000
0001
1000
0000
,
0001
1000
0001
0000
,
0100
0001
0100
0000
,
0010
1000
0010
0000
,
1000
0001
1000
0000
,
0010
0100
0010
0000
,
2000
0000
0000
3000
,
0000
0000
0000
0000
,
0002
0000
0000
0000
,
0003
0000
0000
0000
,
2000
0000
0000
0000
,
3000
0000
0000
0000
,
0002
0000
0000
0000
,
0003
0000
0000
0000
,
1000
0000
0001
0000
,
0010
0000
0100
0000
,
1000
0000
0001
0000
,
1000
0000
0001
0000
,
0010
0000
0100
0000
,
1000
0000
0100
0000
,
0010
0000
0001
0000
,
0010
0000
0001
0000
,
1000
0001
1000
0000
,
0100
0000
0010
0000
,
0001
1000
0001
0000
,
0010
0000
0100
0000
,
1000
0001
1000
0000
,
0010
0000
0100
0000
,
0001
1000
0001
0000
,
0100
0000
0010
0000
,
1000
0001
1000
0000
,
0100
1000
0100
0000
,
1000
0001
1000
0000
,
0100
1000
0100
0000
,
1000
0001
1000
0000
,
0001
0100
0001
0000
,
1000
0001
1000
0000
,
0001
0100
0001
0000
,
1001
1000
0001
1001
,
1000
1001
0001
1001
,
0010
0110
0100
0110
,
0001
1001
1000
1001
,
0010
0100
0010
0000
,
1000
0001
1000
0000
,
0010
0100
0010
0000
,
1000
0001
1000
0000
,
0100
1000
0100
0000
,
0010
0001
0010
0000
,
0001
1000
0001
0000
,
0100
0001
0100
0000
,
0010
1000
0010
0000
,
1000
0001
1000
0000
,
0100
1000
0100
0000
,
0010
0001
0010
0000
,
0001
1000
0001
0000
,
0100
0010
0100
0000
,
0001
1000
0001
0000
,
0010
0100
0010
0000
,
0001
0100
0001
0000
,
1000
0100
1000
0000
,
0010
0100
0010
0000
,
1000
0100
1000
0000
;

//---------------dance-single - ----------------
#NOTES:
     dance-single:
     :
     Medium:
     6:
     0.499,0.676,0.154,0.154,0.000:
0001
0000
0010
0000
0100
0000
0000
1000
,
0000
0010
0000
1000
0000
0001
0000
0000
,
0100
0010
0100
0010
,
0100
0000
0001
0000
,
1000
0000
0100
0000
0010
0000
0000
0001
,
0000
0100
0000
0001
0000
1000
0000
0000
,
0100
0010
0100
0010
,
0100
0000
0000
0000
,
1001
0000
0100
0000
,
1001
0000
0100
0000
,
1001
0000
0100
0000
,
1001
0100
0010
0001
,
1001
0000
0010
0000
,
1001
0000
0010
0000
,
1001
0000
0010
0000
,
1001
0010
0100
1000
,
0010
0100
0010
1000
,
0100
0010
0001
0010
,
0100
1000
0010
0100
,
0010
1000
0010
0100
,
0001
1000
0001
0010
,
0100
0010
0001
1000
,
0001
0100
0010
0100
,
0001
0010
0100
1000
,
0010
0100
0010
1000
,
0100
0010
0001
1000
,
0010
0100
0001
0010
,
0100
1000
0100
0010
,
0001
1000
0001
0010
,
0100
0010
0001
1000
,
0100
1000
0010
0100
,
0001
0000
1000
0001
1000
0000
0001
0000
,
0200
0000
0000
0310
0000
1000
0000
0001
,
0000
0200
0000
0000
0310
0000
0100
0000
,
0020
0000
0000
0130
0000
0001
0000
1000
,
0000
0200
0000
0000
0010
0000
0310
0000
,
0002
0000
0000
1003
0000
0010
0000
0100
,
0000
0002
0000
0000
0010
0000
0013
0000
,
0200
0000
0000
1300
0000
0100
0000
0010
,
0000
0002
0000
0000
1000
0000
1003
0000
,
0001
0100
0001
0000
1000
0000
1000
0000
,
0001
0010
0001
0000
1000
0000
1000
0000
,
0001
1000
0001
0000
0010
0000
0010
0000
,
0001
1000
0001
0000
0100
0000
0100
0000
,
0010
0100
0010
0000
1000
0000
1000
0000
,
0100
0010
0100
0000
1000
0000
1000
0000
,
0010
0100
0010
0000
0100
0000
0100
0000
,
0001
1000
0001
0000
1000
0000
1001
0000
,
1000
0010
1000
0000
0010
1000
0010
0000
,
1000
0001
1000
0000
0001
0000
0001
0000
,
0010
0001
0010
0000
0001
0010
0001
0000
,
0100
0010
0100
0000
0010
0000
0010
0000
,
1000
0001
1000
0000
0001
1000
0001
0000
,
0100
0001
0100
0000
0010
0000
0010
0000
,
0100
0010
0100
0000
0010
0100
0010
0000
,
1000
0100
1000
0000
0001
1000
0001
1000
,
0001
0010
0001
0000
0010
0001
0010
0000
,
0100
0010
0100
0000
1000
0000
1000
0000
,
0001
0100
0001
0000
1000
0010
1000
0000
,
0010
0100
0010
0000
0100
0000
0100
0000
,
0001
0100
0001
0000
0010
0100
0010
0000
,
1000
0010
1000
0000
0001
0000
0001
0000
,
0010
0001
0010
0000
0001
1000
0001
0000
,
2002
0000
0000
3003
,
1200
1300
0120
0130
,
0012
0013
2001
3001
,
0201
0301
2010
3010
,
2001
0000
3001
0000
0210
0000
0310
0100
,
0001
1000
0100
0010
,
0001
1000
0010
0100
,
0001
0100
1000
0100
,
0001
1000
0001
1000
,
0001
0010
0100
1000
,
0100
0010
0001
1000
,
0001
0100
1000
0100
,
0001
1000
0001
1000
,
0001
0100
0001
0000
1000
0010
1000
0000
,
0100
0010
0001
1000
,
0010
0100
0010
0000
1000
0001
1000
0000
,
0001
0010
0100
1000
,
0100
0010
0100
0000
1000
0001
1000
0000
,
0001
0010
0100
1000
,
0010
1000
0010
0000
0100
0010
0100
0000
,
0001
0010
0100
1000
,
0001
1000
0001
0000
0000
0100
0000
0010
,
1000
0001
1000
0000
0000
0100
0000
0010
,
0001
1000
0001
0000
0000
0010
0000
0100
,
1000
0001
1000
0000
0000
0010
0000
0100
;

//---------------dance-single - ----------------
#NOTES:
     dance-single:
     :
     Hard:
     9:
     0.680,0.676,0.445,0.350,0.000: // measure 1
1001
0000
1100
0000
1000
0001
0100
0001
,  // measure 2
0000
1000
0000
1000
0000
0001
0100
0010
,  // measure 3
0000
1000
0000
1000
0010
0100
0001
1000
,  // measure 4
0000
0001
0000
1000
0000
0001
0000
0000
,  // measure 5
1001
0000
0101
0000
0001
1000
0100
1000
,  // measure 6
0000
0001
0000
0001
0000
1000
0010
0100
,  // measure 7
0000
0001
0000
0001
0010
0100
1000
0001
,  // measure 8
0100
0100
0100
0100
,  // measure 9
1001
0000
1010
0000
,  // measure 10
1001
0000
0101
0000
,  // measure 11
1001
0000
0110
0000
,  // measure 12
1001
0000
1000
0100
0010
0001
1000
0000
,  // measure 13
1001
0000
1100
0000
,  // measure 14
1001
0000
0011
0000
,  // measure 15
1001
0000
0110
0000
,  // measure 16
1001
0000
0001
0100
0010
1000
0001
0000
,  // measure 17
0200
0001
0302
1000
,  // measure 18
1003
0010
0100
0010
1000
0010
0100
0000
,  // measure 19
0020
1000
2030
0001
,  // measure 20
3001
0010
0100
0010
0001
0010
0100
0000
,  // measure 21
2000
0001
3002
0100
,  // measure 22
0103
0001
0010
0100
0010
0001
0100
0000
,  // measure 23
0020
1000
2030
0001
,  // measure 24
3001
1000
0010
0100
0010
1000
0001
0000
,  // measure 25
0020
0001
0032
1000
,  // measure 26
1003
0001
0100
0001
1000
0001
0100
0000
,  // measure 27
0020
1000
2030
0100
,  // measure 28
3100
1000
0001
0010
0001
1000
0100
0000
,  // measure 29
0020
0001
0032
0100
,  // measure 30
0103
0001
0010
0100
0010
0001
0100
0000
,  // measure 31
0020
0100
0230
0001
,  // measure 32
0301
1000
0100
0010
0001
0010
0100
0000
,  // measure 33
1000
0000
0010
0100
0000
0001
0000
1001
,  // measure 34
0000
0020
0000
0000
0001
0000
0031
0000
,  // measure 35
1000
0000
0100
0010
0000
0001
0000
1001
,  // measure 36
0000
0020
0000
0000
1000
0000
1030
0000
,  // measure 37
0001
0000
0010
0100
0000
1000
0000
1001
,  // measure 38
0000
0020
0000
0000
0100
0000
0130
0000
,  // measure 39
0001
0000
0100
0010
0000
1000
0000
1001
,  // measure 40
0000
0200
0000
0000
0010
0000
0310
0000
,  // measure 41
1000
0001
0000
0001
0100
0000
0110
0000
,  // measure 42
0100
1000
0000
1000
0001
0000
1001
0000
,  // measure 43
1000
0001
0000
0001
0100
0000
0101
0000
,  // measure 44
0001
1000
0000
1000
0010
0000
1010
0000
,  // measure 45
1000
0001
0000
0001
0010
0000
0011
0000
,  // measure 46
0001
1000
0000
1000
0100
0000
1100
0000
,  // measure 47
0010
0001
0000
0001
1000
0000
1001
0000
,  // measure 48
0100
1000
0000
1000
0001
0000
1001
0000
,  // measure 49
0001
0010
0100
0000
0010
0001
0010
0000
,  // measure 50
0001
1000
0100
0010
0001
0000
0001
0000
,  // measure 51
1000
0100
0010
0000
0100
1000
0100
0000
,  // measure 52
1000
0001
0010
0100
1000
0000
1000
0000
,  // measure 53
0001
0100
0001
0000
0010
0100
0010
0000
,  // measure 54
0001
1000
0010
0100
0001
0000
0001
0000
,  // measure 55
1000
0010
1000
0000
0100
0010
0100
0000
,  // measure 56
1000
0001
0100
0010
1000
0001
1000
0001
,  // measure 57
1000
0010
0100
0000
0100
0001
0010
0000
,  // measure 58
0010
0001
1000
0100
0010
0000
0110
0000
,  // measure 59
0001
0100
0010
0000
0010
1000
0100
0000
,  // measure 60
0100
1000
0001
0010
0100
0000
0110
0000
,  // measure 61
1000
0100
0010
0000
0010
0001
0100
0000
,  // measure 62
0100
0001
0010
0100
1000
0000
1100
0000
,  // measure 63
0001
0010
0100
0000
0100
1000
0001
0000
,  // measure 64
2002
0000
0000
3003
,  // measure 65
0011
1001
1100
1001
,  // measure 66
0101
1001
1010
1001
,  // measure 67
0110
1001
0110
1001
,  // measure 68
1100
0000
0011
0000
1100
0000
0011
0001
,  // measure 69
1000
0100
1000
0000
0002
1000
0000
1003
,  // measure 70
0001
0100
0001
0000
2000
0001
0000
3001
,  // measure 71
1000
0010
1000
0000
0002
1000
0000
1003
,  // measure 72
0001
0010
0001
0000
2000
0001
0000
3001
,  // measure 73
0100
0010
0100
0000
0002
0100
0000
0103
,  // measure 74
0010
0100
0010
0000
2000
0010
0000
3010
,  // measure 75
1000
0100
0010
0000
0002
0100
0000
0103
,  // measure 76
0001
0010
0100
0000
2000
0010
0000
3010
,  // measure 77
1000
0100
0010
0001
2000
0100
0000
3100
,  // measure 78
1000
0010
0100
0001
2000
0010
0000
3010
,  // measure 79
0100
0001
0010
0100
2000
0001
0000
3001
,  // measure 80
1000
0001
0100
0010
0200
0001
0000
0301
,  // measure 81
1000
0100
0010
0100
2000
0001
0000
3001
,  // measure 82
1000
0001
0100
0010
0200
0001
0000
0301
,  // measure 83
1000
0010
0100
0001
0020
0100
0000
0130
,  // measure 84
1000
0001
0000
0000
1001
0000
1001
0000
,  // measure 85
0001
0100
0001
0100
0020
1000
0000
1030
,  // measure 86
0001
0010
0001
0010
0200
1000
0000
1300
,  // measure 87
0100
0010
0100
0010
0002
0100
0000
0103
,  // measure 88
0010
0100
0010
0100
2000
0001
0000
3001
;

//---------------dance-single - ----------------
#NOTES:
     dance-single:
     :
     Challenge:
     10:
     0.822,1.000,0.564,0.162,0.111:
0001
0001
1000
1000
0001
0010
0100
1000
,
0000
0100
0001
0100
0000
1000
0010
0100
,
0000
0001
0000
0001
0010
1000
0010
0001
,
0000
0100
0010
0100
0000
0010
1000
0001
,
1000
1000
0001
0001
1000
0100
0010
0001
,
0000
0100
1000
0100
0000
0001
0010
0100
,
0000
1000
0000
1000
0100
0001
0100
1000
,
0010
0000
1000
0010
1000
0000
0100
0000
0010
0000
0100
0000
0010
0000
0001
0000
,
2000
3001
2000
3100
,
0020
0031
0200
0310
,
2000
3001
0200
0310
,
2000
0001
3001
0100
0100
0010
1000
0000
,
0200
1300
0020
0031
,
0200
0310
2000
3010
,
0200
0301
2000
3001
,
0200
0010
0310
1000
1000
0100
0010
0000
,
0101
1100
0101
1100
,
0100
0001
0001
1000
1000
0100
0010
0000
,
0011
1010
0011
1010
,
0010
1000
1000
0001
0001
0100
0010
0000
,
0101
0110
0101
0110
,
0010
1000
1000
0001
0001
0010
0100
0000
,
1010
0110
1010
0110
,
0010
1000
1000
0001
0001
0010
0100
0000
,
1001
1100
1001
1100
,
1000
0100
0001
0100
1000
0001
0001
0000
,
1001
0101
1001
0101
,
0001
0100
1000
0100
0001
1000
1000
0000
,
1001
1010
1001
1010
,
1000
0010
0001
0010
1000
0001
0001
0000
,
1001
0011
1001
0011
,
0001
0010
1000
0010
0001
1000
1000
0001
,
0200
0000
0010
0310
0000
1100
0000
0011
,
0000
0001
1000
0100
0010
0001
1000
0000
,
0020
0000
0100
0130
0000
0101
0000
1010
,
0000
1000
0001
0100
0010
1000
0001
0000
,
0020
0000
0001
0031
0000
1001
0000
0110
,
0000
0100
0010
0001
1000
0100
0010
0000
,
0200
0000
1000
1300
0000
0101
0000
1010
,
0000
0010
0100
1000
0001
0100
0010
0000
,
1000
0100
0010
0100
1000
0010
0100
0000
,
0001
0010
0100
0010
0001
0100
0010
0000
,
1000
0010
0100
0010
1000
0100
0010
0000
,
0001
0100
0010
0100
0001
0010
0100
0000
,
1000
0010
0100
1000
0100
0010
1000
0000
,
0001
0100
0010
0001
0010
0100
0001
0000
,
1000
0010
0100
1000
0100
0010
1000
0000
,
1000
0000
0001
1000
0001
0000
0010
0000
0100
0000
1000
0000
0001
0000
0100
0000
,
0001
0100
1000
0000
0100
0001
1000
0000
,
0001
0100
1000
0100
0001
0010
0100
0000
,
1000
0100
0001
0000
0100
1000
0001
0000
,
1000
0100
0001
0100
1000
0010
0100
0000
,
0001
0010
1000
0000
0010
0001
1000
0000
,
0001
0010
1000
0010
0001
0100
0010
0000
,
1000
0010
0001
0000
0010
1000
0001
0000
,
0001
0000
1000
0001
1000
0000
0100
0000
0010
0000
0001
0000
1000
0000
0010
0000
,
1000
0001
0010
0001
1000
0001
0010
0001
,
1000
0100
0001
0100
1000
0000
1001
0000
,
0001
1000
0100
1000
0001
1000
0100
1000
,
0001
0010
1000
0010
0001
0000
1001
0000
,
1000
0001
0100
0001
1000
0001
0100
0001
,
1000
0010
0001
0010
1000
0000
1001
0000
,
0001
0000
1000
0000
0010
0000
1000
0000
0001
0000
1000
0000
0010
0000
1000
0001
,
2000
0000
0001
3001
,
0100
0010
1000
0001
0101
0000
0000
0000
0010
0100
0001
1000
1010
0000
0000
0000
,
0100
0001
0010
0100
1100
0000
0000
0000
0010
1000
0100
0010
0011
0000
0000
0000
,
1000
0010
0100
0001
1001
0000
0000
0000
0001
0100
0010
1000
1001
0000
0000
0000
,
0010
0000
0100
0000
1000
0000
0010
0000
0110
0000
0000
0000
0000
0000
0000
0000
0001
0000
0010
0000
0100
0000
0010
0000
0001
1000
0001
0000
1000
0001
1000
0000
,
0001
1000
0100
1000
0001
0100
0001
1000
,
0100
1000
0001
0100
0001
1000
0100
1000
,
0001
0010
0100
0010
0001
0010
0100
0010
,
0001
0010
0100
0010
0001
0010
0100
0000
,
1000
0001
0100
0001
1000
0100
1000
0001
,
0100
0001
1000
0100
1000
0001
0100
0001
,
1000
0100
0010
0100
1000
0100
0010
0100
,
1000
0100
0010
0100
1000
0100
0010
0000
,
0001
0100
0010
0100
0001
0101
0000
1010
,
0010
1000
0100
0010
0001
1000
0001
0100
,
0010
1000
0100
0010
0100
1100
0000
0011
,
0010
0001
0100
0010
1000
0100
0010
0000
,
0001
0100
0010
0100
0001
0101
0000
1010
,
0010
1000
0100
0010
0001
1000
0010
1000
,
0001
0010
0100
1000
0100
1100
0000
0011
,
0001
0000
1000
0000
0010
0000
0100
0000
0001
1000
0001
0000
1000
0001
1000
0000
,
0001
0010
1000
0010
0001
0011
0000
1100
,
1000
0100
0001
0100
1000
1010
0000
0101
,
0001
0010
1000
0010
0001
0101
0000
1010
,
1000
0010
0001
0010
1000
1001
0000
0110
;

//---------------dance-single - ----------------
#NOTES:
     dance-single:
     :
     Beginner:
     2:
     0.159,0.224,0.103,0.000,0.000:
0001
0000
0000
0000
,
1000
0000
0000
0000
,
0001
0000
0000
0000
,
1000
0000
0000
0000
,
0010
0000
0000
0000
,
0100
0000
0000
0000
,
0010
0000
0000
0000
,
0100
0000
0000
0000
,
0110
0000
0000
0000
,
0001
0000
0000
0000
,
1001
0000
0000
0000
,
1000
0000
0000
0000
,
0110
0000
0000
0000
,
0001
0000
0000
0000
,
0110
0000
0000
0000
,
1000
0000
0000
0000
,
0001
0000
1000
0000
,
0001
0000
1000
0000
,
0010
0000
0100
0000
,
0010
0000
0100
0000
,
0001
0000
1000
0000
,
0001
0000
1000
0000
,
0100
0000
0010
0000
,
0100
0000
0010
0000
,
0001
0000
0100
0000
,
0001
0000
0100
0000
,
0010
0000
1000
0000
,
0010
0000
1000
0000
,
0001
0000
1000
0000
,
0001
0000
1000
0000
,
0100
0000
1000
0000
,
0100
0000
0010
0000
,
0001
0000
0000
0000
,
0000
0000
0000
0000
,
1000
0000
0000
0000
,
0000
0000
0000
0000
,
0001
0000
0000
0000
,
0000
0000
0000
0000
,
1000
0000
0000
0000
,
0000
0000
0000
0000
,
1001
0000
0000
0000
,
0001
0000
0000
0000
,
1000
0000
0000
0000
,
0001
0000
0000
0000
,
1000
0000
0000
0000
,
0001
0000
0000
0000
,
1000
0000
0000
0000
,
0001
0000
0000
0000
,
0100
0000
0010
0000
,
0100
0000
0000
0000
,
0010
0000
0100
0000
,
0010
0000
0000
0000
,
1000
0000
0001
0000
,
1000
0000
0000
0000
,
0001
0000
1000
0000
,
0001
0000
0000
0000
,
1001
0000
1000
0000
,
0001
0000
0000
0000
,
1001
0000
0001
0000
,
1000
0000
0000
0000
,
1001
0000
1000
0000
,
0001
0000
0000
0000
,
1001
0000
0001
0000
,
1000
0000
0000
0000
,
0110
0000
0000
0000
,
0000
0000
0000
0000
,
1001
0000
0000
0000
,
0000
0000
0000
0000
,
0110
0000
0100
0000
,
0010
0000
0000
0000
,
1000
0000
0001
0000
,
1000
0000
0000
0000
,
0001
0000
1000
0000
,
0001
0000
0000
0000
,
0010
0000
0001
0000
,
0010
0000
0000
0000
,
0100
0000
1000
0000
,
0100
0000
0000
0000
,
1000
0000
0001
0000
,
1000
0000
0000
0000
,
0001
0000
1000
0000
,
0001
0000
0000
0000
,
0100
0000
0001
0000
,
0100
0000
0000
0000
,
0010
0000
0010
0000
,
0010
0000
0010
0000
,
0010
0000
0010
0000
,
0010
0000
0010
0000
;
