#TITLE:幻想リフレクト;
#SUBTITLE:;
#ARTIST:イルカブ;
#TITLETRANSLIT:GENSOU REFLECT;
#SUBTITLETRANSLIT:;
#ARTISTTRANSLIT:IRUKABU;
#CREDIT:DigiMindAxel;
#BANNER:GENSOU REFLECT.png;
#BACKGROUND:GENSOU REFLECT-bg.png;
#LYRICSPATH:GENSOU REFLECT.lrc;
#CDTITLE:REFLEC BEAT.png;
#MUSIC:GENSOU REFLECT.mp3;
#OFFSET:-10.895;
#SAMPLESTART:63.618;
#SAMPLELENGTH:12.000;
#SELECTABLE:YES;
#BPMS:0.000=138.000;
#STOPS:119.500=0.435
;
#BGCHANGES:;

//---------------dance-single - ----------------
#NOTES:
     dance-single:
     :
     Easy:
     2:
     0.156,0.198,0.019,0.057,0.000:
0001
0000
0000
1000
0000
0000
0002
0000
,
0000
0000
0000
0000
1003
0000
0000
0001
,
0000
2000
0000
0000
,
3001
0000
0000
1000
,
0000
0000
0001
0000
,
0000
1000
0000
0000
,
1000
0000
0000
1000
,
0000
0000
0001
0000
,
0000
0001
0000
0000
,
1001
0000
0000
1000
0000
0000
0001
0000
,
0000
1000
0000
0000
0001
0000
0000
0010
,
0000
0000
0100
0000
0000
1000
0000
0000
,
0001
0000
0000
0100
0000
0000
0010
0000
,
0000
0100
0000
0000
0010
0000
0000
1000
,
0000
0000
0100
0000
0000
0010
0000
0000
,
0002
0000
0000
1000
,
0000
0000
1000
0000
,
0000
1003
0000
0000
,
2000
0000
0000
0001
,
0000
0000
0001
0000
,
0000
3001
0000
0000
,
1001
0000
0000
0000
,
0000
0000
0000
0000
,
0000
0000
0000
0000
,
0100
0000
0000
0010
,
0000
0000
0100
0000
,
0000
0010
0000
0000
,
1000
0000
0000
0001
,
0000
0000
1000
0000
,
0000
1000
0000
0000
,
0000
0001
0000
1000
0000
0001
0000
0100
,
0000
0010
0000
0100
0000
0001
0000
1000
,
0000
0001
0000
0000
0000
0000
0000
0000
,
0000
0100
0000
0010
0000
0100
0000
0001
,
0000
1000
0000
0001
0000
0100
0000
0010
,
0000
1000
0000
0001
0000
1000
0000
0000
,
0000
0010
0000
0100
0000
0010
0000
1000
,
0000
0010
0000
1000
0000
0001
0000
0100
,
0000
0001
0000
0010
0000
0100
0000
1000
,
0000
0001
0000
0000
1000
0000
0000
0010
,
0000
0000
0100
0000
0000
0001
0000
0000
,
0010
0000
0000
0100
0000
0000
1000
0000
,
0000
0000
0000
0000
0000
0000
0000
0002
,
0000
0000
0000
0000
,
0000
0000
0000
1003
0000
0000
0100
0000
,
0000
0010
0000
0000
0001
0000
0000
1000
,
0000
0000
0010
0000
0000
0100
0000
0000
,
0010
0000
0000
1000
0000
0000
0100
0000
,
0000
0010
0000
0000
0001
0000
0000
0100
,
0000
0000
0010
0000
0000
0100
0000
0000
,
0001
0000
0000
1000
0000
0000
0000
0000
,
0000
2000
0000
0000
0000
3000
0000
0000
;

//---------------dance-single - ----------------
#NOTES:
     dance-single:
     :
     Medium:
     4:
     0.294,0.321,0.239,0.134,0.000:
1000
0000
0000
1001
0000
0000
0202
0000
,
0000
0000
0303
0000
0001
0000
0000
1001
,
0000
2020
0000
3030
,
1000
0000
0000
0100
0000
0000
0010
0000
,
0000
0001
0000
0000
1000
0000
0000
0010
,
0000
0000
1000
0000
0000
0010
0000
0000
,
1000
0000
0000
0001
0000
0000
0010
0000
,
0000
0100
0000
0000
1000
0000
0000
0001
,
0000
0000
1000
0001
0100
0010
0000
0000
,
1001
0000
0000
1000
0000
0000
1100
0000
,
0000
0001
0000
0000
1002
0000
0000
0100
,
0000
0000
0103
0000
0000
0010
0000
0000
,
1001
0000
0000
0001
0000
0000
0011
0000
,
0000
1000
0000
0000
2001
0000
0000
0010
,
0000
0000
3010
0000
0000
0100
0000
0000
,
1001
0000
0000
1000
0010
1000
0001
0000
,
0000
0001
0100
0001
1000
0000
0000
1000
,
0000
0000
0001
0000
0000
0001
0000
0000
,
1001
0000
0000
1000
0100
1000
0001
0000
,
0000
0001
0010
0001
1000
0000
0000
1000
,
0000
0000
0001
0000
0000
0001
0000
0000
,
2002
0000
0000
0000
,
0003
0000
3020
0000
,
0000
0000
0000
0030
,
0110
0000
0000
0100
0000
0000
0101
0000
,
0000
0100
0000
0000
0110
0000
0000
0010
,
0000
0000
1010
0000
0000
0010
0000
0000
,
0110
0000
0000
1000
0000
0000
0110
0000
,
0000
0001
0000
0000
0110
0000
0000
1000
,
0000
0000
0001
0100
0001
1000
0100
1000
,
0000
0001
1000
0001
0000
1000
0000
0010
,
0100
0010
0000
1000
0000
0001
0000
0010
,
0000
0100
1000
0001
0000
0100
0000
0010
,
0000
1000
0001
1000
0000
0001
0000
0100
,
0010
0100
0000
0001
0000
1000
0000
0100
,
0000
0010
0001
1000
0000
0010
0100
0000
,
0000
0001
0100
0001
0000
1000
0000
0100
,
1000
0100
0000
1000
0000
0001
0100
0010
,
0000
1000
0010
0100
0000
0001
0000
1000
,
0001
1000
0000
0000
1100
0000
0000
0001
,
0000
0000
0101
0000
0000
1000
0100
0010
,
0100
1000
0000
0001
0010
0100
0010
0001
,
1000
0000
0000
0000
0000
0000
0000
0010
,
0000
0000
0010
0000
0000
0010
0000
0000
,
0010
0000
0000
0110
0000
0000
0100
0000
,
0000
0110
0000
0000
0010
0000
0000
1001
,
0000
0000
0100
0001
1000
0200
0000
0000
,
0010
0000
0000
0310
0000
0000
0001
0100
,
0010
0200
0000
0000
0001
0000
0000
0301
,
0000
0000
0010
1000
0001
0020
0000
0000
,
0100
0000
0000
0230
0000
0300
0000
0000
,
0000
2000
0000
0000
0000
3000
0000
0000
;

//---------------dance-single - ----------------
#NOTES:
     dance-single:
     :
     Hard:
     7:
     0.445,0.494,0.201,0.211,0.038: // measure 1
0002
0000
0000
0200
0003
0000
0020
0000
,  // measure 2
0000
0000
0330
0000
2000
0000
0000
0020
,  // measure 3
3000
0000
0230
0000
0000
0302
0000
0000
,  // measure 4
1003
0100
0000
0100
0010
0000
0100
1000
,  // measure 5
0000
1000
0001
0000
0010
0001
0000
0001
,  // measure 6
0100
0000
0010
1000
0000
1000
0001
0000
,  // measure 7
0010
0001
0000
0001
1000
0000
0010
0100
,  // measure 8
0010
0100
0010
1000
0001
0000
0001
1000
,  // measure 9
0000
1000
0001
0010
0100
1000
0000
0000
,  // measure 10
1000
0010
0000
0010
1000
0000
0001
0010
,  // measure 11
0001
1000
0000
1000
0010
0000
0100
0001
,  // measure 12
0000
0001
1000
0100
1000
0001
0100
0000
,  // measure 13
0010
0000
0010
1000
0000
1000
0001
0000
,  // measure 14
1000
0001
0010
0100
1000
0000
1000
0001
,  // measure 15
0000
0001
0100
0010
0100
0001
0010
0100
,  // measure 16
1002
0000
0000
0103
0010
0100
0002
0000
,  // measure 17
0000
0013
0100
1000
0020
0000
0100
0130
,  // measure 18
0000
0000
0101
0000
0000
1100
0000
0000
,  // measure 19
2001
0000
0000
3001
0010
0001
2000
0000
,  // measure 20
0000
3100
0010
0001
0200
0000
0000
0310
,  // measure 21
0000
0000
0100
0001
1000
0100
1000
0001
,  // measure 22
0200
0000
0000
0301
,  // measure 23
0000
0010
0000
0000
0200
0000
0000
0000
,  // measure 24
0000
0000
1300
0000
0000
0010
0000
0000
,  // measure 25
0110
0000
0000
0010
0100
1000
0002
0000
,  // measure 26
0000
0013
0100
1000
0002
0000
0000
0013
,  // measure 27
0100
1000
0020
0000
0000
0130
0000
0000
,  // measure 28
1001
0000
0000
0010
0100
0001
2000
0000
,  // measure 29
0000
3010
0100
0001
1000
0000
0010
0100
,  // measure 30
0000
0100
0001
0010
0100
1000
0001
0100
,  // measure 31
0000
0101
0000
0101
0000
0010
1000
1100
,  // measure 32
0000
1100
0000
0010
0001
1000
0100
0001
,  // measure 33
0100
0010
0001
1000
0100
1000
0001
0000
,  // measure 34
0010
0011
0000
0011
0000
0100
1000
1010
,  // measure 35
0000
1010
0000
0100
0001
1000
0010
0001
,  // measure 36
0010
0100
0001
1000
0100
0010
0001
0000
,  // measure 37
0000
0011
0000
1001
0000
0100
1000
1001
,  // measure 38
0000
0011
0000
0100
1000
0001
0010
1000
,  // measure 39
0010
0001
1000
0010
0100
0010
1000
0100
,  // measure 40
0001
0100
0000
1000
0100
0000
0001
0100
,  // measure 41
0000
1000
0100
0000
0000
0001
0100
0010
,  // measure 42
1000
1000
1000
0100
0010
0001
0001
0010
,  // measure 43
0200
0000
0000
0000
0000
0000
0000
1300
,  // measure 44
0000
1000
0100
0000
0100
0001
0000
0001
,  // measure 45
0100
0000
0100
1100
0000
0000
0101
0000
,  // measure 46
0000
0010
0100
1000
0100
0010
0001
0101
,  // measure 47
0000
0000
1000
0000
0100
0000
0010
0001
0010
0000
0100
0000
0010
0001
0010
0000
,  // measure 48
0100
0000
0010
0001
0010
0000
0100
0000
1000
0000
0001
0000
0010
0000
0100
1000
,  // measure 49
0100
0000
0010
0000
0100
1000
0100
0000
0010
0000
0100
1000
0100
0000
0010
0000
,  // measure 50
0001
0000
0100
0000
0010
0000
1000
0000
0010
0000
0100
0000
0001
0100
0001
0000
,  // measure 51
1000
0000
0010
1000
0010
0000
0200
0000
0000
0000
0300
0000
0000
0000
0000
0000
,  // measure 52
0000
0002
0000
0000
0000
0003
0000
0000
;

//---------------dance-single - ----------------
#NOTES:
     dance-single:
     :
     Challenge:
     8:
     0.571,0.569,0.153,0.105,0.244:
1000
0001
0010
0100
0000
1000
0010
0000
,
0010
0100
0000
0100
0001
1000
0100
0010
,
0000
0001
0100
0010
1000
0100
1000
0001
,
0010
0100
1000
0100
0010
0000
0001
0010
,
0100
0010
0001
0001
1000
0100
0010
0100
,
0000
1000
0001
0100
0010
1000
0100
0010
,
0001
0010
0100
0010
0001
0000
1000
0100
,
0010
0100
1000
1000
0001
0010
0100
0010
,
0001
1000
0100
0001
0100
1000
0000
0000
,
0001
0100
0010
0000
0010
1000
0100
0010
,
0001
0000
1000
0100
1000
0100
1000
0000
0001
0000
0000
0000
0100
0000
0010
0100
,
0010
0100
0010
0000
1000
0000
0100
0000
0010
0000
0001
1000
0001
1000
0001
0000
,
1000
0100
0010
0000
0010
0001
0100
0000
,
0001
0000
1000
0100
1000
0100
1000
0000
0001
0000
0000
0000
0100
0000
0010
0100
,
0010
0100
0010
0000
1000
0000
0100
0000
0010
0000
0001
0000
0010
0000
0100
0000
,
0101
0000
0000
0100
0010
0001
0101
0000
,
0000
0001
0010
0100
0101
0000
1000
0100
,
0000
0010
0100
0000
0010
0001
1000
0010
,
1010
0000
0000
1000
0100
0010
1010
0000
,
0000
0010
0100
1000
1010
0000
0000
0001
,
0100
0010
1000
1000
0100
0100
0010
0001
,
2000
0000
0000
0000
0100
0000
3200
0000
0000
0000
0010
0000
0310
0000
0001
1000
,
0001
1000
0001
0000
0010
0000
0100
0000
2000
0000
0000
0000
0010
0000
3020
0000
,
0000
0000
0100
0000
0130
0000
0001
1000
0001
1000
0001
0000
1000
0000
0100
0000
,
1100
0000
0010
0001
1000
0100
0010
0000
,
0010
0100
1000
0001
0010
0000
0100
0010
,
0001
1000
1010
0000
0000
0110
0000
0000
,
0011
0000
0100
1000
0001
0100
0010
0000
,
0010
0100
0001
0000
1000
0010
0100
0001
,
0000
0001
0100
1000
1000
0100
0001
0001
,
0000
0000
0100
0001
0000
0100
0001
0000
1000
0000
0100
0000
0010
0000
0100
1000
,
0000
0100
1000
0000
0001
0000
0010
0000
0100
0000
1000
0000
0100
0000
0001
0000
,
0100
0010
0001
2000
0000
3010
0020
0000
,
1030
0000
0001
0100
0000
0001
0100
0000
0010
0000
1000
0000
0100
0000
0010
0001
,
0000
0010
0001
0000
1000
0000
0010
0000
0100
0000
0001
0000
0010
0000
1000
0000
,
0010
0000
0100
0000
1000
0000
0010
0100
0000
0010
0100
0001
0010
0000
0000
0000
,
0000
0000
0010
0001
0000
0010
0001
0000
1000
0000
0010
0000
0100
0000
0010
1000
,
0000
0010
1000
0000
0001
0000
0100
0000
0001
0000
1000
0000
0100
0000
0001
0000
,
0100
0010
0001
2000
0000
3010
0010
1000
,
0001
0000
1001
0000
0000
0000
1000
0000
0010
0001
0010
0001
0010
0000
1001
0000
,
0000
0000
0001
0000
0100
1000
0100
1000
0100
0000
1001
0000
0000
0000
1000
0000
,
0010
0100
0010
0100
0010
0000
1000
0000
1000
0000
0001
0000
0001
0000
0100
0000
,
0020
0000
0000
0000
0000
0000
0030
1000
,
1000
0100
0001
0001
0100
1000
1000
0010
,
0100
0000
0100
0000
0001
0000
1001
0000
0000
0000
0001
0000
1000
0010
0100
0010
,
1000
0000
0001
0000
0010
0000
0100
0000
1000
0001
0010
0001
1000
0000
1001
0000
,
0000
0000
1000
0000
0010
0000
0100
0001
0100
0000
0001
0000
1000
0100
0010
0001
,
1000
0000
0010
0000
0100
0000
0100
0000
0001
1000
0001
0000
0100
0000
0010
1000
,
0010
0000
1000
0000
0001
0010
0100
1000
0001
0000
0100
0000
0010
0000
0010
0000
,
1000
0001
1000
0000
0100
0000
0010
0001
0010
0000
0100
0000
1000
0100
0010
0001
,
1000
0000
0001
0100
0001
0000
2000
0000
0000
0000
3000
0000
0000
0000
0000
0000
,
0000
2002
0000
0000
0000
3003
0000
0000
;

//---------------dance-single - ----------------
#NOTES:
     dance-single:
     :
     Beginner:
     1:
     0.077,0.096,0.086,0.000,0.000:
1000
0000
0000
0000
,
0000
0000
0000
0000
,
0000
0000
0000
0000
,
1001
0000
0000
0000
,
0000
0000
0001
0000
,
0000
0000
0000
0000
,
1000
0000
0000
0000
,
0000
0000
0001
0000
,
0000
0000
0000
0000
,
0100
0000
0000
0000
,
0000
0000
0010
0000
,
0000
0000
0000
0000
,
0100
0000
0000
0000
,
0000
0000
0001
0000
,
0000
0000
0000
0000
,
1001
0000
0000
1000
,
0000
0000
1000
0000
,
0000
0000
0000
0000
,
1001
0000
0000
0001
,
0000
0000
0001
0000
,
0000
0100
0000
0000
,
0110
0000
0000
0000
,
0000
0000
0000
0000
,
0000
0000
0000
0000
,
1001
0000
0000
0001
,
0000
0000
0001
0000
,
0000
0001
0000
0000
,
1001
0000
0000
1000
,
0000
0000
0001
0000
,
0000
1000
0000
0000
,
0000
1001
0000
0000
0000
0000
0000
0001
,
0000
0000
0000
0000
0000
1000
0000
0000
,
0000
0000
0000
0001
0000
0000
0000
0000
,
0000
0100
0000
0000
0000
0000
0000
0100
,
0000
0000
0000
0000
0000
0100
0000
0000
,
0000
0000
0000
0000
,
0000
1001
0000
0000
0000
0000
0000
1000
,
0000
0000
0000
0000
0000
0001
0000
0000
,
0000
0000
0000
1000
0000
0000
0000
0000
,
0000
0010
0000
0000
0000
0000
0000
0010
,
0000
0000
0000
0000
0000
0010
0000
0000
,
0000
0000
0000
0010
0000
0000
0000
0000
,
0000
0000
0000
0000
0000
0000
0000
1000
,
0000
0000
0000
0000
,
0000
0000
0000
1001
0000
0000
0000
0000
,
0000
0001
0000
0000
0000
0000
0000
1000
,
0000
0000
0000
0000
,
0000
0000
0000
0001
0000
0000
0000
0000
,
0000
0000
0000
0000
0000
0000
0000
0100
,
0000
0000
0000
0000
,
0000
0000
0000
0010
0000
0000
0000
0000
;
