#TITLE:迎撃のフォルテ;
#SUBTITLE:;
#ARTIST:めろでぃーリアン;
#TITLETRANSLIT:GEIGEKI NO FORTE;
#SUBTITLETRANSLIT:;
#ARTISTTRANSLIT:MELODY LIEN;
#CREDIT:DigiMindAxel;
#BANNER:GEIGEKI NO FORTE.png;
#BACKGROUND:GEIGEKI NO FORTE-bg.png;
#LYRICSPATH:GEIGEKI NO FORTE.lrc;
#CDTITLE:GITADORA.png;
#MUSIC:GEIGEKI NO FORTE.mp3;
#OFFSET:-3.832;
#SAMPLESTART:33.829;
#SAMPLELENGTH:12.000;
#SELECTABLE:YES;
#BPMS:0.000=195.000,225.000=97.500,237.000=195.000;
#STOPS:224.500=0.923
,277.500=1.538
;
#BGCHANGES:;

//---------------dance-single - ----------------
#NOTES:
     dance-single:
     :
     Easy:
     3:
     0.283,0.313,0.035,0.156,0.000:
0001
1000
0001
0000
,
1000
0000
0100
0000
,
0010
0001
0010
0000
,
0001
0000
1000
0000
,
0010
1000
0010
0000
,
1000
0000
0001
0000
,
0100
0010
0100
0010
,
0100
0010
0100
0000
,
0002
0000
0000
0000
,
1003
0000
0100
0000
,
2000
0000
0000
0000
,
3001
0000
0100
0000
,
0002
0000
0000
0000
,
1003
0000
0001
0000
,
0100
0000
0100
0000
,
0010
0000
0100
0000
,
0002
0000
0000
0000
,
0000
0000
1003
0001
,
2000
0000
0000
0000
,
0000
0000
3001
1000
,
0002
0000
0000
0000
,
0000
0000
0103
0000
,
0010
0100
0010
0000
,
1000
0001
1000
0001
,
1000
0000
0000
0000
,
0100
1000
0100
1000
,
0100
1000
0100
1000
,
0001
1000
0001
1000
,
0001
0000
0000
0000
,
0100
0001
0100
0001
,
0100
0001
0100
0001
,
1000
0001
1000
0000
,
0001
1000
0001
0000
,
0010
0001
0010
0001
,
0010
0001
1000
0100
,
0010
0001
0010
0100
,
1000
0001
1000
0000
,
0002
0000
0103
0000
,
0020
0000
0130
0000
,
0001
1000
0001
1000
,
0002
0000
0000
0000
0000
0003
0000
0000
,
1001
0000
0100
0000
,
1000
0000
0100
0000
,
0010
0000
0001
0000
,
0010
0000
0002
0000
,
1003
0000
0010
0000
,
1000
0000
0010
0000
,
0100
0000
0001
0000
,
0100
0000
0000
0000
,
0001
1000
0001
0000
,
0010
0001
0010
0000
,
0100
1000
0100
0000
,
1000
0001
1000
0000
,
0010
0100
0010
0100
,
0001
0010
0100
0000
,
1000
0001
1000
0001
,
1000
0020
0000
0230
,
0000
0310
0000
0000
,
0000
2000
0000
3002
,
0000
1003
0000
0001
,
0000
1000
0000
0001
,
0000
0010
0100
1000
,
0100
0010
0001
1000
,
0001
0010
0100
1000
,
0100
0010
0001
1000
,
0000
0020
0000
0130
,
0000
0002
0000
1003
,
0000
0100
1000
0100
,
1000
0001
0100
0010
,
0000
1001
0000
0000
,
1001
0010
0100
1000
,
0001
0100
0001
0000
,
1000
0100
0010
0001
,
1000
0010
1000
0000
,
0010
0100
0001
0010
,
0100
1000
0001
0000
,
1000
1000
0001
0001
,
1000
0000
1000
0000
0010
0000
0000
2002
,
0000
0000
0000
0000
,
0000
0000
0000
0000
,
3003
0000
0000
0000
;

//---------------dance-single - ----------------
#NOTES:
     dance-single:
     :
     Medium:
     6:
     0.450,0.522,0.113,0.174,0.000:
1000
0000
0100
0000
1000
0001
0000
0100
,
0000
0010
0000
0100
0000
0000
0000
0000
,
0001
0000
1000
0000
0010
1000
0000
0001
,
0000
0010
0000
0100
0000
0000
0000
0000
,
0010
0000
0001
0000
0010
0001
0000
0100
,
0000
0010
0000
0100
0000
0001
0000
0000
,
1000
0000
0100
0010
0000
0001
1000
0000
,
0100
0010
0000
0001
0100
0100
0000
0020
,
0000
0100
0000
0100
,
0000
0000
0130
0000
0000
0001
0000
0200
,
0000
0010
0000
0010
,
0000
0000
0310
0000
0000
1000
0000
0200
,
0000
0010
0000
0010
,
0000
0310
0001
1000
,
0010
0100
0010
0100
,
0001
0000
1000
0000
0001
1000
0000
0000
,
1001
0000
0010
0000
,
0100
0000
0010
0000
,
1000
0000
0100
0000
,
0010
0000
0001
0001
,
1000
0000
0010
0000
,
0100
0000
0001
0000
,
1000
0001
1000
0001
,
0010
0100
1000
0010
,
0110
0000
0000
0000
,
0001
1000
0001
1000
0001
1000
0001
0000
,
0010
0100
0010
0001
,
1000
0001
1000
0001
1000
0001
1000
0000
,
0010
0100
0010
0000
,
0100
0010
0100
0010
0100
0010
0100
0000
,
0001
0010
0100
1000
,
0010
1000
0001
0000
0010
0001
1000
0000
,
0010
1000
0001
0000
0010
0001
1000
0000
,
0010
0100
0010
0100
0010
0100
0010
0000
,
1000
0100
0010
0001
,
1000
0001
1000
0000
0001
1000
0001
0000
,
0010
0000
0100
0000
1000
0001
0000
0000
,
2000
0000
3010
0100
,
0002
0000
0103
0010
,
1000
0001
1000
0001
,
0100
0010
0100
0010
0000
0110
0000
0000
,
1002
0000
0000
0000
0013
0000
0100
0010
,
0000
0001
1000
0000
0010
0000
0010
0000
,
2001
0000
0000
0000
3100
0000
0010
0100
,
0000
1000
0001
0000
2000
0000
0000
0000
,
3002
0000
0000
0000
0013
0000
0100
1000
,
0000
0010
0100
0000
0001
0000
0001
0000
,
1001
0000
1000
0000
0001
0000
0010
0001
,
0000
0100
0000
0010
0000
0100
0000
0000
,
0001
1000
0001
1000
0001
1000
0001
0000
,
0010
0100
0010
0001
,
0100
0010
0100
0010
0100
0010
0100
0000
,
0001
1000
0001
0100
,
0010
1000
0010
1000
0010
1000
0010
0000
,
1000
0100
0010
0001
,
0100
0001
0100
0001
0100
0001
0100
0000
,
0001
0000
0000
0000
2000
3000
0000
0000
0002
0000
0000
0000
0000
0000
0000
0000
0000
0000
0000
0000
0000
0000
0000
0000
0023
0000
0000
0000
0000
0000
0000
0000
,
0000
0230
0000
2300
,
0000
3200
0000
0320
,
0000
0031
1001
1000
,
1001
0001
1001
1000
,
1001
0000
0100
1000
0100
1000
0100
1000
,
0100
0010
0100
1000
,
0010
0000
0100
0000
0001
1000
0000
0100
,
0010
0000
0001
1000
0001
0000
1000
0001
,
0000
0200
0000
0310
,
1000
0002
0100
0103
,
0010
0000
1000
0001
1000
0001
1000
0001
,
1000
0000
0010
0100
0010
0100
0000
0110
,
0000
1001
0000
0000
,
1000
0001
1000
0001
0100
0001
0000
1000
,
0000
0100
0000
0010
0000
0000
0000
0000
,
0001
1000
0001
1000
0100
1000
0000
0001
,
0000
0100
0000
0010
0000
0000
0100
0000
,
0010
0100
0010
0100
0001
1000
0000
0100
,
0000
0010
0000
0001
0000
1000
0000
0000
,
0001
0100
0001
1000
0001
0100
0001
1000
,
0100
0010
0001
0000
0100
0010
0000
2002
,
0000
0000
0000
0000
,
0000
0000
0000
0000
,
3003
0000
0000
0000
;

//---------------dance-single - ----------------
#NOTES:
     dance-single:
     :
     Hard:
     8:
     0.671,0.591,0.330,0.443,0.004: // measure 1
0001
0100
0001
0100
0010
1000
0000
0200
,  // measure 2
0000
0320
0000
0230
0000
1300
0001
0000
,  // measure 3
1000
0010
1000
0010
0100
0001
0000
0020
,  // measure 4
0000
0230
0000
0320
0000
0031
1000
0000
,  // measure 5
0100
0010
0100
0010
0001
1000
0000
0020
,  // measure 6
0000
0230
0000
0302
0000
0203
0000
0300
,  // measure 7
0001
0010
1000
0010
0001
0100
1000
0100
,  // measure 8
0001
1000
0000
1000
0010
0110
0000
2001
,  // measure 9
0000
0000
3010
0000
1000
0010
1000
0000
,  // measure 10
0001
0100
0001
0000
1000
0001
0000
0200
,  // measure 11
0000
0000
0310
0000
0100
0010
0100
0000
,  // measure 12
0001
1000
0001
0000
1000
0010
0000
0200
,  // measure 13
0000
0000
0310
0000
1000
0010
1000
0000
,  // measure 14
0001
0100
0001
0000
1000
0000
1001
0000
,  // measure 15
0100
0010
0001
0000
1000
0010
0100
0000
,  // measure 16
0001
0010
0100
1000
0010
0110
0000
0000
,  // measure 17
1001
0000
0101
0000
0100
0000
0010
1000
,  // measure 18
0000
0010
1000
0000
0001
1001
0000
0000
,  // measure 19
1001
0000
1100
0000
0100
0000
0010
0001
,  // measure 20
0000
0010
0001
0000
1000
0001
1000
0001
,  // measure 21
1001
0000
0011
0000
0010
0000
0100
1000
,  // measure 22
0000
0100
1000
0000
0010
0110
0000
0000
,  // measure 23
1001
0000
0100
0010
0001
0000
0100
0010
,  // measure 24
1000
0000
0010
0100
0001
0010
0100
1000
,  // measure 25
0001
0000
1000
1000
,  // measure 26
1000
0100
0001
0100
1000
0001
0010
0100
,  // measure 27
0000
0010
0001
1000
0010
0100
0010
0000
,  // measure 28
1000
0100
0010
0100
1000
0010
0100
0001
,  // measure 29
0000
0010
0100
1000
0001
0000
0001
0000
,  // measure 30
0001
0010
1000
0010
0001
1000
0010
0100
,  // measure 31
0010
1000
0000
0100
0010
0001
1000
0000
,  // measure 32
0010
0100
0101
0000
0100
0010
1010
0000
,  // measure 33
0010
0001
1001
0000
0100
1000
1001
0000
,  // measure 34
0001
0010
1000
0010
0001
1000
0100
0010
,  // measure 35
0000
0100
1000
0010
0100
0010
1000
0000
,  // measure 36
0100
0010
0001
0010
0100
0000
0010
0100
,  // measure 37
1000
0100
0010
0001
0100
0110
0000
0000
,  // measure 38
0102
0000
0000
1000
1003
0000
0110
0000
,  // measure 39
0200
0302
2003
3200
,  // measure 40
1300
0001
0010
0100
1000
0001
0010
0100
,  // measure 41
1000
0010
0100
0001
0000
1001
0000
0000
,  // measure 42
0100
0001
0000
0010
0100
0000
1000
0010
,  // measure 43
0000
0100
0001
0010
0100
1000
0001
0000
,  // measure 44
0010
0001
0000
0100
0010
0000
1000
0100
,  // measure 45
0000
0000
0010
0000
0100
0000
1000
0000
0010
0000
0000
0010
0000
0000
0010
0000
,  // measure 46
0100
0001
0000
1000
0100
0000
0010
0100
,  // measure 47
0000
1000
0001
0010
0100
1000
0010
0000
,  // measure 48
1001
0000
1000
0001
1000
0001
0100
0120
,  // measure 49
0000
1030
0000
0210
0000
0301
0000
0000
,  // measure 50
1000
0001
1000
0010
0100
0001
1000
0020
,  // measure 51
0000
0230
0000
0301
0010
0100
1000
0000
,  // measure 52
0001
1000
0001
0010
0100
1000
0001
0020
,  // measure 53
0000
0230
0000
1300
0010
0100
0001
0000
,  // measure 54
1000
0001
0010
1000
0010
0001
1000
0020
,  // measure 55
0000
0230
0000
0302
0000
1003
0100
0000
,  // measure 56
1000
0001
0100
1000
0100
0001
1000
0010
,  // measure 57
0100
0000
0000
0000
0220
0330
0000
0000
0020
0000
0000
0000
0000
0000
0000
0000
0100
0000
0000
0000
0000
0000
0000
0000
0100
0000
0000
0000
0000
0000
0000
0000
,  // measure 58
0130
0002
1000
1000
,  // measure 59
0000
0003
2000
0000
0001
0000
0001
0000
,  // measure 60
3001
0000
0100
0001
0011
0000
0100
1000
,  // measure 61
1010
0000
0100
0001
1001
0000
0010
1000
,  // measure 62
1001
0000
0001
0100
1000
0100
0001
1000
,  // measure 63
0010
0100
0010
1000
0000
0100
0010
0001
,  // measure 64
0100
0010
0100
0001
0010
0000
0100
1000
,  // measure 65
0010
0000
1000
0010
0100
0001
1000
1001
,  // measure 66
0000
0000
2010
0000
0000
0001
3001
0000
,  // measure 67
0110
0200
0320
0230
,  // measure 68
0320
0000
1030
0001
0010
0100
1000
0001
,  // measure 69
0010
0100
1000
0001
0100
0010
0000
0110
,  // measure 70
0000
0000
0000
0000
0000
0000
0000
0000
0000
0000
0000
0000
1001
0000
0000
0000
0000
0000
2002
3003
0000
0000
0000
0000
0000
0000
0000
0000
0000
0000
0000
0000
0000
0000
0000
0000
1001
0000
0000
0000
0000
0000
0000
0000
0000
0000
0000
0000
,  // measure 71
1000
0001
1000
0010
0100
0001
0000
2000
,  // measure 72
0000
3020
0000
0230
0000
0301
0010
0100
,  // measure 73
1000
0001
1000
0100
0010
0001
0000
2000
,  // measure 74
0000
3020
0000
0230
0000
0301
0100
0001
,  // measure 75
0010
0100
0010
0001
0100
0020
0000
2030
,  // measure 76
0000
3020
0000
0230
0000
0301
1000
0000
,  // measure 77
0001
0010
1000
0010
0001
0100
1000
0100
,  // measure 78
0001
0010
0100
1000
0001
0101
0000
2002
,  // measure 79
0000
0000
0000
0000
,  // measure 80
0000
0000
0000
0000
,  // measure 81
3003
0000
0000
0000
;

//---------------dance-single - ----------------
#NOTES:
     dance-single:
     :
     Beginner:
     2:
     0.118,0.169,0.096,0.000,0.000:
0001
0000
0000
0000
,
1000
0000
0000
0000
,
0001
0000
0000
0000
,
0001
0000
0000
0000
,
0110
0000
0000
0000
,
0100
0000
0000
0000
,
0010
0000
0000
0000
,
0000
0000
0000
0000
,
0000
1000
0000
0001
,
0000
1000
0000
0000
,
0000
0010
0000
0100
,
0000
0010
0000
0000
,
0000
1000
0000
0100
,
0000
0010
0000
0000
,
0001
0000
1000
0000
,
0001
0000
0000
0000
,
1001
0000
0000
0000
,
0000
0000
0000
0000
,
0110
0000
0000
0000
,
0000
0000
0000
0000
,
0110
0000
0000
0000
,
0000
0000
0000
0000
,
1001
0000
0000
0000
,
0000
0000
0000
0000
,
1000
0000
0000
0000
,
0001
0000
0000
0000
,
0010
0000
0000
0000
,
0100
0000
0000
0000
,
0010
0000
0000
0000
,
0001
0000
0000
0000
,
1000
0000
0000
0000
,
0100
0000
1000
0000
,
0100
0000
1000
0000
,
0010
0000
0000
0000
,
0100
0000
0000
0000
,
0001
0000
0000
0000
,
0100
0000
0000
0000
,
0001
0000
0000
0000
,
0001
0000
0000
0000
,
0001
0000
0000
0000
,
0000
0000
0000
0000
,
1001
0000
0000
0000
,
0000
0000
0000
0000
,
0100
0000
0000
0000
,
0000
0000
0000
0000
,
0110
0000
0000
0000
,
0000
0000
0000
0000
,
0010
0000
0000
0000
,
0000
0000
0000
0000
,
1000
0000
0100
0000
,
1000
0000
0000
0000
,
0100
0000
0010
0000
,
0100
0000
0000
0000
,
0010
0000
0001
0000
,
0010
0000
0000
0000
,
0001
0000
1000
0000
,
0001
0000
0000
0000
,
0000
0000
0000
0000
,
0000
0000
0000
0000
,
0000
1001
0000
0000
,
0000
1000
0000
0000
,
0000
0010
0000
0100
,
0000
0010
0000
0100
,
0000
0001
0000
1000
,
0000
0001
0000
0000
,
0000
1001
0000
0000
,
0000
1000
0000
0000
,
0000
0001
0000
0000
,
0000
0000
0000
0000
,
0000
0110
0000
0000
,
0100
0000
0010
0000
,
0100
0000
0010
0000
,
0100
0000
0001
0000
,
0100
0000
0001
0000
,
1000
0000
0010
0000
,
1000
0000
0010
0000
,
0100
0000
0000
0000
,
0000
0000
0000
0000
0000
0000
0000
0110
;
