#TITLE:Fly with me;
#SUBTITLE:;
#ARTIST:TAG;
#TITLETRANSLIT:;
#SUBTITLETRANSLIT:;
#ARTISTTRANSLIT:;
#CREDIT:DigiMindAxel;
#BANNER:Fly with me.png;
#BACKGROUND:Fly with me-bg.png;
#LYRICSPATH:;
#CDTITLE:GITADORA.png;
#MUSIC:Fly with me.mp3;
#OFFSET:-5.855;
#SAMPLESTART:24.838;
#SAMPLELENGTH:12.000;
#SELECTABLE:YES;
#BPMS:0.000=177.000;
#STOPS:;
#BGCHANGES:;

//---------------dance-single - ----------------
#NOTES:
     dance-single:
     :
     Easy:
     3:
     0.295,0.331,0.136,0.204,0.000:
1001
0000
0000
0000
,
0110
0000
0000
0000
,
1001
0000
0000
0000
,
0110
0000
0010
0000
,
0100
0010
0100
0000
,
0001
1000
0001
0000
,
1000
0100
1000
0000
,
0001
1000
0001
0000
,
0010
0001
0010
0000
,
0100
1000
0100
0000
,
1000
0001
1000
0000
,
0001
0100
0001
0000
,
1000
1000
1000
1000
,
2002
0000
0000
3003
,
0010
0100
0010
0000
,
1000
0100
0010
0000
,
0001
1000
0001
0000
,
0010
0100
1000
0000
,
0100
0010
0100
0000
,
1000
0000
0110
0000
,
0001
1000
0001
0000
,
0100
0001
0100
0000
,
0001
1000
0001
0000
,
0010
0001
0010
0000
,
0100
1000
0100
0000
,
1000
0001
1000
0000
,
1001
0010
0100
0000
,
1000
0000
1001
0000
,
0010
0100
0010
0100
,
0001
0001
1000
1000
,
0001
0010
0100
0000
,
0010
0001
0010
0000
,
0100
1000
0100
0000
,
1000
0100
0010
0000
,
0001
1000
0001
1000
,
0010
0100
0010
0100
,
0001
1000
0001
1000
,
0100
0010
0001
1000
,
0020
0000
0100
0000
,
0100
0000
0130
0000
,
0002
0000
1000
0000
,
1003
0000
0000
0000
,
0001
0100
0000
0001
,
0100
0000
0010
0000
,
1000
0001
1000
0000
,
0100
0010
0001
0000
,
1000
0100
0000
0000
,
1000
0100
1000
0100
,
1000
0001
1000
0001
,
0010
0100
1000
0000
,
0010
0100
0000
0010
,
0100
0000
0001
0000
,
0010
0100
1000
0100
,
0010
0001
1000
0000
,
0010
0100
0010
1000
,
0010
0000
0100
0010
,
0100
0001
0100
0001
,
1000
0100
0010
0000
,
0002
0000
1000
0000
,
1003
0000
0020
0000
,
0130
0000
0002
0000
,
1003
0000
0001
0000
,
1000
0100
0010
0000
,
0100
0000
1000
0000
,
0010
0100
0001
0100
,
0010
0100
0001
0000
,
2002
0000
0000
3003
,
0220
0000
0000
0330
,
2002
0000
0000
3003
,
0220
0000
0000
0330
,
2002
0000
0000
3003
,
0220
0000
0000
0330
,
2002
0000
0000
3003
,
0220
0000
0000
0330
,
0002
0000
1000
0000
,
1000
0000
1000
0000
,
1000
0000
1000
0000
,
1000
0000
1000
0000
,
0003
0000
0000
0000
;

//---------------dance-single - ----------------
#NOTES:
     dance-single:
     :
     Medium:
     6:
     0.359,0.398,0.161,0.255,0.140:
2002
0000
0000
3003
,
2200
0000
0000
3300
,
2002
0000
0000
3003
,
0202
0000
0000
0303
,
0001
0001
0010
0010
,
0001
0001
0010
0010
,
0001
0001
1000
1000
,
0100
0100
0010
0100
,
1000
1000
0010
0010
,
0100
0100
0001
0001
,
0100
0100
0010
0010
,
1000
1000
0001
1000
,
0002
1000
1000
1003
,
0010
0000
0100
0000
0010
0000
0100
0000
0001
0000
1000
0000
,
0001
0010
0100
1000
,
0010
0000
0000
0000
0000
0110
0000
0000
0000
0000
0000
0000
,
0001
1000
0100
0010
,
0001
0000
0000
0000
0000
0110
0000
0000
0000
0001
0000
0000
,
1000
0001
0010
0100
,
1000
0000
0000
0000
0000
1001
0000
0000
0000
0010
0000
0000
,
0010
0100
0010
1000
,
0001
0000
1000
0001
0000
0100
0000
0000
0000
0000
0000
0000
,
0001
1000
0001
1000
,
0100
0000
0000
0000
0000
0110
0000
0000
0000
0000
0000
0000
,
1000
0100
0010
0001
,
0100
0000
0000
0000
0000
0110
0000
0000
0000
0000
0000
0000
,
1001
0100
0010
0001
,
1000
0000
0001
1000
0000
0010
0000
0000
0000
0100
0000
0000
,
0100
0000
0000
0001
0000
0000
1000
0000
0001
0000
1000
0000
,
0001
0000
0000
0100
0000
0010
0000
0000
0000
0000
0000
0000
,
1001
0000
0000
0100
0000
0000
0010
0000
0000
0001
0000
0100
,
0000
0000
0001
0001
,
1000
0000
0000
0001
0000
0000
0100
0000
0010
0000
0100
0000
,
0010
0000
0000
1000
0000
0001
0000
0000
0000
0000
0000
0000
,
1001
0010
0100
1000
,
0110
0001
0100
0010
,
1001
0100
0010
0001
,
1000
0000
0010
1000
0000
0000
0001
0000
0000
0001
0000
0000
,
0020
0000
0100
0000
,
0100
0000
0130
0000
,
2000
0000
0100
0000
,
3100
1000
0001
0000
,
1000
0000
0000
0100
0000
0010
0000
0000
0000
0001
0000
0000
,
0100
0000
0010
0000
0000
0000
0100
0000
0000
0000
0000
0000
,
0001
0010
0100
1000
,
0100
0010
0001
0000
,
1000
0000
0000
0010
0000
0100
0000
0000
0000
0000
0000
0000
,
0001
0001
1000
1000
,
0001
0000
0000
0100
0000
0010
0000
0000
0000
1000
0000
0000
,
0110
0000
0000
0000
0000
0110
0000
0000
0000
0000
0000
0000
,
0001
0000
0000
0010
0000
0100
0000
0000
0000
1000
0000
0000
,
0010
0000
0100
0000
0000
0000
0001
0000
0000
0001
0000
0000
,
1000
0010
0100
0001
,
0100
0010
1000
0000
,
1001
0000
0000
0000
0000
0000
1000
0000
0000
0001
0000
0100
,
0000
0001
0001
1000
,
1000
0100
0010
0001
,
0010
0000
0000
0100
0000
0000
1000
0000
0001
0000
0000
0000
,
0200
0000
0001
0000
,
0301
0000
2000
0000
,
0100
0000
0100
0000
,
3100
0000
0010
0000
,
0001
0000
0000
0100
0000
0010
0000
0000
0000
0100
0000
0010
,
0000
0000
0000
0100
0000
0010
0000
0000
0000
0000
0000
0000
,
1001
0100
0010
0001
,
0100
0010
1000
0000
,
1200
0000
0320
0000
,
0032
0000
0203
0000
,
0320
0000
2030
0000
,
3200
0000
0320
0000
,
0032
0000
2003
0000
,
3002
0000
0203
0000
,
0320
0000
2030
0000
,
3200
0000
0320
0000
,
0032
0000
1000
0000
,
1000
0000
1000
0000
,
1000
0000
1000
0000
,
1000
0000
1000
0000
,
0003
0000
0000
0000
;

//---------------dance-single - ----------------
#NOTES:
     dance-single:
     :
     Hard:
     8:
     0.601,0.596,0.272,0.527,0.693: // measure 1
0012
0000
0203
0000
,  // measure 2
0320
0000
2030
0000
,  // measure 3
3200
0000
0320
0000
,  // measure 4
0032
0000
0000
0000
0000
0000
1003
0000
0010
0100
0000
0000
,  // measure 5
0001
0000
0001
0010
0000
0000
0100
0000
0100
0010
0000
0000
,  // measure 6
0001
0000
0001
0010
0000
0000
0100
0000
0100
0010
0000
0000
,  // measure 7
0100
0000
0100
1000
0000
0000
0100
0000
0100
0010
0000
0000
,  // measure 8
0001
0000
0001
0100
0000
0000
0010
1000
0010
0100
0000
0000
,  // measure 9
0001
0000
0001
1000
0000
0000
0100
0000
0100
1000
0000
0000
,  // measure 10
0100
0000
0100
0010
0000
0000
0001
0000
0001
0010
0000
0000
,  // measure 11
0001
0000
0001
1000
0000
0000
0010
0000
0010
1000
0000
0000
,  // measure 12
0001
0000
0001
0100
0000
0000
0010
0100
0010
1000
0000
0000
,  // measure 13
0100
0000
0100
0010
0000
0010
0100
0000
0100
0010
0000
0010
,  // measure 14
0001
0000
0001
0000
0100
0000
1000
0000
0100
0000
0001
0000
,  // measure 15
1001
0000
0000
1000
0000
0100
0010
0000
0100
0000
0000
2000
,  // measure 16
0000
0000
3010
0000
0000
1001
0000
0000
0000
0001
0000
0100
,  // measure 17
0010
0000
0100
0010
0000
0200
0000
0000
0000
0301
0000
0010
,  // measure 18
0100
0000
1000
0000
0000
1001
0000
0000
0000
0110
0000
0000
,  // measure 19
0110
0000
0001
0100
0000
0020
0000
0000
0000
1030
0000
0100
,  // measure 20
0010
0000
0010
0100
0000
1001
0000
0000
0000
0001
0000
0010
,  // measure 21
0100
0000
0010
0200
0000
0000
0320
0000
0000
0032
0000
0000
,  // measure 22
1003
0000
0100
0010
0000
0002
0000
0000
0000
0000
0000
0000
,  // measure 23
1003
0000
0010
0100
0000
0001
0010
0000
0100
0000
0000
0020
,  // measure 24
0000
0000
0031
0000
0000
1001
0000
0000
0000
0001
0000
0100
,  // measure 25
0010
0000
0100
0010
0000
2000
0000
0000
0000
3001
0000
0100
,  // measure 26
0001
0000
1000
0000
0000
2002
0000
0000
0000
3003
0000
0000
,  // measure 27
0110
0000
0010
1000
0000
0200
0000
0000
0000
0310
0000
0000
,  // measure 28
0100
0000
1000
0010
0000
0110
0000
0000
0000
0001
0000
1000
,  // measure 29
0002
0000
0000
0013
0000
0000
0100
0000
1000
0000
0100
0000
,  // measure 30
0010
0000
0000
0002
0000
2000
0000
0000
0000
3003
0000
0000
,  // measure 31
0210
0000
0000
0001
0000
0000
0310
0000
0001
1000
0000
0020
,  // measure 32
0000
0000
0000
0130
0000
0001
1000
0000
0100
0000
0000
1000
,  // measure 33
0020
0000
0000
0100
0000
0000
0130
0000
0001
0000
0010
0000
,  // measure 34
0100
0000
0000
2000
0000
0002
0000
0000
0000
3003
0000
0000
,  // measure 35
1001
0000
1000
0001
0000
0100
0000
0000
0100
0000
0000
0000
,  // measure 36
1001
0000
0001
1000
0000
0010
0000
0000
0010
0000
0000
0000
,  // measure 37
1001
0000
0001
1000
0000
1000
0001
0000
0000
1000
0000
0000
,  // measure 38
0100
1000
0100
0010
0000
0000
0001
0100
0001
1000
0000
0000
,  // measure 39
0020
0000
0000
1000
0000
2030
0000
0000
0000
0001
0000
0000
,  // measure 40
0001
0100
0100
3001
,  // measure 41
2000
0001
0001
0100
,  // measure 42
3100
0000
1000
0001
0000
0200
0000
0000
0000
0310
0000
0000
,  // measure 43
1000
0000
0001
0100
0000
0001
0000
0000
0000
1000
0000
0001
,  // measure 44
0100
0000
0001
0000
0000
1000
0001
0000
1000
0000
0000
0001
,  // measure 45
1000
0000
0100
1000
0000
0002
0000
0000
1003
0000
0000
0001
,  // measure 46
1000
0000
0100
1000
0000
0002
0000
0000
0000
1003
0000
0010
,  // measure 47
0100
0000
0020
0000
0000
2030
0000
0000
0000
3001
0000
0000
,  // measure 48
1000
1100
0001
0011
,  // measure 49
1000
0000
0001
0100
0000
0002
0000
0000
0000
1003
0000
0010
,  // measure 50
0100
0000
0010
0000
0000
2002
0000
0000
0000
3003
0000
0000
,  // measure 51
1000
0000
0001
0010
0000
0001
0000
0000
0000
1000
0000
0001
,  // measure 52
0010
0000
0001
0000
0000
1000
0001
0000
1000
0000
0000
0000
,  // measure 53
0001
0000
1000
0010
0000
1000
0000
0000
0100
0010
0000
0100
,  // measure 54
0010
0000
0000
0002
0000
0200
0000
0000
0000
0303
0000
0000
,  // measure 55
0220
0000
0000
0030
0000
0000
0301
0000
0001
1000
0000
1000
,  // measure 56
0001
0010
0011
0100
,  // measure 57
1100
0000
0000
1000
0000
0002
0000
0000
0000
1003
0000
0000
,  // measure 58
1010
0000
0000
0001
0000
0000
0101
0000
0110
0000
0000
0000
,  // measure 59
0002
1000
0000
0100
,  // measure 60
0000
1003
0001
0010
,  // measure 61
0002
0000
0000
0000
0000
0000
1003
0000
0010
0000
0100
0000
,  // measure 62
0002
0000
0000
1000
0000
0000
1003
0000
0001
0000
0000
0000
,  // measure 63
0110
0000
0001
0100
0000
1010
0000
0000
0001
0100
0000
1010
,  // measure 64
0000
0000
0100
0010
0000
0001
0000
0000
1000
0000
0000
0001
,  // measure 65
1000
0000
0000
0010
0000
0100
0010
0000
0000
0100
0000
0010
,  // measure 66
0100
0000
0000
0010
0000
1000
0001
1000
0001
1000
0000
0000
,  // measure 67
1001
0000
1000
0010
0000
0000
1000
0000
1000
0010
0000
0000
,  // measure 68
1001
0000
0001
0010
0000
0000
0001
0000
0001
0010
0000
0000
,  // measure 69
1001
0000
1000
0100
0000
0000
1000
0000
1000
0100
0000
0000
,  // measure 70
1001
0000
0001
0100
0000
0000
0001
0100
0001
1000
0100
1000
,  // measure 71
0100
0000
1000
0001
0000
0000
0100
0000
0001
1000
0000
0000
,  // measure 72
0010
0000
0100
0001
0000
0000
0010
0000
0001
0100
0000
0000
,  // measure 73
0010
0000
1000
0100
0000
0000
0010
0000
0100
1000
0000
0000
,  // measure 74
0010
0000
0000
0110
0000
0000
0100
0010
0100
0010
0001
1000
,  // measure 75
0002
0203
0302
0203
,  // measure 76
2300
3200
2300
3200
,  // measure 77
0302
2003
3002
2003
,  // measure 78
3200
0000
0000
0320
0000
0000
0032
0000
0000
2003
0000
3000
;

//---------------dance-single - ----------------
#NOTES:
     dance-single:
     :
     Challenge:
     9:
     0.759,0.828,0.306,0.306,1.000:
0102
0000
0000
0010
0000
0000
0100
0000
0000
0013
0000
0001
,
2000
0000
0000
0100
0000
0000
0010
0000
0000
3100
0000
1000
,
0002
0000
0000
0010
0000
0000
0100
0000
0000
0013
0000
0001
,
2000
0000
0000
0001
0000
0000
3001
0010
0100
1000
0000
0000
,
0001
1000
0100
1000
0000
0000
0001
0100
0010
0100
0000
0000
,
0001
1000
0100
1000
0000
0000
0001
0100
0010
0100
0000
0000
,
0001
0010
0100
0010
0000
0000
0001
1000
0010
1000
0000
0000
,
0001
0010
0100
0010
0000
0000
0001
1000
0010
1000
0000
0000
,
0100
0010
0001
1000
0000
0000
0010
0100
0001
1000
0000
0000
,
0100
0010
0001
1000
0000
0000
0010
0100
0001
1000
0000
0000
,
0100
0010
0100
1000
0000
0000
0010
0100
0010
1000
0000
0000
,
0100
0010
0100
1000
0000
0000
0010
0100
0010
1000
0100
0010
,
0001
0100
0001
0100
0001
0100
0001
1000
0100
1000
0100
1000
,
0100
0000
1100
0000
0110
0000
0110
0000
0011
0000
0011
0000
,
1001
0000
0100
1000
0000
0100
0010
0000
0100
0010
0000
0002
,
0000
0000
0103
0000
0000
1001
0000
0000
0100
0010
0000
0001
,
0010
0000
0100
0010
0000
0200
0000
0000
0000
1300
0000
0010
,
0100
0000
1000
0001
0000
1001
0000
0000
0100
0010
0000
0100
,
0010
0000
0001
0100
0000
0020
0000
0000
0000
1030
0000
0001
,
0010
0100
0010
0001
0000
1001
0000
0000
1000
0001
0000
1000
,
0001
0000
0010
0100
0000
0000
1100
0000
0000
0011
0000
0000
,
0001
0000
0100
0010
0000
1000
0100
0010
0100
1000
0000
0000
,
1001
0000
0100
0001
0000
0100
0001
0000
0010
0100
0000
2000
,
0000
0000
3010
0000
0000
1001
0000
0000
0010
0100
0000
0010
,
0100
0000
1000
0010
0000
2000
0000
0000
0000
3001
0000
1000
,
0010
0000
0100
0000
0000
1001
0000
0000
0100
0010
0000
0100
,
0010
0000
1000
0100
0000
0020
0000
0000
0000
0130
0000
1000
,
0100
0010
0001
1000
0000
1001
0000
0000
0010
0100
0000
0010
,
0200
0000
0000
0301
0000
0000
1010
0000
0010
0000
0101
0000
,
0100
0010
0100
0001
0000
0010
0100
1000
0100
1000
0000
0000
,
0120
0000
0000
1030
0000
0001
0010
0000
0001
1000
0000
0020
,
0000
0000
0000
0130
0000
0001
1000
0000
0100
0000
0000
1000
,
0002
0000
0000
0103
0000
0000
0101
0000
0010
0000
1010
0000
,
0100
0010
0100
1000
0000
0001
0100
0010
0200
0000
0000
0000
,
0310
0000
0100
0010
0000
1000
0000
0000
0100
0010
0000
0010
,
0100
0000
0010
0100
0000
0001
0000
0000
0010
0100
0000
1000
,
0001
0000
1000
0001
0000
0010
0100
0000
0000
2000
0000
0000
,
3001
0100
0001
1000
0000
0000
0100
0010
0001
1000
0000
0000
,
1001
0000
0000
1000
0000
1000
0100
0000
0000
0010
0000
0010
,
0100
0000
0000
1000
0000
1000
0001
0000
0000
0010
0000
0010
,
0100
0000
0000
0010
0000
0010
0001
0000
0000
1000
0000
1000
,
0010
0000
0100
0001
0000
1000
0000
0000
0000
1001
0000
0000
,
0001
0000
0001
0100
0000
1000
0100
0000
0000
0001
0000
0001
,
0100
0000
1000
0100
0000
0001
1000
0000
1000
0001
0000
0000
,
1000
0000
1000
0100
0000
0001
0100
0000
1000
0000
0000
0001
,
1000
0000
1000
0100
0000
0001
0100
0000
0000
1000
0000
0100
,
0010
0000
0002
0000
0000
0203
0000
0000
0310
1000
0000
0001
,
0010
0110
1000
1001
,
1000
0000
1000
0100
0000
0001
0100
0000
0000
1000
0000
0010
,
0100
0000
0010
0000
0000
2002
0000
0000
0000
3003
0000
0000
,
1000
0000
1000
0100
0000
0001
0100
0000
0000
1000
0000
1000
,
0100
0000
0001
0100
0000
1000
0001
0000
0001
1000
0000
0000
,
0010
0000
0100
0001
0000
0010
0100
0000
1000
0010
0000
0100
,
0002
0000
0000
1003
0000
0100
1000
0010
0100
0010
0000
0000
,
0220
0000
0000
0030
0000
0000
0301
0000
0001
1000
0000
1000
,
0001
1000
0110
0001
,
1001
0000
0000
1000
0000
0002
0000
0000
0000
1003
0000
0000
,
0001
0100
0010
1000
0000
0000
1001
0000
0101
0000
0000
0000
,
0002
0000
0000
1003
0000
0001
0100
0000
0001
0100
0000
0001
,
2000
0000
0000
3000
0000
0100
0010
0000
0000
0010
0000
0000
,
0002
0000
0000
0000
0000
0000
1003
0000
0010
0000
0100
0000
,
0002
0000
0000
1000
0000
0000
1003
0010
1000
0001
0000
0000
,
1001
0000
0010
0100
0000
0101
0000
0000
0100
0010
0000
1010
,
0000
0000
0010
0100
0000
0101
0000
0000
1010
0000
0000
0100
,
0010
0000
1000
0001
0000
0001
2000
0000
0000
0100
0000
0000
,
3100
1000
0010
0100
0000
0001
1000
0010
1000
0001
0000
0000
,
1000
0100
1000
0001
0100
0001
1000
0100
1000
0001
0100
0001
,
1000
0100
0010
0001
0010
0100
1000
0100
0010
0001
0010
0100
,
1000
0010
1000
0001
1000
0010
1000
0001
1000
0010
1000
0001
,
1000
0010
0100
0001
0100
0010
1000
0010
0100
0001
0100
0001
,
1000
0100
0010
0100
1000
0100
0010
0100
1000
0100
0010
0100
,
1000
0001
0100
0010
0100
0001
0100
0010
0100
0001
0100
0010
,
1000
0001
0010
0100
1000
0100
0010
0001
0010
0100
1000
0100
,
0010
0001
0100
0010
1000
0010
0100
0010
0100
0010
0001
1000
,
0001
0000
0001
0200
0000
0000
0310
0000
0010
2000
0000
0000
,
3100
0000
0100
0020
0000
0000
0031
0000
0001
2000
0000
0000
,
3100
0000
0100
0020
0000
0000
0031
0000
0001
2000
0000
0000
,
3001
0000
0001
0200
0000
0000
0310
0000
0010
1000
0100
0010
;

//---------------dance-single - ----------------
#NOTES:
     dance-single:
     :
     Beginner:
     1:
     0.096,0.126,0.119,0.000,0.000:
1001
0000
0000
0000
,
0100
0000
0000
0000
,
0100
0000
0000
0000
,
0100
0000
0000
0000
,
0010
0000
0000
0000
,
0100
0000
0000
0000
,
0010
0000
0000
0000
,
0100
0000
0000
0000
,
0001
0000
0000
0000
,
1000
0000
0000
0000
,
0001
0000
0000
0000
,
1000
0000
0000
0000
,
0010
0000
0000
0000
,
0000
0000
0000
0000
,
1001
0000
0000
0000
,
0001
0000
0000
0000
,
1000
0000
0000
0000
,
0001
0000
0000
0000
,
1000
0000
0000
0000
,
0100
0000
0000
0000
,
0010
0000
0000
0000
,
0100
0000
0000
0000
,
1001
0000
0000
0000
,
1000
0000
0000
0000
,
0001
0000
0000
0000
,
1000
0000
0000
0000
,
0010
0000
0000
0000
,
0100
0000
0000
0000
,
0001
0000
0000
0000
,
0001
0000
0000
0000
,
1001
0000
0000
0000
,
0001
0000
0000
0000
,
0010
0000
0000
0000
,
0100
0000
0000
0000
,
0010
0000
0000
0000
,
0100
0000
0000
0000
,
0010
0000
0000
0000
,
0001
0000
0000
0000
,
1001
0000
0000
0000
,
0000
0000
0000
0000
,
1000
0000
0000
0000
,
0000
0000
0000
0000
,
1001
0000
0000
0000
,
0000
0000
0000
0000
,
0010
0000
0000
0000
,
0000
0000
0000
0000
,
0110
0000
0000
0000
,
0100
0000
0000
0000
,
0001
0000
0000
0000
,
1000
0000
0000
0000
,
1001
0000
0000
0000
,
0000
0000
0000
0000
,
0001
0000
0000
0000
,
0100
0000
0000
0000
,
0110
0000
0000
0000
,
0010
0000
0000
0000
,
1000
0000
0000
0000
,
0001
0000
0000
0000
,
1001
0000
0000
0000
,
0000
0000
0000
0000
,
1000
0000
0000
0000
,
0000
0000
0000
0000
,
1001
0000
0000
0000
,
0000
0000
0000
0000
,
0010
0000
0000
0000
,
0000
0000
0000
0000
,
0110
0000
0000
0000
,
0100
0000
0000
0000
,
0100
0000
0000
0000
,
0100
0000
0000
0000
,
1001
0000
0000
0000
,
0001
0000
0000
0000
,
0001
0000
0000
0000
,
0001
0000
0000
0000
,
0110
0000
0000
0000
;
