#TITLE:Fat snail;
#SUBTITLE:;
#ARTIST:NECOMATA MODIFY SALVATION feat. シシドヒナタ;
#TITLETRANSLIT:;
#SUBTITLETRANSLIT:;
#ARTISTTRANSLIT:NECOMATA MODIFY SALVATION feat. SHISHIDO HINATA;
#CREDIT:DigiMindAxel;
#BANNER:Fat snail.png;
#BACKGROUND:Fat snail-bg.png;
#LYRICSPATH:Fat snail.lrc;
#CDTITLE:GITADORA.png;
#MUSIC:Fat snail.mp3;
#OFFSET:-5.615;
#SAMPLESTART:58.052;
#SAMPLELENGTH:12.000;
#SELECTABLE:YES;
#BPMS:0.000=185.000;
#STOPS:223.000=0.649
;
#BGCHANGES:;

//---------------dance-single - ----------------
#NOTES:
     dance-single:
     :
     Easy:
     4:
     0.334,0.340,0.057,0.152,0.000:
1000
0100
1000
0100
,
1000
0001
1000
0001
,
1000
0100
1000
0100
,
1000
0001
0100
0010
,
1000
0001
1000
0001
,
0100
0001
0100
0001
,
1000
0001
1000
0001
,
0100
0010
0110
0000
,
1001
0000
0020
0000
,
0031
0000
0100
0010
,
0200
0000
0301
0000
,
1000
0001
1000
0001
,
0100
0000
0020
0000
,
1030
0000
0001
1000
,
0002
0000
1003
0000
,
0010
0100
0010
0000
,
1000
0001
1000
0001
,
1000
0100
1000
0100
,
1000
0001
1000
0001
,
0010
0001
0010
0001
,
1000
0010
0100
0000
,
0010
0100
0001
1000
,
0001
1000
0001
1000
,
0010
0100
0010
0100
,
0020
0000
0000
0000
0000
0000
0000
0130
,
0000
0000
0001
1000
,
0002
0000
0000
0000
0000
0000
0000
1003
,
0000
0000
0010
0100
,
0001
1000
0001
0000
,
1000
0001
1000
0000
,
0100
1000
0100
0000
,
0010
0001
0010
0000
,
0002
0000
0000
0000
0000
0000
0000
1003
,
0000
0000
0010
0100
,
0020
0000
0000
0000
0000
0000
0000
0130
,
0000
0000
0001
1000
,
0001
0100
0001
0000
,
1000
0010
1000
0000
,
0001
0010
0001
0000
,
1000
0100
1000
0000
,
0000
0000
1001
0010
,
0100
1000
0001
1000
,
0001
1000
0100
0010
,
0001
1000
0001
1000
,
0001
0100
0010
0100
,
0001
0100
0010
0100
,
0001
0010
0100
1000
,
0001
1000
0001
1000
,
0100
0000
1000
0001
,
1000
0100
0010
0001
,
1000
0001
1000
0001
,
0010
0100
1000
0001
,
1000
0100
1000
0100
,
1000
0001
1000
0001
,
1000
0010
0100
0010
,
1000
0100
0010
0000
,
1001
0010
0100
1000
,
0001
0100
0001
0100
,
0001
1000
0001
1000
,
0100
0010
0001
0010
,
0100
0100
0100
1001
,
0010
0100
0010
0100
,
0001
1000
0001
1000
,
0100
0010
0001
0010
,
0200
0000
0000
0000
,
0320
0000
0000
0000
,
0230
0000
0000
0000
,
0320
0000
0000
0000
,
0032
0000
0000
0000
,
2003
0000
0000
0000
,
3002
0000
0000
0000
,
2003
0000
3001
1001
;

//---------------dance-single - ----------------
#NOTES:
     dance-single:
     :
     Medium:
     7:
     0.518,0.511,0.227,0.114,0.000:
0001
0010
0100
0010
,
0001
0100
0010
0100
,
0001
0010
0100
0010
,
0001
1000
0001
0000
1000
0001
1000
0000
,
0010
0100
0010
1000
,
0100
0010
0100
1000
,
0010
0100
0010
1000
,
0100
0010
0001
0000
1000
1000
0000
0000
,
1002
0000
0203
0000
,
0310
0000
1000
0100
,
0010
0001
0010
0100
,
1000
0001
1000
0100
,
2001
0000
3020
0000
,
0130
0000
0001
1000
,
0001
0010
0100
1000
,
0001
0000
1000
0001
1000
0001
0100
0000
,
0001
0100
0001
0000
0010
0000
0100
0000
,
1000
0001
1000
0000
0100
0000
0010
0000
,
0001
1000
0001
0000
1000
0000
0100
0000
,
0010
0001
0010
0000
0100
1000
0100
0000
,
1001
0000
0010
0000
0100
0000
1000
0001
,
0100
0000
0010
0000
0100
0010
0100
0000
,
0001
0000
1000
0000
0100
1000
0100
0000
,
1000
0001
1000
0001
1000
0001
1000
0000
,
0110
0000
0100
0000
0100
0000
0000
2002
,
0000
3003
1000
0001
,
0110
0000
0010
0000
0010
0000
0000
2002
,
0000
3003
1000
0001
,
1000
0100
1000
0000
0001
0100
0001
0000
,
1000
0010
1000
0000
0001
0010
0001
0000
,
0100
0010
0100
0000
0010
0100
0010
0000
,
1000
0001
1000
0000
0001
1000
0001
0000
,
0110
0000
0100
0000
0100
0000
0000
2002
,
0000
3003
0001
1000
,
0110
0000
0010
0000
0010
0000
0000
2002
,
0000
3003
1000
0001
,
1000
0010
1000
0000
0001
0010
0001
0000
,
1000
0100
1000
0000
0001
0100
0001
0000
,
1000
0001
1000
0000
0010
0100
0010
0000
,
1000
0001
1000
0001
0100
0010
0100
0100
,
0000
0000
0101
0100
,
0110
0000
0001
0010
0100
1000
0001
0000
,
1000
0001
1010
0010
,
0110
0000
1000
0100
0010
0001
1000
0000
,
0001
0000
1000
0000
0010
0100
0010
0000
,
1000
0100
1000
0000
0001
0010
0001
0000
,
0100
0010
0100
0000
0001
1000
0001
0000
,
0010
0100
0010
0000
1001
0000
1000
0000
,
1001
0000
0011
0010
,
0110
0000
1000
0100
0010
0001
1000
0000
,
0001
1000
1100
0100
,
0110
0000
0001
0010
0100
1000
0001
0000
,
1000
0000
0001
0000
1000
0100
1000
0000
,
0001
0010
0001
0000
1000
0010
1000
0000
,
0001
0100
0001
0000
0100
0000
0110
0000
,
0010
0000
0110
0000
1000
0001
0100
0000
,
0001
0100
0001
0100
0001
0100
0001
0000
,
1000
0100
1000
0100
1000
0100
1000
0000
,
0010
0100
0010
0100
0010
0100
0010
0000
,
1000
0001
0100
0000
0001
1000
0100
0000
,
0010
0010
0010
1001
,
0001
1000
0001
1000
0001
0100
0001
0000
,
1000
0001
1000
0001
1000
0100
1000
0000
,
0010
0100
0010
0100
0010
1000
0001
0000
,
0010
0010
0010
0010
,
0100
0100
0100
0100
,
1000
1000
1000
1000
,
0000
0001
0100
0001
0100
0000
0100
0000
,
0010
0010
0010
0010
,
1000
1000
1000
1000
,
0001
0001
0001
0001
,
0100
0000
0100
0000
0100
0001
0010
0100
;

//---------------dance-single - ----------------
#NOTES:
     dance-single:
     :
     Hard:
     9:
     0.698,0.647,0.208,0.161,0.114: // measure 1
1000
0100
1000
0100
0010
0100
1000
0000
,  // measure 2
0010
0100
0010
0100
0001
0010
0100
0000
,  // measure 3
0010
0001
0100
0010
0100
0001
0010
0000
,  // measure 4
0001
0010
1000
0010
0001
0010
0100
0000
,  // measure 5
1000
0010
1000
0010
0100
0001
1000
0000
,  // measure 6
1000
0100
0010
0001
1000
0100
1000
0000
,  // measure 7
1000
0001
0010
0100
1000
0001
0100
0000
,  // measure 8
0100
0000
0001
1000
0001
1000
0001
1000
0001
0000
0101
0000
0000
0000
0000
0000
,  // measure 9
1001
0010
0200
1000
,  // measure 10
0310
0000
1000
0000
0001
1000
0001
0000
,  // measure 11
0010
1000
0010
0001
,  // measure 12
0100
0000
0010
0000
0100
0000
0000
0000
0001
0000
1000
0010
1000
0000
0001
0100
,  // measure 13
0001
0010
0200
0010
,  // measure 14
0301
0000
1000
0000
0001
1000
0001
0000
,  // measure 15
0010
1000
0010
0001
,  // measure 16
1000
0000
0100
0010
0100
0010
0001
0000
,  // measure 17
1000
0010
1000
0010
0100
0001
0100
0001
,  // measure 18
1000
0001
1000
0001
0010
0100
0010
0100
,  // measure 19
1000
0001
1000
0001
0010
0001
0010
0100
,  // measure 20
1000
0100
1000
0010
0100
0010
0100
0001
,  // measure 21
1000
0000
0100
0010
0001
1000
0001
1000
,  // measure 22
0001
0010
0100
0010
0100
1000
0010
1000
,  // measure 23
0010
0100
0001
0100
0001
1000
0001
1000
,  // measure 24
0001
0010
0100
1000
0100
0010
0001
0100
,  // measure 25
0101
0000
0010
1000
0000
1000
0010
0220
,  // measure 26
0000
0330
1000
1000
,  // measure 27
1100
0000
0100
1000
0000
1000
0010
0220
,  // measure 28
0000
0330
0001
0001
,  // measure 29
0001
0010
0100
0010
0001
0100
0001
0000
,  // measure 30
0010
0100
1000
0100
0010
0001
1000
0000
,  // measure 31
0010
0000
0100
0000
0001
0000
0100
0000
0001
1000
0001
0000
0100
0000
0000
0000
,  // measure 32
0001
0000
0100
0000
1000
0000
0100
0000
0001
0000
1000
0010
1000
0000
0001
0100
,  // measure 33
0001
0000
0010
0100
0000
1000
0010
0220
,  // measure 34
0000
0000
0330
0000
1000
0010
0100
0001
,  // measure 35
1000
0000
0001
0000
1000
0000
0001
0000
0100
0000
0010
0000
0100
0000
0000
0001
0000
0000
1000
0000
0000
2002
0000
0000
,  // measure 36
0000
0000
3003
0000
0001
1000
0001
1000
,  // measure 37
0001
0010
0100
1000
0100
0010
0001
0000
,  // measure 38
0001
0100
0010
1000
0010
0100
0001
0000
,  // measure 39
0001
0010
0100
0010
0001
1000
0010
0100
,  // measure 40
0010
0000
1000
0000
0100
0000
0010
0001
0010
0001
0100
0010
0100
0000
0100
0000
,  // measure 41
0000
0000
0001
1000
0001
0000
0000
0000
1001
0000
0000
0000
1010
0000
0000
0000
,  // measure 42
0101
0000
0001
1000
0100
0010
0100
1000
,  // measure 43
0001
0100
0010
0000
1001
0000
1100
0000
,  // measure 44
0011
0000
0001
1000
0100
0010
0100
1000
,  // measure 45
0001
0000
0100
0001
0100
0000
0000
0000
0001
0000
0001
0000
1000
0000
0100
0000
,  // measure 46
0010
0001
1000
0000
1000
1000
0001
0010
,  // measure 47
0100
1000
0001
0000
0001
0001
1000
0010
,  // measure 48
0100
0010
1000
0100
0010
0001
0010
0100
,  // measure 49
1000
0000
0010
0100
0010
0000
0000
0000
1001
0000
0000
0000
0011
0000
0000
0000
,  // measure 50
1100
0000
1000
0001
0100
0010
0100
0001
,  // measure 51
1000
0100
0010
0000
1001
0000
1100
0000
,  // measure 52
0011
0000
0001
1000
0010
0100
0010
1000
,  // measure 53
0001
0010
0100
0000
1000
0001
0100
0001
,  // measure 54
1000
0100
0010
0100
1000
0001
0100
0001
,  // measure 55
1000
0001
0010
0100
1000
1000
0001
0001
,  // measure 56
0100
0000
0100
0000
0010
0000
0010
0000
1000
0001
1000
0001
0100
0000
0000
0000
,  // measure 57
0001
1000
0001
0010
1000
0010
0001
1000
,  // measure 58
0001
0010
0100
1000
0100
0010
0001
0000
,  // measure 59
1000
0001
1000
0010
0001
0010
1000
0001
,  // measure 60
1000
0010
0100
0001
0100
0010
1000
0000
,  // measure 61
0010
0000
0100
0000
0010
0100
0010
0100
0010
0000
0000
0000
1001
0000
0000
0000
,  // measure 62
1000
0100
0001
0100
1000
1000
0001
0001
,  // measure 63
1000
0100
0001
0100
1000
0001
0010
0100
,  // measure 64
1000
0000
0001
0100
0001
0000
1000
0010
1000
0000
0001
0000
0001
0000
1000
0000
,  // measure 65
0200
0010
1000
1300
,  // measure 66
0020
0100
0001
0031
,  // measure 67
0200
0010
1000
1300
,  // measure 68
0000
0001
0001
1000
0010
0000
0010
0000
,  // measure 69
0200
0001
0010
0310
,  // measure 70
2000
0001
0100
3100
,  // measure 71
0020
0001
0100
0130
,  // measure 72
2000
0000
0001
0000
3001
0001
1000
1100
;

//---------------dance-single - ----------------
#NOTES:
     dance-single:
     :
     Beginner:
     1:
     0.097,0.136,0.085,0.000,0.000:
0001
0000
0000
0000
,
1000
0000
0000
0000
,
0001
0000
0000
0000
,
1000
0000
0000
0000
,
0100
0000
0000
0000
,
0100
0000
0000
0000
,
0100
0000
0000
0000
,
1000
0000
0000
0000
,
1001
0000
0000
0000
,
0001
0000
0000
0000
,
0010
0000
0000
0000
,
0100
0000
0000
0000
,
1000
0000
0000
0000
,
0010
0000
0000
0000
,
0100
0000
0000
0000
,
0001
0000
0000
0000
,
1000
0000
0000
0000
,
1000
0000
0000
0000
,
0001
0000
0000
0000
,
0001
0000
0000
0000
,
1000
0000
0000
0000
,
0001
0000
0000
0000
,
0100
0000
0000
0000
,
0100
0000
0000
0000
,
0110
0000
0000
0000
,
0000
0000
0000
0000
,
1001
0000
0000
0000
,
0000
0000
0000
0000
,
1000
0000
0000
0000
,
0001
0000
0000
0000
,
1000
0000
0000
0000
,
0001
0000
0000
0000
,
0100
0000
0000
0000
,
0000
0000
0000
0000
,
0110
0000
0000
0000
,
0010
0000
0000
0000
,
1000
0000
0000
0000
,
0001
0000
0000
0000
,
1000
0000
0000
0000
,
0001
0000
0000
0000
,
0000
0000
1001
0000
,
0000
0000
0000
0000
,
0000
0000
0110
0000
,
0000
0000
0000
0000
,
0000
0000
0010
0000
,
0000
0000
0100
0000
,
0000
0000
0010
0000
,
0000
0000
1000
0000
,
0000
0000
1001
0000
,
0000
0000
0000
0000
,
0000
0000
0110
0000
,
0000
0000
0000
0000
,
0000
0000
0100
0000
,
0000
0000
0010
0000
,
0000
0000
1000
0000
,
0000
0000
0000
0000
,
1001
0000
0000
0000
,
0001
0000
0000
0000
,
1000
0000
0000
0000
,
0001
0000
0000
0000
,
0100
0000
0000
0000
,
0010
0000
0000
0000
,
0100
0000
0000
0000
,
0001
0000
0000
0000
,
1000
0000
0000
0000
,
1000
0000
0000
0000
,
1000
0000
0000
0000
,
0000
0000
0000
0000
,
0001
0000
0000
0000
,
0001
0000
0000
0000
,
0001
0000
0000
0000
,
0000
0000
0000
1000
;
