#TITLE:ファン・ファン&シャウト;
#SUBTITLE:;
#ARTIST:Sister MAYO;
#TITLETRANSLIT:FUN FUN & SHOUT;
#SUBTITLETRANSLIT:;
#ARTISTTRANSLIT:;
#CREDIT:DigiMindAxel;
#BANNER:FUN FUN & SHOUT.png;
#BACKGROUND:FUN FUN & SHOUT-bg.png;
#LYRICSPATH:.FUN FUN & SHOUTlrc;
#CDTITLE:DigiMindAxel original simfile.png;
#MUSIC:FUN FUN & SHOUT.mp3;
#OFFSET:-3.540;
#SAMPLESTART:42.078;
#SAMPLELENGTH:12.000;
#SELECTABLE:YES;
#BPMS:0.000=143.000;
#STOPS:128.000=0.420
,129.000=0.420
,130.000=0.420
;
#BGCHANGES:-8.500=FUN FUN & SHOUT.avi=1.000=1=1=0,
99999=-nosongbg-=1.000=0=0=0 // don't automatically add -songbackground-
;

//---------------dance-single - ----------------
#NOTES:
     dance-single:
     :
     Easy:
     3:
     0.273,0.427,0.100,0.186,0.000: // measure 1
1001
0000
0000
1000
0000
0000
0001
0000
,  // measure 2
1000
1000
1000
1000
,  // measure 3
0001
0001
0001
0010
,  // measure 4
0100
0000
1000
0000
,  // measure 5
0100
0000
0010
0000
,  // measure 6
0001
1000
0001
0000
,  // measure 7
0010
0001
0010
0010
,  // measure 8
0010
0010
0000
0000
,  // measure 9
0001
1000
0001
0000
,  // measure 10
1000
0100
1000
0000
,  // measure 11
0100
0010
0100
0100
,  // measure 12
0100
0100
0000
0000
,  // measure 13
1000
0001
1000
0000
,  // measure 14
0010
0000
0100
0000
0010
0000
0000
0110
,  // measure 15
0000
0000
0000
0000
,  // measure 16
0100
0000
0010
0000
0100
0000
0000
0110
,  // measure 17
0000
0000
0000
1001
0000
0000
0000
0000
,  // measure 18
0010
0100
0001
0001
,  // measure 19
0000
1000
0001
0000
,  // measure 20
2000
0000
3001
0000
,  // measure 21
0020
0000
0130
0000
,  // measure 22
0002
0000
0000
0000
,  // measure 23
1003
0001
1000
0000
,  // measure 24
0020
0100
0130
0001
,  // measure 25
1000
0001
1000
0010
,  // measure 26
0200
0010
0010
0310
,  // measure 27
1000
0000
0001
0000
,  // measure 28
0020
0100
0100
0130
,  // measure 29
0001
1000
0001
0100
,  // measure 30
0020
0000
0130
0000
,  // measure 31
0001
0001
0001
0001
,  // measure 32
1000
1000
1000
1000
,  // measure 33
2002
3003
0000
0000
0000
0000
0000
0000
0200
0300
0000
0000
0000
0000
0000
0000
2002
3003
0000
0000
0000
0000
0000
0000
0002
0000
0000
0000
0000
0000
0000
0000
,  // measure 34
0000
1003
0100
1000
,  // measure 35
1000
0010
0100
0001
,  // measure 36
0001
0000
0010
0100
,  // measure 37
0100
0010
0001
0001
,  // measure 38
1000
0000
0000
1001
0000
0000
0000
0000
;

//---------------dance-single - ----------------
#NOTES:
     dance-single:
     :
     Hard:
     8:
     0.638,0.750,0.643,0.257,0.107:
0001
0000
0001
1000
0000
0000
0100
0000
0100
0010
0000
0000
0001
0000
0001
0000
,
1000
1000
0100
0001
0100
1000
0001
0001
,
0010
0000
1000
0000
0010
0000
0001
0000
1000
0000
0010
0100
0010
0000
0100
0000
,
0101
0000
0020
0100
0130
0001
1000
0100
,
0000
0010
0100
0000
1100
0000
1001
0000
,
0001
0010
0100
1000
0001
0010
0001
1000
,
0100
0000
0010
0100
1000
1000
1000
1000
,
1001
0000
0110
0000
0100
0010
1000
0000
,
1001
0000
0110
0000
0010
0100
0001
0000
,
1000
0100
0010
0001
1000
0010
0100
1000
,
0100
0001
1000
0010
0100
0100
0100
0100
,
0110
0000
1001
0000
0001
1000
0100
0000
,
0110
0000
1001
0000
1000
0001
0100
0000
,
0001
0001
1000
0100
0001
0100
1000
1001
,
0000
0110
2002
3003
,
1000
1000
0001
0010
1000
0010
0001
2002
,
0000
0000
3003
0000
0000
0000
0110
0000
0000
0000
0010
0100
0010
0100
0010
0000
,
1000
1000
0001
0010
1000
0010
0001
1001
,
0000
1001
0220
0330
,
0102
1000
0103
0110
,
2001
0100
3001
0110
,
1000
0010
0001
0010
1000
0100
0001
0100
,
1100
0000
0000
0000
0101
0000
0000
0000
1001
0000
0000
0001
2000
0000
0000
0000
,
3001
0010
0100
0010
0001
0100
1000
0100
,
0001
0000
0010
0000
0100
1000
0000
1000
0001
0000
0010
0000
0100
0000
1000
0000
,
0010
0100
0101
0000
0010
1000
1100
0000
,
0110
1000
0100
0000
0101
0010
0100
0000
,
1000
0100
0010
0100
1000
0010
0001
0010
,
1000
0000
0100
0000
0010
0001
0000
0001
1000
0000
0010
0000
0100
0000
0001
0000
,
0101
0000
0010
1000
1100
0000
1001
0000
,
0001
0001
1000
0010
0001
0010
1000
1000
,
0100
0000
0001
0000
0100
0000
1000
0000
1000
0000
0001
1000
0001
0000
0100
0000
,
0220
0330
0000
0000
0000
0000
0000
0000
2002
3003
0000
0000
0000
0000
0000
0000
0220
0330
0000
0000
0000
0000
0000
0000
1000
0000
0001
0000
0000
0000
0001
0000
,
1000
0100
1000
0100
1000
0000
0001
0000
0100
0000
0010
0000
0110
0000
0100
0000
,
0101
0000
0001
0010
0100
0010
0011
0010
,
0110
0000
1000
0010
0100
0001
0101
0100
,
1100
0000
1000
0100
0010
0100
1100
0100
,
0101
0001
0000
2002
3003
0000
0000
0000
;

//---------------dance-single - ----------------
#NOTES:
     dance-single:
     :
     Medium:
     6:
     0.432,0.427,0.457,0.100,0.000:
1001
0000
0000
0110
0000
0000
1001
0000
,
0001
0100
0001
0100
0010
1000
0010
1000
,
0100
0010
0001
0010
0100
1000
0001
0000
,
1001
0000
0010
0000
0100
0010
0000
0001
,
1000
0000
0010
0000
0100
0001
0100
0000
,
0010
0000
1000
0000
0100
1000
0100
0000
,
0010
0100
0010
0000
0001
0001
0001
0000
,
1001
0000
1000
0000
0010
0100
0000
0000
,
0000
0010
0000
0100
0010
0000
0100
0000
,
1001
0000
0010
0001
0010
0000
0100
0000
,
1000
0001
1000
0000
0100
0100
0100
0000
,
1001
0000
0001
0000
0010
0100
0000
0000
,
0000
0010
0000
0100
0010
0000
1000
0000
,
0001
0100
0010
0000
1000
0100
0010
0001
,
0000
1001
1001
0000
,
1000
0100
0010
0000
0001
0100
0010
1000
,
0000
0000
0000
1001
0000
0000
0000
0000
,
1000
0010
0100
0000
0001
0010
0100
1000
,
0000
1001
1001
0000
,
0020
0000
0130
0001
,
2000
0000
3100
1000
,
0001
0010
0100
1000
,
1001
1001
1001
0000
,
1001
0001
0101
0001
,
0110
1000
0110
0001
,
1100
1000
1100
0001
,
0010
0100
1000
0000
0010
1000
0001
0000
,
1001
1000
1010
1000
,
0110
0001
0110
1000
,
1001
0001
0011
0001
,
1000
0010
1000
0010
0100
0001
0100
0001
,
1000
0100
0010
0001
1000
0000
1000
0000
,
0220
0330
0000
0000
0000
0000
0000
0000
0020
0030
0000
0000
0000
0000
0000
0000
0220
0330
0000
0000
0000
0000
0000
0000
0000
0000
0000
0000
0000
0000
0000
0000
,
0000
0000
0000
0010
0100
0010
1000
0000
,
1000
0000
0010
0100
0001
0000
0001
0000
,
1001
0000
0000
0010
0100
0010
0001
0000
,
0001
0000
0010
0100
1000
0000
1000
0000
,
1001
0000
0000
1001
0000
0000
0000
0000
;

//---------------dance-single - ----------------
#NOTES:
     dance-single:
     :
     Beginner:
     1:
     0.110,0.160,0.100,0.000,0.000: // measure 1
1001
0000
0000
0000
,  // measure 2
1000
0000
0001
0000
,  // measure 3
1000
0000
1000
0000
,  // measure 4
1001
0000
0000
0000
,  // measure 5
0010
0000
0000
0000
,  // measure 6
0100
0000
0000
0000
,  // measure 7
0000
0000
0000
0000
,  // measure 8
0010
0000
0000
0000
,  // measure 9
0010
0000
0000
0000
,  // measure 10
1001
0000
0000
0000
,  // measure 11
0001
0000
0000
0000
,  // measure 12
1000
0000
0001
0000
,  // measure 13
1000
0000
0000
0000
,  // measure 14
0100
0000
0000
0000
,  // measure 15
0000
0000
0000
0000
,  // measure 16
0010
0000
0000
0000
,  // measure 17
0001
0000
0000
0000
,  // measure 18
1000
0000
0000
0000
,  // measure 19
0001
0000
0000
0000
,  // measure 20
0100
0000
0100
0000
,  // measure 21
0010
0000
0010
0000
,  // measure 22
0110
0000
0000
0000
,  // measure 23
1001
0000
0000
0000
,  // measure 24
1000
0000
0000
0000
,  // measure 25
0001
0000
0000
0000
,  // measure 26
1000
0000
0000
0000
,  // measure 27
0010
0000
0000
0000
,  // measure 28
0100
0000
0000
0000
,  // measure 29
0001
0000
0000
0000
,  // measure 30
1000
0000
0000
0000
,  // measure 31
0001
0000
0001
0000
,  // measure 32
0001
0000
0001
0000
,  // measure 33
1001
0000
0000
0000
,  // measure 34
0000
1000
0000
0001
,  // measure 35
0000
1000
0000
0001
,  // measure 36
0000
1000
0000
0001
,  // measure 37
0000
0010
0000
0100
,  // measure 38
0000
0000
0000
1001
0000
0000
0000
0000
;
