#TITLE:ECLIPSE;
#SUBTITLE:;
#ARTIST:泉 陸奥彦;
#TITLETRANSLIT:;
#SUBTITLETRANSLIT:;
#ARTISTTRANSLIT:Mutsuhiko Izumi;
#CREDIT:DigiMindAxel;
#BANNER:ECLIPSE.png;
#BACKGROUND:ECLIPSE-bg.png;
#LYRICSPATH:;
#CDTITLE:GUITARFREAKS & drummania.png;
#MUSIC:ECLIPSE.mp3;
#OFFSET:-9.685;
#SAMPLESTART:35.095;
#SAMPLELENGTH:12.000;
#SELECTABLE:YES;
#BPMS:0.000=132.000;
#STOPS:148.000=1.364
;
#BGCHANGES:-22.000=ECLIPSE.avi=1.000=1=1=0,
99999=-nosongbg-=1.000=0=0=0 // don't automatically add -songbackground-
;

//---------------dance-single - ----------------
#NOTES:
     dance-single:
     :
     Easy:
     3:
     0.239,0.218,0.195,0.082,0.000: // measure 1
1000
0001
1000
0001
,  // measure 2
0200
0000
0000
0301
0000
0000
0000
0000
,  // measure 3
1000
0100
1000
0010
,  // measure 4
0200
0000
0000
0301
0000
0000
0000
0000
,  // measure 5
2000
0000
0000
0000
,  // measure 6
3002
0000
0000
0000
,  // measure 7
1003
0010
0100
0001
,  // measure 8
1000
0010
0100
0100
,  // measure 9
0001
0010
0100
1000
,  // measure 10
0001
0010
0100
0100
,  // measure 11
1000
0001
0010
0100
,  // measure 12
1000
0001
0100
0100
,  // measure 13
0001
1000
0010
0100
,  // measure 14
0001
1000
0001
0000
,  // measure 15
1001
0000
0000
1000
0000
0000
0001
0000
,  // measure 16
1000
0100
0010
0001
,  // measure 17
1001
0000
0000
0001
0000
0000
1000
0000
,  // measure 18
0001
0010
0100
1000
,  // measure 19
1001
0000
0000
0001
0000
0000
1000
0000
,  // measure 20
0010
0100
0001
1000
,  // measure 21
1001
0000
0000
0001
0000
0000
1000
0000
,  // measure 22
0020
0000
0000
0000
,  // measure 23
0130
0001
0010
0001
,  // measure 24
1000
0100
0010
0010
,  // measure 25
0100
1000
0010
0100
,  // measure 26
0010
1000
0001
0001
,  // measure 27
1000
0100
0010
0001
,  // measure 28
1000
0010
0100
0100
,  // measure 29
0001
0010
0100
1000
,  // measure 30
0001
0100
0000
0000
,  // measure 31
0110
0000
0000
0010
0000
0000
0100
0000
,  // measure 32
0001
0010
0100
1000
,  // measure 33
0110
0000
0000
0010
0000
0000
0100
0000
,  // measure 34
0001
1000
0010
0100
,  // measure 35
1001
0000
0000
0001
0000
0000
1000
0000
,  // measure 36
0100
0010
0001
1000
,  // measure 37
1001
0000
0000
1000
0000
0000
0001
0000
,  // measure 38
0020
0030
0000
0000
0000
0000
0000
0000
1001
0000
0000
0000
0000
0000
0000
0000
0000
0000
0000
0000
1001
0000
0000
0000
0000
0000
0000
0000
0000
0000
0000
0000
,  // measure 39
0000
0000
0110
0000
0000
0110
0000
0000
,  // measure 40
0000
0000
1001
0000
0000
1001
0000
0000
,  // measure 41
0000
0000
0110
0000
0000
0110
0000
0000
,  // measure 42
0000
1001
1001
0000
,  // measure 43
0220
0000
0330
0000
;

//---------------dance-single - ----------------
#NOTES:
     dance-single:
     :
     Medium:
     5:
     0.381,0.370,0.318,0.174,0.010: // measure 1
0001
0010
0100
0010
,  // measure 2
0001
0000
0000
1001
0000
1000
0001
0000
,  // measure 3
1000
0100
0010
0100
,  // measure 4
1000
0000
0000
1001
0000
0001
1000
0000
,  // measure 5
0020
0100
0000
0100
,  // measure 6
0230
0010
0000
0010
,  // measure 7
0301
0100
0010
1000
0010
0100
0001
0000
,  // measure 8
1000
0100
0010
0001
1000
0000
1000
0000
,  // measure 9
0001
0010
0100
1000
0100
0010
0001
0000
,  // measure 10
1000
0010
0100
0001
1000
0000
1000
0000
,  // measure 11
0001
0100
0010
1000
0010
0100
0001
0000
,  // measure 12
1000
0100
0010
0001
1000
0000
1000
0000
,  // measure 13
0010
0100
0001
0100
0010
1000
0001
0000
,  // measure 14
0010
0100
1000
0100
0010
0000
0000
0000
,  // measure 15
0101
0000
0000
1001
0000
1000
0001
0000
,  // measure 16
0100
0100
0001
0001
0100
0100
0010
0000
,  // measure 17
1010
0000
0000
1001
0000
0001
1000
0000
,  // measure 18
0100
1000
0020
0000
0130
0001
0010
0000
,  // measure 19
0011
0000
0000
1001
0000
0001
1000
0000
,  // measure 20
0100
0100
1000
1000
0100
0100
1000
0000
,  // measure 21
1100
0000
0000
1001
0000
1000
0001
0000
,  // measure 22
0200
0000
0000
0000
,  // measure 23
0310
0100
0001
0010
0100
1000
0100
0010
,  // measure 24
0001
0010
0100
1000
0010
0000
0010
0000
,  // measure 25
0100
0010
1000
0100
0010
0001
0010
0100
,  // measure 26
1000
0010
0100
0001
1000
0000
1000
0000
,  // measure 27
0001
0010
0100
0010
0001
0100
0010
1000
,  // measure 28
0010
0100
0001
1000
0001
0000
0001
0000
,  // measure 29
0010
0100
1000
0100
0010
0001
0010
0100
,  // measure 30
1000
0010
0100
0020
0000
1000
1030
0000
,  // measure 31
0110
0000
0000
0101
0000
0000
1010
0000
,  // measure 32
0200
0320
0032
1003
,  // measure 33
0011
0000
0000
1100
0000
0000
1001
0000
,  // measure 34
0020
0230
2300
3001
,  // measure 35
1001
0000
0000
1010
0000
0000
0101
0000
,  // measure 36
0020
0230
2300
3001
,  // measure 37
1001
0000
0000
1010
0000
0000
0101
0000
,  // measure 38
0200
0300
0000
0000
0000
0000
0000
0000
1001
0000
0000
0000
0000
0000
0000
0000
0000
0000
0000
0000
0101
0000
0000
0000
0000
0000
0000
0000
1000
0000
0000
0000
,  // measure 39
1000
0000
1100
0000
0000
1001
0000
0001
,  // measure 40
0001
0000
0101
0000
0000
1001
0000
1000
,  // measure 41
1000
0000
1100
0000
0000
1001
0000
0100
,  // measure 42
0100
0000
0000
0000
0001
1000
0001
1000
0000
0000
0000
0000
0000
0000
0000
0000
,  // measure 43
0220
0000
0330
0000
;

//---------------dance-single - ----------------
#NOTES:
     dance-single:
     :
     Hard:
     9:
     0.640,0.631,0.471,0.164,0.651: // measure 1
1000
0000
0000
1100
0000
0000
0100
0000
0000
0110
0000
0000
0011
0000
0001
0000
,  // measure 2
1000
0100
0010
0000
0100
1000
0001
0000
,  // measure 3
1000
0000
0000
1010
0000
0000
0010
0000
0000
0110
0000
0000
0101
0000
0001
0000
,  // measure 4
1000
0100
2000
0000
0000
0000
0001
0000
0000
0000
3001
0000
1001
0000
0000
0000
,  // measure 5
0001
0001
0020
0000
0000
0000
0130
0000
,  // measure 6
1000
1000
0200
0000
0000
0000
0310
0000
,  // measure 7
0001
1000
0001
1000
0001
1000
0001
0000
0010
0000
0100
0000
1000
0000
0001
0000
,  // measure 8
0010
0001
0010
0001
0010
0001
0010
0000
0001
0000
0000
0000
1001
0000
0000
0000
,  // measure 9
1000
0010
1000
0010
1000
0010
1000
0000
0100
0000
0010
0000
0001
0000
1000
0000
,  // measure 10
0001
1000
0001
1000
0001
1000
0001
0000
0100
0010
0000
0000
0100
0010
0000
0000
,  // measure 11
1000
0100
1000
0100
1000
0100
1000
0000
0010
0000
0100
0000
0001
0000
1000
0000
,  // measure 12
0001
0100
0001
0100
0001
0100
0001
0000
1001
0000
0000
0000
0110
0000
0000
0000
,  // measure 13
0010
0100
0010
0100
0010
0100
0010
0000
0001
0000
1000
0000
0100
0000
0010
0000
,  // measure 14
0100
0010
0100
0010
0100
0010
0100
0000
1000
0000
1000
0000
1001
0000
0000
0000
,  // measure 15
0011
0000
0000
1100
0000
0000
0011
0000
0000
1001
0000
0000
0110
0000
0100
0000
,  // measure 16
0001
0020
0000
0000
0031
0200
0000
0000
0301
2000
0000
0000
3100
0010
0000
0000
,  // measure 17
1001
0000
0000
0101
0000
0000
1010
0000
0000
1001
0000
0000
0110
0000
0010
0000
,  // measure 18
1000
0100
0010
0100
2000
0000
0000
0000
3001
0100
0010
0100
0002
0000
0000
0000
,  // measure 19
1003
0000
0000
1100
0000
0000
0011
0000
0000
1010
0000
0000
0101
0000
0001
0000
,  // measure 20
1000
0020
0000
0000
0130
0020
0000
0000
0130
0002
0000
0000
1003
0001
1000
0000
,  // measure 21
1001
0000
0000
0101
0000
0000
1010
0000
0000
0011
0000
0000
1100
0000
1000
0000
,  // measure 22
0010
0100
0020
0000
0000
0000
0000
0000
0000
0000
0000
0000
0000
0000
0000
0000
,  // measure 23
1030
0100
1000
0100
0010
0001
0010
0000
0001
1000
0010
0000
0010
1000
0001
0000
,  // measure 24
1000
0010
1000
0010
0100
0001
0100
0000
1001
0000
0100
0000
1001
0000
0000
0000
,  // measure 25
0001
0010
0001
0010
0100
1000
0100
0000
1000
0001
0010
0000
0010
0001
1000
0000
,  // measure 26
0001
0100
0001
0100
0010
1000
0010
0000
1000
0001
1000
0001
1000
0001
1000
0001
,  // measure 27
1000
0100
1000
0100
0010
0100
0010
0000
0001
0010
0100
0000
0100
0010
0001
0000
,  // measure 28
0100
0001
0100
0001
1000
0100
1000
0000
1001
0000
0100
0000
1001
0000
0000
0000
,  // measure 29
0001
0010
0001
0010
0100
0010
0100
0000
1000
0010
0100
0000
0100
0010
1000
0000
,  // measure 30
0001
0100
0001
0100
0001
1000
0001
0000
0000
0000
1001
0000
1100
0000
0000
0000
,  // measure 31
1001
0000
1000
0010
0000
0010
0100
0000
0100
0001
0000
0001
1000
0000
0001
0000
,  // measure 32
0010
0100
1000
0000
0001
0010
0100
0000
1000
0010
0100
0000
0010
0100
0001
0000
,  // measure 33
1000
0000
1000
0100
0000
0100
0010
0000
0010
0001
0000
0001
1000
0000
0001
0000
,  // measure 34
1000
0010
0100
0000
0010
0100
0001
0000
1000
0001
1000
0001
1000
0001
1000
0000
,  // measure 35
0001
0000
0001
0100
0000
0100
0010
0000
0010
1000
0000
1000
0001
0000
1000
0000
,  // measure 36
0001
0100
0010
0000
0100
0010
1000
0000
0001
0010
0100
0000
0010
0100
1000
0000
,  // measure 37
0001
0000
0001
0010
0000
0010
0100
0000
0100
1000
0000
1000
0001
0000
0100
0000
,  // measure 38
0020
0030
0000
0000
0000
0000
0000
0000
0101
0000
0000
0000
0000
0000
0000
0000
0000
0000
0000
0000
1010
0000
0000
0000
0000
0000
0000
0000
1000
0000
0100
0000
,  // measure 39
0010
0001
0000
0000
0011
0000
0000
0000
0000
0000
1100
0000
0000
0000
1000
0010
,  // measure 40
0100
0001
0000
0000
1001
0000
0000
0000
0000
0000
0110
0000
0000
0000
0100
0010
,  // measure 41
0001
0010
0100
0000
1001
0000
0000
0000
0000
0000
0110
0000
0000
0000
0010
1000
,  // measure 42
0100
1000
0010
0000
1000
0100
0010
0002
0000
0000
0000
0000
1003
0000
0000
0000
,  // measure 43
2002
0000
3003
0000
;

//---------------dance-single - ----------------
#NOTES:
     dance-single:
     :
     Beginner:
     2:
     0.111,0.129,0.154,0.000,0.000: // measure 1
1001
0000
0000
0000
,  // measure 2
1000
0000
0000
0000
,  // measure 3
1001
0000
0000
0000
,  // measure 4
0001
0000
0000
0000
,  // measure 5
0100
0000
0000
0000
,  // measure 6
0100
0000
0000
0000
,  // measure 7
1001
0000
0001
0000
,  // measure 8
1000
0000
0001
0000
,  // measure 9
0010
0000
0001
0000
,  // measure 10
0010
0000
0001
0000
,  // measure 11
1000
0000
0100
0000
,  // measure 12
1000
0000
0100
0000
,  // measure 13
1000
0000
0001
0000
,  // measure 14
1000
0000
0000
0000
,  // measure 15
1001
0000
0000
0000
,  // measure 16
0100
0000
0100
0000
,  // measure 17
1001
0000
0000
0000
,  // measure 18
0010
0000
0010
0000
,  // measure 19
1001
0000
0000
0000
,  // measure 20
0100
0000
0100
0000
,  // measure 21
1001
0000
0000
0000
,  // measure 22
0010
0000
0000
0000
,  // measure 23
0110
0000
0100
0000
,  // measure 24
0010
0000
0100
0000
,  // measure 25
0001
0000
1000
0000
,  // measure 26
0001
0000
1000
0000
,  // measure 27
0100
0000
0010
0000
,  // measure 28
0100
0000
0010
0000
,  // measure 29
0001
0000
1000
0000
,  // measure 30
0001
0000
0000
0000
,  // measure 31
1001
0000
0000
0000
,  // measure 32
1000
0000
0000
0000
,  // measure 33
0010
0000
0000
0000
,  // measure 34
0100
0000
0000
0000
,  // measure 35
0001
0000
0000
0000
,  // measure 36
1000
0000
0000
0000
,  // measure 37
0001
0000
0000
0000
,  // measure 38
1000
1001
0000
0000
,  // measure 39
0000
0110
0000
0000
,  // measure 40
0000
1001
0000
0000
,  // measure 41
0000
0110
0000
0000
,  // measure 42
0000
1001
0000
0000
,  // measure 43
1001
0000
0000
0000
;
