#TITLE:Devilz Staircase;
#SUBTITLE:;
#ARTIST:OSTER project;
#TITLETRANSLIT:;
#SUBTITLETRANSLIT:;
#ARTISTTRANSLIT:;
#CREDIT:DigiMindAxel;
#BANNER:Devilz Staircase.png;
#BACKGROUND:Devilz Staircase-bg.png;
#LYRICSPATH:;
#CDTITLE:beatmania IIDX.png;
#MUSIC:Devilz Staircase.mp3;
#OFFSET:-10.630;
#SAMPLESTART:26.125;
#SAMPLELENGTH:12.000;
#SELECTABLE:YES;
#BPMS:0.000=92.500,17.000=185.000;
#STOPS:16.000=0.649
;
#BGCHANGES:;

//---------------dance-single - ----------------
#NOTES:
     dance-single:
     :
     Easy:
     3:
     0.208,0.282,0.124,0.062,0.000:
0001
1000
0001
0000
,
0100
0010
0100
0000
,
0010
1000
0010
0000
,
0100
0001
0100
0000
,
0000
1001
0000
1001
,
0000
1000
0001
1001
,
0000
1001
0000
0001
,
1000
1001
0000
0010
,
0000
0100
0000
0010
,
0000
1000
0000
0100
,
0000
0010
0000
0100
,
0000
1000
0000
0001
,
0000
1000
0000
0001
,
0000
0010
0000
0100
,
0000
0010
0000
0001
,
0000
0100
0000
0010
,
0000
0100
0000
0010
,
0000
1000
0000
0001
,
0000
1000
0000
0001
,
0000
0010
0000
0100
,
0000
1000
0000
0100
,
0000
0010
0001
0010
,
0000
0100
1000
0100
,
0000
1001
0000
1001
,
0000
1001
0000
1001
,
0000
0110
0000
0010
,
0000
0100
0000
0010
,
0000
2000
0000
0000
,
0000
0000
0000
0000
,
0000
0000
0000
0000
,
0000
0000
0000
0000
,
0000
0000
0000
0000
,
0000
0000
3002
0000
,
0000
1003
0000
0000
,
0000
0000
0000
1001
,
0000
0000
0010
0000
,
0000
0110
0000
0000
,
1000
0000
0000
0001
,
0000
1000
0000
0001
,
0000
0010
0000
0100
,
0000
1000
0000
0100
,
0000
1000
0001
1000
,
0000
0100
1000
0100
,
0000
0010
0001
0010
,
0000
0001
1000
0001
,
0000
0100
0001
0100
,
0000
0010
1000
0010
,
0000
0100
0010
0100
,
0000
0001
1000
0001
,
0000
0010
0001
0010
,
0000
0100
1000
0100
,
0000
1000
0001
1000
,
0001
0100
0000
0100
,
0000
0110
0000
0010
,
0000
0100
0000
0000
,
0000
0001
0000
1000
,
0000
0001
0000
0000
,
0000
1000
0000
0001
,
0000
1000
0000
0001
,
0000
0010
0000
0100
,
0000
2000
0000
0000
,
0000
3001
1000
0001
,
1000
0001
1000
0020
,
0000
0130
0010
0100
,
0010
0100
0001
1000
,
0001
2000
0000
0000
,
0000
3001
2002
0000
,
0000
0000
0000
0000
,
0000
0000
0000
0000
,
0000
0000
0000
0000
,
0000
0000
3003
0000
;

//---------------dance-single - ----------------
#NOTES:
     dance-single:
     :
     Medium:
     6:
     0.380,0.439,0.258,0.151,0.000: // measure 1
1000
0100
1000
0100
,  // measure 2
0001
0100
1000
0001
,  // measure 3
0100
0001
0100
1000
,  // measure 4
0100
0000
0001
0000
1000
0000
0010
0100
,  // measure 5
0010
1001
1001
0110
,  // measure 6
0000
0100
0100
0110
,  // measure 7
0110
1001
0000
0010
,  // measure 8
0010
0110
1000
0100
,  // measure 9
1000
0010
0100
0001
,  // measure 10
0010
0100
1000
0100
,  // measure 11
0010
0000
0001
1000
0001
0000
0100
0010
,  // measure 12
0100
0010
1000
0000
0010
0000
0100
0000
,  // measure 13
0001
0000
1000
0100
1000
0000
0010
0100
,  // measure 14
0010
1000
0001
0100
,  // measure 15
0010
0000
1000
0001
1000
0000
0010
0100
,  // measure 16
0001
1001
0010
0100
,  // measure 17
0010
0000
0001
1000
0001
0000
0100
0010
,  // measure 18
0100
0010
1000
0010
,  // measure 19
0100
0000
0001
0100
0001
0000
1000
0100
,  // measure 20
1000
0000
0020
0000
0130
0001
0020
0000
,  // measure 21
0130
1000
0020
0000
0130
0000
0001
0000
,  // measure 22
1000
0000
0010
0100
0001
0000
0010
0100
,  // measure 23
1000
0000
0100
1000
0100
0000
1000
0010
,  // measure 24
0100
0000
0001
0001
0000
0000
1000
1000
,  // measure 25
0000
0000
0001
0001
0000
0000
1001
0000
,  // measure 26
1001
0000
0100
0100
0000
0000
0010
0010
,  // measure 27
0000
0000
0100
0100
0000
0000
0110
0000
,  // measure 28
0110
2000
0000
0000
,  // measure 29
0000
0000
0000
0000
,  // measure 30
0000
0000
0000
0000
,  // measure 31
0000
3002
0000
0000
,  // measure 32
0000
0000
0000
0000
,  // measure 33
0000
0000
1003
0000
,  // measure 34
0000
0110
0000
0000
,  // measure 35
0100
0100
0100
1001
,  // measure 36
0000
0000
0110
0110
,  // measure 37
0010
1002
0000
0000
,  // measure 38
1003
1000
0110
0001
,  // measure 39
0010
1000
0010
0001
,  // measure 40
1000
0000
0010
0000
0100
0001
0000
0001
,  // measure 41
0100
0000
0010
0100
0010
0000
0200
0000
,  // measure 42
0000
0301
1000
0100
,  // measure 43
1000
0001
1000
0000
0010
0000
0100
0000
,  // measure 44
0001
0100
0001
0000
1000
0100
1000
0000
,  // measure 45
0010
0000
0100
0010
0100
0000
0001
1000
,  // measure 46
0001
0000
1000
0100
0010
0001
1000
0000
,  // measure 47
1000
0000
0001
0010
0100
1000
0001
0000
,  // measure 48
0001
0000
1000
0100
0010
0001
1000
0000
,  // measure 49
1000
0000
0001
0010
0100
1000
0010
0100
,  // measure 50
0010
1001
0100
0100
,  // measure 51
0100
1001
0010
0010
,  // measure 52
0010
1001
0100
0010
,  // measure 53
0100
0110
0000
0110
,  // measure 54
0000
1002
0000
0203
,  // measure 55
0000
0310
0100
0000
,  // measure 56
0000
0120
0000
2030
,  // measure 57
0000
3100
0010
0000
,  // measure 58
0000
0110
0001
0010
,  // measure 59
0100
1000
0100
0010
,  // measure 60
0001
2000
0000
0000
,  // measure 61
3000
2002
0000
0000
,  // measure 62
3003
1000
0100
0001
,  // measure 63
0100
1000
0100
0001
,  // measure 64
0100
1000
0010
0100
,  // measure 65
0001
1000
0010
0100
,  // measure 66
0001
2000
0000
0000
,  // measure 67
3001
0110
2002
0000
,  // measure 68
0000
0000
0000
0000
,  // measure 69
0000
0000
0000
0000
,  // measure 70
0000
0000
0000
0000
,  // measure 71
0000
0000
3003
0000
;

//---------------dance-single - ----------------
#NOTES:
     dance-single:
     :
     Hard:
     8:
     0.549,0.595,0.409,0.178,0.080: // measure 1
0001
0010
0100
1000
0010
0100
0001
0000
,  // measure 2
1000
0100
0010
0001
0100
0010
1000
0000
,  // measure 3
0100
0010
0100
1000
0010
0100
0001
0000
,  // measure 4
0010
0100
0010
0001
0100
0010
1000
0001
,  // measure 5
1000
0000
0000
0000
0000
0000
0001
0000
0100
0000
0001
0000
0100
0000
0000
0000
0000
0000
0010
0000
0000
0100
0000
0000
,  // measure 6
0000
0000
0000
0001
0000
0000
1000
0000
0100
0000
1000
0000
0100
0000
0000
0010
0000
0000
0100
0000
1000
0000
0100
0000
,  // measure 7
1000
0000
0000
0000
0000
0000
0100
0000
0000
0010
0000
0000
0000
0000
0000
0001
0000
0000
0100
0000
0010
0000
0100
0000
,  // measure 8
0010
1000
0001
0010
0100
0000
0010
0001
,  // measure 9
1000
0000
0010
1000
0100
0000
0010
0001
,  // measure 10
0100
0000
0001
1000
0010
0000
0100
0001
,  // measure 11
1000
0000
0100
0010
0001
0010
0100
1000
,  // measure 12
0001
0100
0001
1000
0100
0000
0100
1000
,  // measure 13
0001
0000
1000
0100
0010
0000
0010
0100
,  // measure 14
1000
0000
0010
0100
0001
0000
0001
0100
,  // measure 15
0010
0000
1000
0100
0010
0002
0000
0100
,  // measure 16
0103
0000
1001
0000
1100
0000
1000
0100
,  // measure 17
0010
0000
0001
0000
0011
0000
0001
0010
,  // measure 18
0100
0000
1000
0000
1010
0000
1000
0010
,  // measure 19
0100
0000
0001
0000
0101
0000
0001
0100
,  // measure 20
0010
0000
0100
0000
0002
0000
0000
0000
1003
0000
0000
0010
0200
0000
0000
0000
,  // measure 21
0301
0000
0000
1000
0020
0000
0000
0000
0130
0000
0001
0000
1000
0000
0000
0000
,  // measure 22
1000
0000
0001
0010
1000
0010
0001
1000
,  // measure 23
0100
0000
1000
0100
0001
0100
1000
0001
,  // measure 24
0100
0000
1001
0001
0000
0000
1001
1000
,  // measure 25
0000
0000
1001
0001
0000
0000
1001
0000
,  // measure 26
1001
0000
1000
1000
0010
0100
0001
0001
,  // measure 27
0010
0100
1000
1000
0010
0100
0101
0000
,  // measure 28
1001
1000
0100
1000
,  // measure 29
0200
0000
0000
0310
,  // measure 30
0001
0010
0200
0000
,  // measure 31
0000
1300
0010
1000
,  // measure 32
0020
0000
0000
0130
,  // measure 33
0001
0100
0220
0000
,  // measure 34
0330
2002
0000
3003
,  // measure 35
0100
0000
1000
0000
0100
1000
2200
0000
,  // measure 36
0000
3300
0101
0101
,  // measure 37
0100
0001
0101
0000
0010
0100
0000
0100
,  // measure 38
0010
1001
1000
0110
,  // measure 39
0110
0011
0011
1100
,  // measure 40
1100
0000
0110
0000
0001
1000
0000
1000
,  // measure 41
0001
0000
0010
0100
1000
0010
0200
0000
,  // measure 42
0000
0000
0301
0000
1000
0010
0100
0000
,  // measure 43
0001
0100
1000
0000
0100
0001
1000
0000
,  // measure 44
0001
0100
1000
0000
0100
0001
1000
0000
,  // measure 45
0001
0010
1000
0000
0010
0001
1000
0000
,  // measure 46
0001
0000
1000
0001
1000
0000
0100
0000
0010
0000
0001
0000
1000
0000
1000
0000
,  // measure 47
0001
0000
1000
0001
1000
0000
0010
0000
0100
0000
0001
0000
1000
0000
1000
0000
,  // measure 48
0001
0000
1000
0001
1000
0000
0100
0000
0010
0000
0001
0000
1000
0000
1000
0000
,  // measure 49
0001
0000
1000
0001
1000
0000
0010
0000
0100
0000
0001
0000
0010
0000
0000
0000
,  // measure 50
0100
0010
0110
0000
0101
0000
0101
0000
,  // measure 51
0010
0100
0110
0000
1010
0000
1010
0000
,  // measure 52
0100
0010
0110
0000
0011
0000
1100
0000
,  // measure 53
0011
1001
0000
0110
,  // measure 54
0000
0000
0000
1001
0000
0000
0001
0000
1000
0100
0000
0000
,  // measure 55
1000
0000
0010
0100
0000
0000
0110
0000
0000
0000
0000
0000
,  // measure 56
0000
0000
0000
1001
0000
0000
1000
0000
0001
0010
0000
0000
,  // measure 57
0001
0000
0100
0010
0000
0000
0110
0000
0000
0000
0000
0000
,  // measure 58
0000
0000
1001
0000
0001
0010
0100
1000
,  // measure 59
0001
0010
0100
1000
0001
0100
0010
1000
,  // measure 60
0001
0100
0020
0000
0000
0000
1000
0000
,  // measure 61
1030
2002
0000
0000
,  // measure 62
3003
0000
1000
0100
0001
0100
1000
0100
,  // measure 63
0001
0100
1000
0100
0001
0100
1000
0010
,  // measure 64
0100
0000
0001
0100
1000
0100
0001
0100
,  // measure 65
1000
0100
0001
0100
1000
0010
0100
0001
,  // measure 66
1000
0010
0200
0000
0000
0000
0000
0000
,  // measure 67
0310
0110
2002
0000
,  // measure 68
0000
0000
0000
0000
,  // measure 69
0000
0000
0000
0000
,  // measure 70
0000
0000
0000
0000
,  // measure 71
0000
0000
3003
0000
;

//---------------dance-single - ----------------
#NOTES:
     dance-single:
     :
     Challenge:
     10:
     0.722,0.815,0.480,0.231,0.396: // measure 1
1000
0000
1000
0001
0000
0000
0000
0100
0000
0000
0000
0000
0010
0000
0010
0100
0000
0000
0010
0000
1000
0100
0000
0000
,  // measure 2
0010
0000
0010
0100
0000
0000
0000
1000
0000
0000
0000
0000
0001
0000
0001
0010
0000
0000
0100
0000
0100
0010
0000
0000
,  // measure 3
1000
0000
0010
0100
0000
0000
0001
0000
0000
0010
0000
0000
0100
0000
1000
0001
0000
0000
0100
0000
0001
0100
0000
0000
,  // measure 4
0010
0000
0100
0010
0000
0000
1000
0000
0000
0100
0000
0000
0010
0000
0001
0100
0000
0000
0010
1000
0010
1000
0100
0010
,  // measure 5
0001
0000
0000
0000
0000
0000
1000
0000
0100
0000
1000
0000
0001
0000
0000
0000
0000
0000
1001
0000
0000
1000
0000
0000
,  // measure 6
0000
0000
0000
0001
0000
0000
1000
0000
0010
0000
1000
0000
0001
0000
0000
0100
0000
0000
0001
0000
0100
0000
0001
0000
,  // measure 7
1000
0000
0000
0000
0000
0000
1001
0000
0000
0001
0000
0000
0000
0000
0000
1000
0000
0000
0001
0000
0100
0000
0001
0000
,  // measure 8
1000
0100
1000
0001
0100
0001
0010
0100
,  // measure 9
1000
0001
0100
0001
0010
0100
1000
0010
,  // measure 10
0100
0001
0010
1000
0010
0001
0100
0010
,  // measure 11
0100
0001
0010
1000
0010
0001
1000
0100
,  // measure 12
0010
0001
0010
0100
1100
0000
0010
0100
,  // measure 13
0110
0000
0100
0001
0101
0000
0010
0100
,  // measure 14
0110
0000
1000
0010
1010
0000
0002
0100
,  // measure 15
0103
0010
2000
0001
3001
0010
0100
1000
,  // measure 16
0010
0100
0110
0000
0100
0010
1000
0100
,  // measure 17
0001
0100
1000
0010
0100
0001
1000
1000
,  // measure 18
0001
0001
1000
0010
0001
0010
1000
0100
,  // measure 19
0010
0000
0001
0000
0010
0000
1000
0000
0010
0000
0001
0000
1000
0000
0001
1000
,  // measure 20
0001
0000
0010
0000
0110
0000
0000
0000
0100
0000
1000
0001
2000
0000
0000
0000
,  // measure 21
3010
0000
1000
0001
1000
0000
0010
0000
0100
0000
0010
0000
0000
0000
0010
0000
,  // measure 22
1000
0000
0001
0000
0100
0010
0100
0010
0100
0000
0001
0100
0001
0000
1000
0000
,  // measure 23
0100
0000
1000
0001
1000
0000
0010
0000
0100
0000
0001
0010
0001
0000
1000
0000
,  // measure 24
0010
0100
0101
0101
0000
0000
1100
1100
,  // measure 25
0000
0000
1001
1001
0000
0000
0110
0000
,  // measure 26
0110
0000
0101
0010
0100
0000
1010
0100
,  // measure 27
0010
0000
0000
0000
0110
0000
0001
0000
0010
0000
0100
0000
1000
0001
1000
0001
,  // measure 28
1000
0100
0010
0001
2000
0000
0000
0000
3002
0000
0000
0000
0103
0000
0010
0000
,  // measure 29
0200
0000
0320
0000
1030
0000
0001
1000
,  // measure 30
0100
1000
0001
0000
0020
0000
0230
0000
,  // measure 31
1300
0000
0010
0100
0001
0010
0100
1000
,  // measure 32
0002
0000
0023
0000
0130
0000
0010
0001
,  // measure 33
1000
0010
0100
0010
0220
0000
0000
0000
,  // measure 34
0330
0000
0000
0000
1001
0000
0000
0000
0000
0000
1000
0001
1000
0000
0000
0000
,  // measure 35
0200
0000
0320
0000
0031
1000
2002
0000
,  // measure 36
0000
3003
0110
0110
,  // measure 37
0001
1000
1002
0000
0100
0203
0000
0010
,  // measure 38
0310
1000
1001
0000
0001
0000
1010
0000
,  // measure 39
0110
1010
0011
0110
,  // measure 40
0011
0000
2001
0000
0010
3020
0000
0100
,  // measure 41
0130
0000
0001
0000
0010
0000
0100
0000
1000
0000
0001
0000
0100
0010
0100
0010
,  // measure 42
0100
0010
0100
0010
0100
0000
0000
0000
0001
0000
0010
0000
0001
0000
1000
0000
,  // measure 43
0010
0000
0100
0001
0100
0000
0001
0000
0010
0000
0100
0000
0010
0000
0001
0000
,  // measure 44
1000
0000
0010
0000
0100
0000
0000
0000
0001
0000
1000
0001
1000
0000
0010
0000
,  // measure 45
0100
0010
1000
0100
0010
0001
0100
0000
,  // measure 46
0010
0000
1000
0001
1000
0000
0100
0000
0001
0000
1000
0000
0010
0000
0001
0000
,  // measure 47
1000
0000
0001
1000
0001
0000
0100
0000
1000
0000
0001
0000
0010
0000
1000
0000
,  // measure 48
0001
0000
1000
0001
1000
0000
0100
0000
0001
0000
1000
0000
0010
0000
0001
0000
,  // measure 49
1000
0000
0001
1000
0001
0000
0010
0000
0100
0000
1000
0000
0001
0000
0000
0000
,  // measure 50
0001
0100
0110
0000
1001
0000
1001
0000
,  // measure 51
1000
0010
0110
0000
1001
0000
1001
0000
,  // measure 52
0010
0100
0110
0000
1100
0000
0011
0000
,  // measure 53
1100
1001
0000
0110
,  // measure 54
0000
0000
0000
1001
0000
0000
1000
0010
1000
0001
0000
0000
,  // measure 55
0010
0100
1000
0100
0000
0000
1100
0000
0000
0100
0000
0000
,  // measure 56
0100
0000
0000
1001
0000
0000
1000
0100
1000
0001
0000
0000
,  // measure 57
0010
0100
0010
0001
0000
0000
0101
0000
0000
0100
0000
0000
,  // measure 58
0100
0000
1001
0100
0010
0001
0100
1000
,  // measure 59
0100
0001
1000
0010
0001
0010
1000
0100
,  // measure 60
0010
0001
0102
0000
0000
0000
2003
0000
,  // measure 61
3200
0000
0000
1300
0100
0010
0001
0100
0010
1000
0010
0100
,  // measure 62
0001
0000
0000
0000
0010
0000
0000
0000
0100
0000
0000
0000
1000
0000
0000
0000
0000
0000
0000
0000
0000
1000
0000
0000
0010
0000
0000
0000
0000
0000
0000
0000
0000
0010
0000
0000
0001
0000
0000
0000
0000
0000
0000
0000
0000
0001
0000
0000
,  // measure 63
0010
0000
0000
0010
1000
0000
0000
1000
0001
0000
0000
0001
0100
0010
0100
0010
,  // measure 64
1000
0100
0010
0001
1000
0000
0000
1000
0100
0000
0000
0100
0001
0000
0000
0001
,  // measure 65
0100
0000
0000
0100
1000
0000
0000
1000
0001
0000
0000
0001
1000
0000
0000
1000
,  // measure 66
0010
0000
0000
0010
0100
0001
0100
0001
0100
0001
0100
0001
0100
0001
0100
0001
,  // measure 67
0100
0001
0100
0000
0110
0000
0000
0000
2002
0000
0000
0000
0000
0000
0000
0000
,  // measure 68
0000
0000
0000
0000
,  // measure 69
0000
0000
0000
0000
,  // measure 70
0000
0000
0000
0000
,  // measure 71
0000
0000
3003
0000
;

//---------------dance-single - ----------------
#NOTES:
     dance-single:
     :
     Beginner:
     2:
     0.099,0.148,0.071,0.000,0.000:
0001
0000
0000
0000
,
1000
0000
0000
0000
,
0001
0000
0000
0000
,
1000
0000
0000
0000
,
0000
1001
0000
0001
,
0000
0000
0000
1001
,
0000
1000
0000
0000
,
0000
0010
0000
0100
,
0000
0010
0000
0100
,
0000
0010
0000
0100
,
0000
0010
0000
1000
,
0000
0001
0000
1000
,
0000
0001
0000
1000
,
0000
0001
0000
0010
,
0000
0100
0000
1000
,
0000
0001
0000
0001
,
0000
0001
0000
0000
,
0000
1000
0000
1000
,
0000
1000
0000
1000
,
0000
0010
0000
0000
,
0000
0100
0000
0000
,
0000
0001
0000
0000
,
0000
1000
0000
0000
,
0000
1001
0000
0000
,
0000
0000
0000
0000
,
0000
1001
0000
0000
,
0000
0000
0000
0000
,
0000
0010
0000
0000
,
0000
0000
0000
0000
,
0000
0000
0000
0000
,
0000
0000
0000
0000
,
0000
0000
0000
0000
,
0000
0000
0000
0000
,
0000
0000
0110
0000
,
0000
0000
0000
1001
,
0000
0000
0000
0000
,
0000
0001
0000
0000
,
0000
1000
0000
0001
,
0000
0000
1000
0000
,
0000
0001
0000
0000
,
0000
0010
0000
0000
,
0000
0100
0000
0000
,
0000
1000
0000
0000
,
0000
0001
0000
0000
,
0000
0001
0000
0000
,
0000
1000
0000
0100
,
0000
0010
0000
0001
,
0000
1000
0000
0001
,
0000
1000
0000
0000
,
0000
0001
0000
0000
,
0000
1000
0000
0000
,
0000
0001
0000
0010
,
0000
0100
0000
0000
,
0000
0100
0000
0000
,
0000
0000
0000
0000
,
0000
1000
0000
0000
,
0000
0000
0000
0000
,
0000
0001
0000
0000
,
0000
0000
0000
0000
,
0000
1000
0000
0000
,
0000
0000
0000
0000
,
0000
1001
0000
0000
,
0000
0000
0000
0000
,
0000
0001
0000
0000
,
0000
0000
0000
0000
,
0000
0001
0000
0000
,
0000
0000
1001
0000
;
