#TITLE:Clumsy thoughts;
#SUBTITLE:;
#ARTIST:猫叉Master feat. *spiLa*;
#TITLETRANSLIT:;
#SUBTITLETRANSLIT:;
#ARTISTTRANSLIT:Nekomata Master feat. *spiLa*;
#CREDIT:DigiMindAxel;
#BANNER:Clumsy thoughts.png;
#BACKGROUND:Clumsy thoughts-bg.png;
#LYRICSPATH:Clumsy thoughts.lrc;
#CDTITLE:REFLEC BEAT.png;
#MUSIC:Clumsy thoughts.mp3;
#OFFSET:-7.280;
#SAMPLESTART:75.296;
#SAMPLELENGTH:12.000;
#SELECTABLE:YES;
#BPMS:0.000=153.000;
#STOPS:173.000=0.784
;
#BGCHANGES:;

//---------------dance-single - ----------------
#NOTES:
     dance-single:
     :
     Easy:
     2:
     0.198,0.222,0.049,0.033,0.000:
0001
1000
0000
0100
,
0000
0010
0000
0001
,
0000
0010
0000
0100
,
1001
0000
0000
0000
,
0000
0000
0000
0000
,
0010
0100
0010
0000
,
1000
0100
1000
0000
,
0100
1000
0100
0000
,
0010
0001
0010
0000
,
0001
1000
0001
0000
,
0100
0001
0100
0000
,
0001
0100
0001
0000
,
2000
0000
0000
0000
,
3100
0000
0010
0000
,
0001
0000
0000
0000
,
0010
0000
0100
0000
,
1000
0000
0000
0000
,
0002
0000
0000
0000
,
1003
0000
0001
0000
,
1001
0000
0000
0000
,
0100
0000
0010
0000
,
0100
0000
0000
0000
,
1000
0000
0010
0000
,
0200
0000
0000
0000
,
0301
0000
0000
0000
,
1000
0000
0001
0000
,
1001
0000
0000
0000
,
0010
0000
0100
0000
,
0010
0100
0010
0000
,
1000
0000
0001
0000
,
1000
0001
1000
0000
,
0100
0000
1000
0000
,
0100
1000
0100
0000
,
0010
0000
0001
0000
,
0010
0001
0010
0000
,
0100
0000
0100
0000
,
0010
0001
1000
0000
,
0010
0000
0010
0000
,
0100
0001
1000
0000
,
0100
0010
0100
0000
,
1000
0100
1000
0000
,
0010
0100
0010
0000
,
1000
0100
0010
0001
,
1000
0000
1001
0000
,
0100
0000
0010
0000
,
0100
0000
0001
0010
,
0100
1000
0001
0000
,
0000
0000
1001
0000
,
0010
0000
0100
0000
,
0010
0000
0001
1000
,
0001
1000
0010
0000
,
0100
0000
0002
0000
,
1000
0000
1003
0000
,
0010
0100
0001
0000
,
1000
0000
0001
0000
,
0000
0000
1000
0100
,
0010
0001
1000
0000
,
0100
0000
0010
0000
,
0100
0000
1000
0001
,
1000
0001
0010
0100
,
1000
0000
0010
0100
,
0001
0000
0010
0100
,
1000
0000
0100
1000
,
0100
0000
1000
0100
,
0010
0000
0001
0100
,
0010
0000
1000
0001
,
0010
0100
1000
0000
,
0000
0000
0001
0100
,
0010
0110
0000
0000
;

//---------------dance-single - ----------------
#NOTES:
     dance-single:
     :
     Medium:
     5:
     0.335,0.362,0.090,0.138,0.000:
0002
0100
0000
0103
,
0020
1000
0000
1030
,
0200
0010
0000
0310
,
1001
0000
0000
0000
,
1000
1000
1000
1000
,
0001
0100
0010
0000
0100
0000
0010
0000
,
1000
0100
0010
0001
,
1000
0100
0010
0000
0100
0000
1000
0000
,
0010
0010
0100
0100
,
0001
1000
0100
0000
0010
0000
0001
0000
,
1000
0010
0100
0001
,
1000
0100
0010
0000
0100
0000
1000
0000
,
2002
0000
3003
0000
,
0200
0000
0001
0000
,
0010
0000
0301
0000
,
2000
0000
0100
0000
,
0010
0000
3100
0000
,
1002
0000
0100
0000
,
1000
0000
0103
0000
,
0020
0000
0100
0000
,
1000
0000
0130
0000
,
0002
0000
1000
0000
,
0010
0000
1003
0000
,
2001
0000
0100
0000
,
0010
0000
3100
0000
,
1000
0100
0010
0001
,
2002
0000
0000
3003
,
1000
0100
0010
0100
,
1000
0000
0100
0000
0010
0000
0001
0100
,
0010
0000
1000
0000
0100
0000
0010
0001
,
0010
0100
0010
0000
,
0001
1000
0010
0100
,
0001
1000
0010
0100
,
0001
1000
0100
0000
0010
0000
0001
0000
,
1000
0010
0100
0000
,
0001
0010
0100
0000
0010
0000
0001
0000
,
0010
0100
1000
0000
0010
0000
0100
0000
,
0001
0010
0100
0000
0010
0000
0001
0000
,
1000
0010
0100
0000
1001
0000
0000
0000
,
0010
0000
0100
0000
1000
0000
0010
0100
,
0001
0000
1000
0000
0010
0000
0100
0001
,
2000
0000
0000
3001
,
1000
0100
0010
0001
,
0100
0100
0100
0000
1001
0000
0000
0000
,
0010
0100
1000
0010
,
1000
0100
0010
0000
0001
0010
0001
0010
,
0100
1000
0100
0000
0000
0000
0000
0000
,
1000
0010
0200
0000
,
0001
0000
0010
0000
0301
0000
1000
0100
,
0010
0001
1000
0000
0010
0000
0100
0000
,
0001
0100
0010
0000
0100
0000
0001
0000
,
0010
0001
2000
0000
,
3010
0000
0100
0001
1000
0000
0100
0000
,
1000
0000
0010
0000
0100
0000
0000
0110
,
0000
1001
0000
0000
,
0010
0100
0010
0000
1001
0000
0100
0000
,
1000
0100
0010
0000
0100
0000
1000
0001
,
0100
0001
0100
0001
1000
0000
0010
0000
,
0100
0000
0001
0000
0010
0100
0010
0000
,
0000
1000
1001
0000
0100
1000
0100
0000
,
1000
0000
0010
0000
0100
0001
0100
0000
,
0001
0000
0010
0000
0100
1000
0100
0000
,
0010
0000
0001
0000
0000
0100
0001
1000
,
0000
0100
0010
0001
1000
0000
0100
0000
,
0010
0000
0100
0000
1000
0010
0100
0000
,
0001
0000
0100
0000
0001
0010
0100
0000
,
1000
0001
2000
0000
,
0000
0000
3000
0000
0000
0001
0010
0100
,
1000
0010
0100
0100
0000
0000
0000
0000
;

//---------------dance-single - ----------------
#NOTES:
     dance-single:
     :
     Hard:
     7:
     0.462,0.473,0.081,0.138,0.004:
0100
1000
0100
1000
,
0100
0001
0100
0001
,
0100
1000
0010
0100
,
0220
0000
0000
0030
,
0001
0001
0301
1001
,
0100
1000
0010
0100
0001
0001
1000
1000
,
0000
1000
0100
0010
0100
1000
0010
0100
,
0000
0001
0010
0100
2000
0000
3002
0000
,
1003
0100
0001
0100
1000
0000
0010
0000
,
0100
0001
0010
0100
1000
1000
0001
0001
,
0000
0001
0100
0010
0100
0001
1000
0100
,
0000
1000
0100
0001
0100
1000
0001
0000
,
1001
0000
0000
0001
0100
0100
0100
0000
,
0010
1000
0100
0001
,
0100
1000
0010
0000
,
1000
0010
0001
0010
,
1000
0100
0010
0001
,
2000
0000
0000
0000
3010
0100
0010
0000
,
1000
0100
0001
0100
,
1000
0001
0010
1000
,
0010
0001
1000
0000
,
0001
1000
0010
0001
,
0010
1000
0001
0000
,
0200
0000
0000
0000
0301
1000
0001
0000
,
0010
0100
1000
0010
,
0100
0001
1000
0000
0100
0010
0001
0000
,
1001
0000
0000
0000
0000
0100
0110
0000
,
0100
1000
0100
0000
0001
0000
0100
1000
,
0100
0001
0100
1000
,
0010
0001
0010
0000
1000
0000
0010
0001
,
0010
1000
0001
0110
,
1000
0100
0001
0000
0100
0000
1000
0100
,
0001
0100
1000
0001
,
1000
0010
0001
0000
0010
0000
1000
0010
,
0001
0000
0010
0000
1000
0002
0000
0000
,
1003
0100
1000
0010
0100
0010
1000
0100
,
1000
0010
0100
0001
0010
0000
1000
0000
,
0010
0001
0010
0100
1000
0001
0100
0010
,
1000
0100
0001
0000
,
0100
1000
0010
0100
0010
1000
0100
1000
,
0010
0100
0010
1000
0100
0001
0100
1000
,
0002
0000
0000
0000
0000
0000
1003
0010
,
0100
0001
0010
0100
,
2000
0010
3010
0000
0201
0000
0310
0000
,
1000
0100
0001
0100
1000
0010
0000
0100
,
0001
0010
0100
1000
0010
0000
0100
0001
,
0000
0001
2000
0000
0000
0000
3000
0010
,
0100
0001
0010
0100
2000
0000
0010
0000
,
0100
0000
0001
0000
3100
0000
1000
0010
,
0001
0010
1000
0000
0001
0010
1000
0010
,
0001
0100
1000
0100
0001
0010
0100
0000
,
0010
0001
1020
0130
,
0001
0010
1000
0010
0001
0100
0000
0010
,
1000
0100
0010
0001
1000
0000
1000
0010
,
0000
0010
0200
0000
0000
0000
0000
0301
,
1000
0100
0010
0001
2000
0000
0100
0000
,
0001
0000
0010
0000
3100
0000
1000
0001
,
0010
1000
0010
0001
2000
0000
0001
0000
,
0100
0000
0010
0000
3001
1000
0100
1000
,
0001
0100
0110
0000
0100
1000
0010
0100
,
0001
0001
1000
1000
0100
1000
0010
0100
,
0001
0001
1000
1000
0010
1000
0100
0010
,
0001
0001
1000
1000
0000
0001
0010
1000
,
0000
0001
0100
1000
0001
0100
0010
1000
,
0001
0001
1000
1000
0001
0100
0010
1000
,
0001
0001
1000
1000
0001
0010
1000
0010
,
0001
0001
1000
1000
0020
0000
0000
0000
,
0000
0000
0000
1000
1030
0001
0010
1000
,
0010
0000
0001
0010
0100
0000
0110
0000
0000
0000
0000
0000
0000
0000
0000
0000
;

//---------------dance-single - ----------------
#NOTES:
     dance-single:
     :
     Challenge:
     8:
     0.591,0.529,0.228,0.163,0.041:
1000
0100
0010
0001
0010
0100
1000
0000
,
0001
0100
0010
1000
0010
0100
0001
0000
,
0010
0100
1000
0100
0010
0001
0100
0100
,
0220
0000
0000
0300
,
0000
1000
0000
1000
0000
1030
1001
0000
,
1000
0000
0001
0100
0001
0000
0010
0000
0100
0000
1000
0000
0010
0000
0010
0000
,
0100
0010
0100
0001
0010
1000
0010
0001
,
1000
0000
0010
0000
0100
0000
0001
0000
1000
0001
1000
0000
0000
0000
0001
0000
,
1000
0000
0010
0000
0001
0000
0010
0000
1000
0000
0001
1000
0001
0000
0100
0000
,
0010
0000
1000
0010
1000
0000
0100
0000
0010
0000
0001
0000
0100
0000
0100
0000
,
0010
0000
1000
0001
1000
0000
0001
0000
0010
0000
1000
0000
0010
0000
0001
0000
,
0000
0000
1000
0000
0010
0000
0100
0000
0001
1000
0001
0000
1000
0000
0100
0000
,
1100
0000
0000
1000
0001
0110
0110
0000
,
0200
0000
0001
0000
0310
0000
0001
1000
,
0100
0010
0001
1000
0100
0000
1000
0000
,
0020
0000
0100
0000
1030
0000
0001
1000
,
0100
0010
0001
1000
0100
0000
1000
0001
,
1002
0000
0000
0000
1003
0010
1000
0001
,
0010
0100
0010
0000
0001
0100
0010
0000
,
2100
0000
0010
0000
3100
0000
1000
0001
,
0010
0100
1000
0001
0100
0000
0001
0000
,
0200
0000
0001
0000
0310
0000
1000
0001
,
0010
0100
1000
0001
0100
0010
0010
0000
,
2001
0000
0000
0000
3001
0010
0001
1000
,
0100
0010
0100
0000
1000
0010
0100
0000
,
0001
0010
0100
0000
0010
0100
1000
0010
,
0110
0000
0000
0000
0000
1001
1001
0000
,
0100
1000
0010
0100
1000
0100
0010
1000
,
0001
0010
0100
1000
0001
0000
1000
0000
,
0001
0010
1000
0010
0001
1000
1000
0010
,
0200
0001
1300
1001
,
0010
0001
0100
0010
0001
0010
0100
0001
,
1000
0100
0010
0001
1000
0010
0100
0000
,
0001
0100
1000
0100
0001
0010
0100
1000
,
0020
0000
0000
0000
0100
0000
0000
0000
0031
0000
1001
0000
0000
0000
1000
0010
,
1000
0001
0001
1000
1000
0100
0010
0001
,
0010
0100
1000
0001
0100
0000
0010
0100
,
0001
0010
1000
0010
0001
1000
0100
0001
,
0200
1000
0310
0100
,
1000
0010
0100
0001
0100
0010
1000
0100
,
0001
0100
1000
0001
0010
1000
0010
0001
,
2000
0001
0000
0001
0000
3001
1000
0100
,
0010
0101
0110
1010
,
0100
1000
0001
0000
1002
0000
0100
0000
,
1003
0001
0010
1000
0010
0001
0000
0001
,
1000
0100
0010
0100
2000
0000
3010
0002
,
0000
0013
2000
0000
0001
0000
3001
1000
,
0100
0001
0100
1000
0001
0100
0001
0100
,
0010
1000
0100
0010
0001
0000
0001
0010
,
0100
0001
0100
1000
0001
0100
0010
0001
,
0010
1000
0100
0010
0110
0100
0101
0000
,
0010
0110
0110
0000
2001
0000
0010
0000
,
3001
1000
0100
0001
0100
1000
0001
0010
,
0100
0010
0001
1000
1010
0000
0100
0110
,
0000
1000
2002
0000
0000
3000
0003
1000
,
0010
0001
0010
1000
0001
0010
0100
0010
,
0001
0100
0010
0100
0001
0000
1000
0100
,
0010
1000
0010
0001
1000
0100
0010
0100
,
1000
0010
0100
0000
0001
1000
0010
0010
,
1000
1001
1001
0000
1000
0100
0001
0100
,
0010
0001
1000
0001
1000
0010
0001
0010
,
0100
0001
1000
0001
0010
1000
0010
0001
,
1000
0010
0100
0001
0000
1000
0010
0001
,
0000
1000
0100
0001
1000
0010
0100
1000
,
0100
0000
0001
1000
0010
0000
1000
0000
0001
0000
0010
0000
0100
0000
0001
0000
,
0100
0000
1000
0001
0010
0000
0001
0000
0100
0000
1000
0000
0100
0000
0001
0000
,
0010
1000
0010
0001
0200
0010
0010
0010
,
0000
0001
0001
0301
1000
0010
0100
1000
,
0100
0000
0001
0100
0010
0000
0101
0000
0000
0000
0000
0000
0000
0000
0000
0000
;

//---------------dance-single - ----------------
#NOTES:
     dance-single:
     :
     Beginner:
     1:
     0.071,0.110,0.065,0.000,0.000: // measure 1
0001
0000
0000
0000
,  // measure 2
0001
0000
0000
0000
,  // measure 3
0001
0000
0000
0000
,  // measure 4
1001
0000
0000
0000
,  // measure 5
0000
0000
0000
0000
,  // measure 6
1000
0000
0000
0000
,  // measure 7
0001
0000
0000
0000
,  // measure 8
1000
0000
0000
0000
,  // measure 9
0001
0000
0000
0000
,  // measure 10
0100
0000
0000
0000
,  // measure 11
0010
0000
0000
0000
,  // measure 12
0100
0000
0000
0000
,  // measure 13
0010
0000
0000
0000
,  // measure 14
1001
0000
0000
0000
,  // measure 15
0000
0000
0000
0000
,  // measure 16
1000
0000
0000
0000
,  // measure 17
0000
0000
0000
0000
,  // measure 18
1001
0000
0000
0000
,  // measure 19
0000
0000
0000
0000
,  // measure 20
0001
0000
0000
0000
,  // measure 21
0000
0000
0000
0000
,  // measure 22
1000
0000
0000
0000
,  // measure 23
0000
0000
0000
0000
,  // measure 24
1001
0000
0000
0000
,  // measure 25
0000
0000
0000
0000
,  // measure 26
0100
0000
0000
0000
,  // measure 27
0100
0000
0000
0000
,  // measure 28
1001
0000
0000
0000
,  // measure 29
0000
0000
0000
0000
,  // measure 30
0001
0000
0000
0000
,  // measure 31
0000
0000
0000
0000
,  // measure 32
1000
0000
0000
0000
,  // measure 33
0000
0000
0000
0000
,  // measure 34
0010
0000
0000
0000
,  // measure 35
0000
0000
0000
0000
,  // measure 36
1000
0000
0000
0000
,  // measure 37
0001
0000
0000
0000
,  // measure 38
1000
0000
0000
0000
,  // measure 39
0000
0000
0000
0000
,  // measure 40
0001
0000
0000
0000
,  // measure 41
1000
0000
0000
0000
,  // measure 42
0001
0000
0000
0000
,  // measure 43
1000
0000
0000
0000
,  // measure 44
0010
0000
1001
0000
,  // measure 45
0000
0000
0000
0000
,  // measure 46
1000
0000
0000
0000
,  // measure 47
0000
0000
0000
0000
,  // measure 48
0000
0000
0001
0000
,  // measure 49
0000
0000
0000
0000
,  // measure 50
0000
0000
1000
0000
,  // measure 51
0001
0000
1000
0000
,  // measure 52
0000
0000
1001
0000
,  // measure 53
0000
0000
0000
0000
,  // measure 54
0000
0000
1001
0000
,  // measure 55
0000
0000
0000
0000
,  // measure 56
0000
0000
1000
0000
,  // measure 57
0000
0000
0001
0000
,  // measure 58
0000
0000
1000
0000
,  // measure 59
0000
0000
0010
0000
,  // measure 60
0000
0000
0100
0000
,  // measure 61
0000
0000
0100
0000
,  // measure 62
0000
0000
0010
0000
,  // measure 63
0000
0000
0010
0000
,  // measure 64
0000
0000
1000
0000
,  // measure 65
0000
0000
0001
0000
,  // measure 66
0000
0000
0001
0000
,  // measure 67
0000
0000
1000
0000
,  // measure 68
0000
0000
0000
1000
;
