#TITLE:Cassis;
#SUBTITLE:;
#ARTIST:肥塚良彦;
#TITLETRANSLIT:;
#SUBTITLETRANSLIT:;
#ARTISTTRANSLIT:YOSHIHIKO KOEZUKA;
#CREDIT:DigiMindAxel;
#BANNER:Cassis.png;
#BACKGROUND:Cassis-bg.png;
#LYRICSPATH:;
#CDTITLE:jubeat.png;
#MUSIC:Cassis.mp3;
#OFFSET:-6.015;
#SAMPLESTART:33.211;
#SAMPLELENGTH:12.000;
#SELECTABLE:YES;
#BPMS:0.000=176.000,143.500=88.000,151.500=176.000,196.000=88.000,205.000=176.000;
#STOPS:195.750=0.682
;
#BGCHANGES:;

//---------------dance-single - ----------------
#NOTES:
     dance-single:
     :
     Easy:
     4:
     0.279,0.380,0.085,0.186,0.034:
1000
0000
0100
0000
,
1000
0000
0100
0000
,
1000
0000
0001
0000
,
0100
0000
0000
0000
,
0001
1000
0001
0000
,
0010
0001
0010
0000
,
0001
0010
0100
1000
,
0100
0010
0001
0000
,
1000
0001
1000
0000
,
0100
1000
0100
0000
,
1000
0010
0100
0001
,
2000
0000
0000
3000
,
0001
0000
1000
0001
,
1000
0000
0100
1000
,
0100
0000
0010
0001
,
0010
0000
0001
1000
,
0001
0000
0100
0001
,
1000
0000
0100
1000
,
0100
0000
0010
0001
,
1000
0000
0000
0000
,
0010
0100
0010
0100
,
0010
0100
0010
0100
,
0001
0010
0100
1000
,
0100
0010
0001
0000
,
0100
0010
0100
0010
,
0100
0010
0100
0010
,
1000
0100
0010
0001
,
0200
0000
0000
0300
,
1001
0000
0010
0100
,
0010
0000
0001
1000
,
0001
0010
0001
0010
,
0001
1000
0001
0000
,
1000
0100
1000
0000
,
0010
1000
0010
0000
,
0100
0010
0100
0000
,
0001
0000
0000
0000
0010
0000
0000
0000
0100
0000
0000
0000
1000
0000
0000
0002
,
0000
0000
0000
1003
0000
0000
0000
0200
0000
0000
0000
1300
0000
0000
0000
0020
,
0000
0000
0000
0130
0000
0000
0000
0002
0000
0000
0000
0013
0000
0000
0000
0000
,
1001
1000
0001
1000
,
0001
0000
0000
0000
,
0100
0010
0100
0010
,
0100
0000
0000
0000
,
2002
0000
0000
0000
,
0000
0000
3003
0000
,
0220
0000
0000
0000
,
0000
0000
0330
0000
,
2002
0000
0000
0000
,
0000
0000
3003
0000
1000
0000
0000
0010
,
0000
0000
0100
0000
0000
0002
0000
0000
,
0003
1000
0100
1000
,
0001
0010
0001
1000
,
0001
2000
0000
0000
,
0000
3002
0000
0000
,
0000
1003
0100
0010
,
0001
2000
0000
0000
,
0000
3002
0000
0000
,
0000
0023
0000
0000
,
0000
0230
0000
0000
,
0000
0320
0000
0000
,
0000
0031
0000
1000
,
0000
0001
0000
1000
,
0000
0001
0010
0100
,
1000
0001
1000
0001
,
1000
0000
0110
0000
0000
0010
0000
0000
,
0110
0000
0000
0100
0000
0000
0000
0000
,
0000
0000
1001
0000
0000
1000
0000
0000
,
1001
0000
0000
0001
0000
0000
0000
0000
,
0000
1000
0001
1000
,
0100
1000
0001
1000
,
0100
0010
0001
0010
,
0100
1000
0001
1000
,
0000
0001
1000
0001
,
0010
0001
1000
0001
,
0010
0001
0100
0010
,
1000
2002
0000
3003
;

//---------------dance-single - ----------------
#NOTES:
     dance-single:
     :
     Medium:
     6:
     0.451,0.505,0.152,0.313,0.051:
0002
0000
0023
0000
,
0032
0000
2003
0000
,
3200
0000
2300
0000
,
3001
1000
0001
1001
,
1000
0000
0000
0100
0000
0000
0001
0000
,
0000
0100
0000
0000
1000
0000
0000
0001
,
1000
0000
0010
1000
0010
1000
0001
0000
,
0010
0100
0010
0001
,
1000
0000
0000
0010
0000
0000
0001
0000
,
0000
0010
0000
0000
1000
0000
0000
0001
,
1000
0000
0001
0100
0001
0100
0010
0200
,
0000
0000
0000
0000
0000
0000
0000
0310
,
0000
1000
0100
0010
,
0100
0000
1000
0000
0001
0100
0001
1000
,
0000
0001
0010
0100
,
0010
0000
0001
0000
1000
0010
0100
0001
,
0000
0010
0100
1000
,
0100
0000
0010
0000
0001
1000
0010
0100
,
0000
0000
0001
0000
1000
0100
1000
0002
,
0000
1000
1003
1001
,
0001
0000
0000
0100
0010
0000
1000
0000
,
0000
0010
0100
0000
0001
0000
0000
0100
,
0010
0000
1000
0001
1000
0001
0100
0000
,
0001
0000
0010
0000
0100
0010
0100
0000
,
1000
0000
0000
0100
0010
0000
0001
0000
,
0000
0010
0100
0000
1000
0000
0000
0100
,
0010
0000
0001
0000
0010
0100
0010
0000
,
0200
0000
0000
0000
0000
0300
0000
1001
,
0000
0000
0100
0000
1000
0010
0100
0010
,
1000
0000
0100
0000
0010
0001
0010
0100
,
0010
0000
0001
0000
1000
0000
0100
1000
,
0010
0100
0010
0000
1000
0000
0000
1001
,
0000
0000
0010
0000
0001
0000
1000
0010
,
0100
0010
1000
0000
0100
0000
0010
0001
,
0010
0100
0010
0000
0001
0000
0100
0020
,
0000
0000
0000
0000
1000
0000
0000
0000
1000
0000
0000
0000
1030
0000
0000
0001
,
0000
0010
0000
0011
0000
0000
0000
0100
0000
1000
0000
1100
0000
0000
0000
0010
,
0000
0100
0000
0110
0000
0000
0000
0001
0000
1000
0000
1001
0000
0000
0000
0000
,
1000
0001
0100
0001
1000
0000
0001
0000
,
1000
0000
0000
0110
0000
0000
0100
0000
,
0001
1000
0100
1000
0001
0000
1000
0000
,
0001
0000
0000
0110
0000
0000
0000
0000
,
2000
0000
0000
0100
0000
3100
0020
0000
,
0000
0031
0200
0000
0000
0000
0310
0000
,
2000
0000
0000
0010
0000
3010
0200
0000
,
0000
0301
2000
0000
0000
0000
3001
0000
,
2002
0000
3003
0220
,
0000
0000
0330
0000
1100
0000
0000
0011
,
0000
0000
0110
0000
0000
0220
0000
0000
,
0330
2000
3200
0320
,
0032
0203
0320
2030
,
3002
1003
0100
0010
,
0001
1000
0000
0010
0100
0020
0000
0000
,
0000
1030
0010
0100
,
0002
2000
0000
0000
0000
0000
0000
0000
,
3003
0000
1100
0000
0100
0000
1000
0100
,
0020
0000
0001
0001
,
0031
0000
0010
0000
0010
0000
0001
0100
,
0020
0000
1000
1000
,
1030
0001
0010
1000
,
0010
0001
0100
1000
,
0100
0000
0001
1000
0001
1000
0001
1000
,
0001
0000
0100
0010
0100
0010
0100
0010
,
0100
0000
0001
0100
0000
0010
0100
0000
,
0010
1000
0000
0100
0010
0000
0002
0000
,
1003
0000
0010
0100
0000
0001
1000
0000
,
0100
0010
0000
0001
1000
0000
0200
0000
,
1300
0000
0001
0100
0000
0001
0100
0000
,
0010
1000
0000
0010
1000
0000
0001
1000
,
0000
0010
0100
0000
0001
1000
0001
1000
,
0010
0000
1000
0000
0100
0000
0010
0100
,
0000
0000
1000
0100
0000
1000
0100
0000
,
0010
0001
0000
0010
0001
0000
0010
0100
,
0000
1000
0001
0000
0100
0010
0100
0010
,
0100
0001
1000
0000
0000
1001
0000
0000
;

//---------------dance-single - ----------------
#NOTES:
     dance-single:
     :
     Hard:
     8:
     0.623,0.695,0.279,0.186,0.144: // measure 1
0002
0100
0000
0013
,  // measure 2
0200
1000
0000
0310
,  // measure 3
0002
0000
1000
0000
0000
0000
0103
0020
,  // measure 4
0000
1000
1030
1001
,  // measure 5
1000
0100
0000
0001
0100
0000
1000
0100
,  // measure 6
0000
0001
0100
0000
1000
0100
0000
0001
,  // measure 7
0100
0000
1000
1000
0100
0010
0001
0100
,  // measure 8
0010
0100
0001
1000
0000
1000
0001
0000
,  // measure 9
1000
0100
0000
0001
0100
0000
1000
0100
,  // measure 10
0000
0001
0100
0000
1000
0100
0000
0001
,  // measure 11
0100
0000
1000
1000
0001
0010
0100
2000
,  // measure 12
0000
0000
0001
0000
3001
0100
0010
0110
,  // measure 13
0000
0000
0001
0010
0000
0100
0001
0100
,  // measure 14
0000
1000
0001
1000
0000
0100
1000
1001
,  // measure 15
0000
1000
0010
0100
0000
0001
0100
2000
,  // measure 16
0000
0000
0001
0000
3001
0100
0010
0110
,  // measure 17
0000
0000
1000
0010
0000
0100
1000
0100
,  // measure 18
0000
0001
0010
0001
0000
0100
0001
1001
,  // measure 19
0000
0001
1000
0100
0010
0100
1000
0002
,  // measure 20
0000
0100
0103
1001
,  // measure 21
1000
0010
0001
0010
1000
0000
0001
0010
,  // measure 22
1000
0010
0001
0000
1000
0100
0001
0100
,  // measure 23
1000
0000
0001
0001
1000
0100
0010
0100
,  // measure 24
1000
0001
0100
0010
0000
0010
0100
0000
,  // measure 25
0001
0100
1000
0100
0001
0000
1000
0100
,  // measure 26
0001
0100
1000
0000
0001
0010
1000
0010
,  // measure 27
0001
0000
1000
1000
0001
0100
0010
0100
,  // measure 28
0001
0000
0000
0000
1000
0000
0000
0000
0001
0000
0000
0000
0200
0000
0000
0000
0000
0000
0300
0000
0000
1001
0000
0000
,  // measure 29
0000
0000
1000
0010
1000
0100
0010
0001
,  // measure 30
1000
0010
0100
0010
0000
1000
0100
1000
,  // measure 31
0001
0100
0001
0010
0100
1000
0001
0200
,  // measure 32
0000
0000
0010
0000
0310
1000
0001
1001
,  // measure 33
0000
0000
0001
0010
0001
0100
0010
1000
,  // measure 34
0100
0010
0100
1000
0000
0010
0100
0010
,  // measure 35
1000
0100
1000
0010
0100
0001
0010
0200
,  // measure 36
0000
0000
1000
0000
1300
0001
0000
1001
,  // measure 37
0000
0100
1000
0000
0010
0000
0100
0000
0010
0000
1000
0000
0001
1000
0000
0110
,  // measure 38
0000
0010
0100
0000
0001
0010
0100
0000
1000
0010
0200
0000
0000
0300
0000
0000
,  // measure 39
0001
0100
0001
0100
0001
1000
0001
1001
,  // measure 40
0000
0100
0010
0110
0000
0010
0100
0010
,  // measure 41
1000
0100
1000
0100
1000
0001
1000
1001
,  // measure 42
0000
0010
0100
0210
0000
0001
0301
0000
,  // measure 43
1000
0100
0000
0001
0000
0100
1000
0100
,  // measure 44
0000
0001
0200
0000
1000
1000
1300
0000
,  // measure 45
0001
0010
0000
1000
0000
0010
0001
0010
,  // measure 46
0000
1000
0020
0000
0001
0001
0031
0000
,  // measure 47
1000
0000
0000
0100
0000
0000
0001
0000
0000
0100
0000
0000
1000
0000
0000
0010
,  // measure 48
0000
0000
0100
0000
0000
0001
0000
0000
0010
0100
0000
0010
0100
0000
1000
0001
,  // measure 49
0000
1000
0001
0000
0100
0010
0000
0100
0010
0000
1000
0001
1000
0001
1000
0002
,  // measure 50
0003
0000
0000
2001
0000
0000
0010
3010
0000
0100
0000
0010
0000
1000
0000
0001
,  // measure 51
0000
0010
0100
0000
1001
0000
0001
2000
0000
3010
1000
0001
0000
0010
0001
0200
,  // measure 52
0000
0000
0310
0100
0010
0100
0001
0010
,  // measure 53
0001
1001
0000
0100
0010
0110
0000
0010
,  // measure 54
0100
0100
0001
1000
0001
1000
0100
0010
,  // measure 55
0001
2002
0000
0000
0000
0000
0000
0000
,  // measure 56
3003
0000
0101
0000
0110
0000
1000
0100
,  // measure 57
0002
0000
0000
0103
1000
0010
0100
0001
,  // measure 58
0010
0100
1100
0000
0101
0000
1000
0100
,  // measure 59
0002
0000
0000
0103
1000
0001
0000
0001
,  // measure 60
1000
0000
0001
0010
1000
0010
0001
0010
,  // measure 61
1000
0010
0001
0100
1000
0100
0001
0100
,  // measure 62
1000
0100
0001
0010
0100
1000
0100
0010
,  // measure 63
0001
0010
1000
0010
0100
1000
0100
0001
,  // measure 64
0100
0010
0001
0101
0000
0100
0110
0000
,  // measure 65
1000
1100
0000
0100
0110
0000
0001
1000
,  // measure 66
0100
0000
1000
1100
0000
0100
0110
0000
,  // measure 67
0001
0101
0000
0100
0110
0000
1000
0001
,  // measure 68
0100
0000
0001
0010
0000
1000
0010
0000
,  // measure 69
0001
0100
0000
1000
0100
0000
0001
0010
,  // measure 70
0000
1000
0010
0000
0001
0010
0100
1000
,  // measure 71
0010
0001
0010
1000
0001
0100
0000
0100
,  // measure 72
0001
0000
1000
0010
0000
0001
0010
0000
,  // measure 73
1000
0100
0000
0001
0100
0000
1000
0010
,  // measure 74
0000
0001
0010
0000
1000
0100
0010
0001
,  // measure 75
0010
0000
1000
0000
0010
0000
0000
0011
0000
0000
1001
0000
0000
0000
0000
0000
;

//---------------dance-single - ----------------
#NOTES:
     dance-single:
     :
     Beginner:
     1:
     0.085,0.157,0.025,0.000,0.000:
0001
0000
0000
0000
,
0000
0000
0000
0000
,
1000
0000
0000
0000
,
0000
0000
0000
0000
,
1001
0000
0000
0000
,
0000
0000
0000
0000
,
0001
0000
1000
0000
,
0001
0000
0000
0000
,
1001
0000
0000
0000
,
0000
0000
0000
0000
,
1000
0000
0001
0000
,
1000
0000
0000
0000
,
0001
0000
0000
0000
,
0000
0000
0000
0000
,
0010
0000
0000
0000
,
0000
0000
0000
0000
,
0100
0000
0000
0000
,
0000
0000
0000
0000
,
1000
0000
0000
0000
,
0000
0000
0000
0000
,
0001
0000
1000
0000
,
0001
0000
0000
0000
,
1000
0000
0001
0000
,
1000
0000
0000
0000
,
0100
0000
1000
0000
,
0100
0000
0000
0000
,
0010
0000
0001
0000
,
0010
0000
0000
0000
,
1001
0000
0000
0000
,
0000
0000
0000
0000
,
0001
0000
0000
0000
,
0000
0000
0000
0000
,
0100
0000
0000
0000
,
0000
0000
0000
0000
,
0010
0000
0000
0000
,
0100
0000
0000
0000
,
0000
0000
0000
0000
,
0001
0000
0000
0000
,
1000
0000
0000
0000
,
0001
0000
0000
0000
,
1000
0000
0000
0000
,
0001
0000
0000
0000
,
0100
0000
0000
0000
,
0000
0000
0000
0000
,
0100
0000
0000
0000
,
0000
0000
0000
0000
,
0100
0000
0000
0000
,
0000
0000
0000
0000
,
0000
0000
0000
0000
,
0000
1000
0000
0000
,
0000
0001
0000
0000
,
0000
1000
0000
1000
,
0000
1000
0000
0000
,
0000
0001
0000
0001
,
0000
0001
0000
0000
,
0000
0100
0000
0000
,
0000
0000
0000
0000
,
0000
0010
0000
0000
,
0000
0000
0000
0000
,
0000
1000
0000
0000
,
0000
0001
0000
0000
,
0000
1000
0000
0000
,
0000
0001
0000
0000
,
0000
0100
0000
0000
,
0000
0000
0000
0000
,
0000
0100
0000
0000
,
0000
0000
0000
0000
,
0000
0010
0000
0100
,
0000
0010
0000
0000
,
0000
1000
0000
0001
,
0000
1000
0000
0000
,
0000
0001
0000
1000
,
0000
0001
0000
0000
,
0000
0010
0000
0100
,
0000
0010
0000
0000
;
