#TITLE:Bad Communication;
#SUBTITLE:E.Style;
#ARTIST:B'z;
#TITLETRANSLIT:;
#SUBTITLETRANSLIT:;
#ARTISTTRANSLIT:;
#CREDIT:DigiMindAxel;
#BANNER:Bad Communication E.Style.png;
#BACKGROUND:Bad Communication E.Style-bg.png;
#LYRICSPATH:Bad Communication E.Style.lrc;
#CDTITLE:DigiMindAxel original simfile.png;
#MUSIC:Bad Communication E.Style.mp3;
#OFFSET:-8.080;
#SAMPLESTART:64.080;
#SAMPLELENGTH:12.000;
#SELECTABLE:YES;
#BPMS:0.000=119.950;
#STOPS:174.000=0.500
;
#BGCHANGES:;

//---------------dance-single - ----------------
#NOTES:
     dance-single:
     :
     Beginner:
     1:
     0.068,0.090,0.048,0.000,0.000:
0001
0000
0000
0000
,
0001
0000
0000
0000
,
1000
0000
0000
0000
,
1000
0000
0000
0000
,
1001
0000
0000
0000
,
0010
0000
0000
0000
,
0010
0000
0000
0000
,
0010
0000
0000
0000
,
0100
0000
0000
0000
,
0100
0000
0000
0000
,
0001
0000
0000
0000
,
1000
0000
0000
0000
,
1001
0000
0000
0000
,
1000
0000
0000
0000
,
0001
0000
0000
0000
,
1000
0000
0000
0000
,
1000
0000
0000
0000
,
0001
0000
0000
0000
,
0001
0000
0000
0000
,
1000
0000
0000
0000
,
1001
0000
0000
0000
,
0000
0000
0000
0000
,
0100
0000
0000
0000
,
0000
0000
0000
0000
,
0010
0000
0000
0000
,
0000
0000
0000
0000
,
0001
0000
0000
0000
,
0000
0000
0000
0000
,
1001
0000
0000
0000
,
1000
0000
0000
0000
,
0001
0000
0000
0000
,
1000
0000
0000
0000
,
0010
0000
0000
0000
,
0100
0000
0000
0000
,
0010
0000
0000
0000
,
1000
0000
0000
0000
,
1001
0000
0000
0000
,
0001
0000
0000
0000
,
0010
0000
0000
0000
,
0100
0000
0000
0000
,
0010
0000
0000
0000
,
0001
0000
0000
0000
,
1000
0000
0000
0000
,
0001
0000
0000
1000
,
0000
0000
0000
1000
,
0000
0000
0000
0001
,
0000
0000
0000
0001
,
0000
0000
0100
0000
;

//---------------dance-single - ----------------
#NOTES:
     dance-single:
     :
     Medium:
     6:
     0.390,0.363,0.343,0.057,0.000:
0001
0110
0001
0110
,
1000
0110
1000
0110
,
0001
1000
0001
1000
0001
1000
0001
0000
,
0100
0010
0100
0000
0001
0001
1000
0000
,
0110
0001
0100
0010
,
0100
0001
0010
0100
,
1000
0010
1000
0000
0001
0100
0001
0000
,
0010
0000
0100
0000
1000
0000
0010
0100
,
0020
0000
0000
0000
0030
0100
0010
0100
,
0002
0000
0003
1000
,
0110
0110
0110
0110
,
1001
1001
1001
0000
,
0010
0100
0010
0100
0010
0000
0000
0000
,
1000
0001
1000
0001
1000
0000
0000
0000
,
0100
0010
0001
0000
0100
0010
0100
0000
,
0001
0010
0100
0000
0010
0100
0010
0000
,
0010
0000
0110
0000
0000
1000
0001
1000
,
0010
0100
0010
0000
1000
0001
1000
0000
,
1001
1001
1001
1001
,
0110
0110
0110
0000
,
1001
0000
0100
1000
0100
0000
0000
0000
,
1001
0000
0010
0001
0010
0000
0110
0000
,
0100
0000
0010
0000
0200
0000
0000
0301
,
1000
0100
0010
1001
,
0020
0130
0101
0000
,
0200
0310
1010
0110
,
1001
0000
0010
0000
0100
0000
1000
0100
,
2000
0000
0000
0010
3010
0000
0000
0000
,
0110
0000
0110
0000
0010
0100
0001
0000
,
0010
0000
0100
0000
1000
0010
0100
0000
,
0001
1000
0001
1000
0001
1000
0001
0000
,
0100
0010
0100
0000
0010
0100
0010
0000
,
0110
0000
0110
0000
0001
0100
0001
0000
,
0010
0100
1000
0000
0010
0100
0010
0000
,
1000
0001
1000
0001
1000
0001
1000
0000
,
0100
1000
0100
1000
0100
1000
0100
0000
,
1001
0000
1001
0000
0010
0100
0010
0000
,
1000
0000
0001
0000
0010
0001
0010
0000
,
0100
0010
0100
0010
0100
0010
0100
0000
,
1000
0001
1000
0000
0010
0100
0010
0000
,
0110
0000
0110
0000
0010
0100
0010
0000
,
0001
1000
0001
0000
0010
0100
0010
0000
,
0001
0010
0001
0010
0001
1000
0001
1000
,
0001
0010
0001
0010
0001
0000
1000
1000
,
1000
0000
0010
0100
0010
1000
0000
0001
,
0001
0000
0100
0010
0100
0001
0000
1000
,
1000
0000
0001
0010
0100
1000
0000
0001
,
0001
0000
1000
0100
0010
0001
0000
0000
;

//---------------dance-single - ----------------
#NOTES:
     dance-single:
     :
     Hard:
     8:
     0.551,0.499,0.362,0.190,0.357: // measure 1
1000
0000
0000
0000
1001
0000
0000
0000
0001
1000
0000
0200
0000
0000
0310
0000
,  // measure 2
0000
0000
0100
0000
0110
0000
0000
0000
0001
1000
0000
0200
0000
0000
0310
0000
,  // measure 3
0001
0001
1000
1000
0001
0010
1000
0010
,  // measure 4
0001
0000
0001
0000
1000
0000
0000
0000
0010
0100
0010
0100
0010
0100
0010
0100
,  // measure 5
0010
0000
1000
0000
0100
0000
0010
0100
0000
0000
1000
0000
0010
0000
1000
0000
,  // measure 6
0001
0000
0100
0000
0010
0000
0100
0002
0000
0000
0000
0000
1003
0000
0000
0000
,  // measure 7
0001
0000
0001
0000
0100
0000
0010
0000
0100
0001
0000
1000
0000
1000
0000
0000
,  // measure 8
0001
0010
0100
0010
0001
1000
0010
0010
,  // measure 9
0210
0000
0001
0000
0310
1000
0100
0010
,  // measure 10
0002
0000
1000
0000
0103
0000
0001
1000
,  // measure 11
1100
0101
1100
1001
,  // measure 12
0101
0000
0000
0000
1100
0000
0000
0000
0101
0000
0000
0000
0001
0000
1000
0001
,  // measure 13
1000
0000
0010
0000
0100
0000
0010
1000
0000
0000
0001
0000
0010
0000
0001
0000
,  // measure 14
1000
0000
0010
0000
0100
0000
0010
2000
0000
0000
0000
0000
3001
0000
0000
0000
,  // measure 15
1000
0000
1000
0000
0001
0000
0010
0001
0010
0000
0002
0000
0000
0000
1003
0000
,  // measure 16
0100
0000
0010
0000
0001
1000
0000
0010
0000
0000
0000
0000
0001
0000
0010
0000
,  // measure 17
1000
0000
1002
0000
1003
0100
0001
0100
,  // measure 18
1000
0001
0001
0000
1000
0000
0001
0100
,  // measure 19
0101
1100
0101
1001
,  // measure 20
1100
0000
0000
0000
0101
0000
0000
0000
1100
0000
0000
0000
1000
0000
0001
1000
,  // measure 21
0002
0000
0000
0100
0000
0000
0100
0000
0103
0000
0001
0000
1000
0000
0000
0000
,  // measure 22
0200
0000
0000
1000
0000
0000
1000
0000
1300
0000
0010
0000
0110
0000
0000
0000
,  // measure 23
1000
0100
0001
0100
2000
0000
3001
0100
,  // measure 24
1000
0100
0001
0010
0100
0000
0110
0000
,  // measure 25
2000
0000
0000
0010
0000
0000
0010
0000
3010
0000
1000
0000
0001
0000
0000
0000
,  // measure 26
0020
0000
0000
0001
0000
0000
0001
0000
0031
0000
0100
0000
0110
0000
0000
0000
,  // measure 27
1000
0010
0001
0010
2000
0000
3001
0010
,  // measure 28
1000
0000
0010
0000
0001
0000
1000
0000
0100
0000
1000
0000
0010
0100
0010
0100
,  // measure 29
0010
0000
0000
0000
0110
0000
0000
0000
1000
0000
0001
0200
0000
0000
0301
0000
,  // measure 30
0000
0000
1000
0000
1100
0000
0000
0000
1000
0001
0000
0001
0100
0000
0001
0000
,  // measure 31
1000
0000
1000
0000
0001
0000
0001
0000
0010
0000
0100
0010
0000
0010
0100
0000
,  // measure 32
1000
0001
0000
1000
0001
0000
0000
0000
0010
0100
0010
0000
0100
0010
0100
0000
,  // measure 33
0110
0000
0000
0000
0110
0000
0000
0000
0001
0000
1000
0200
0000
0000
1300
0000
,  // measure 34
0000
0000
0001
0000
0011
0000
0000
0000
0001
1000
0000
1000
0100
0000
1000
0000
,  // measure 35
0001
0000
0001
0000
0010
0000
0100
0000
1000
0000
0010
0100
0000
0100
0010
0000
,  // measure 36
1000
0100
0000
1000
0100
0000
0010
0001
0000
0010
0001
0000
0100
0000
0010
0100
,  // measure 37
0010
0000
0000
0000
0110
0000
0000
0000
1000
0000
0001
0200
0000
0000
0310
0000
,  // measure 38
0000
0000
1000
0000
1001
0000
0000
0000
1000
0001
0000
0001
0100
0000
0010
0000
,  // measure 39
1000
0000
1000
0000
0100
0000
0001
0000
0100
0000
1000
0001
0000
0001
1000
0000
,  // measure 40
0010
0000
0100
0010
0200
0000
0000
0000
0301
1000
0001
0000
1000
0001
1000
0000
,  // measure 41
0110
0000
0000
0000
0110
0000
0000
0000
0001
0000
1000
0020
0000
0000
0130
0000
,  // measure 42
0000
0000
0001
0000
1001
0000
0000
0000
1000
0010
0000
0010
0100
0000
0010
0000
,  // measure 43
0110
1001
0110
1001
,  // measure 44
1100
0100
0110
0010
0011
0000
1000
0001
,  // measure 45
0001
0000
0000
0000
0010
0100
0000
1000
0000
0001
1000
0001
0000
0000
1000
0000
,  // measure 46
1000
0000
0000
0000
0100
0010
0000
0001
0000
1000
0001
1000
0020
0000
0100
0000
,  // measure 47
0130
0000
0000
0000
0001
1000
0000
0010
0000
0100
0010
0100
0001
0000
1000
0100
,  // measure 48
1000
0100
0010
0001
0010
0001
0100
0010
0100
0010
0100
0001
0000
0000
0000
0000
;

//---------------dance-single - ----------------
#NOTES:
     dance-single:
     :
     Easy:
     3:
     0.220,0.249,0.086,0.029,0.000:
0001
0001
1000
0000
,
0100
0100
0010
0000
,
0001
1000
0001
1000
,
0010
0100
0001
0000
,
1001
0000
0000
0000
,
1000
0001
1000
0000
,
0010
0100
0010
0000
,
1000
0001
1000
0000
,
0200
0000
0000
0000
,
0320
0000
0030
0000
,
0001
1000
0001
1000
,
0001
0010
0100
0000
,
1000
0001
1000
0000
,
0100
0010
0100
0000
,
0010
0001
0010
0000
,
0100
1000
0100
0010
,
0100
0000
0000
0010
,
0001
0010
0000
0100
,
1000
1000
0001
0001
,
1000
1000
0001
0000
,
0010
0100
1000
0000
,
0100
0010
0001
0000
,
1000
0001
1000
0000
,
0001
1000
0001
0000
,
0100
0010
0100
0000
,
0010
0100
0010
0000
,
1000
0100
0010
0001
,
2000
0000
3001
0000
,
1001
1001
0100
0100
,
0000
0010
0100
0010
,
1000
1000
0001
0001
,
0010
0100
1000
0000
,
0110
0110
0100
0100
,
0000
0001
1000
0100
,
1000
0001
1000
0001
,
1000
0010
0100
0001
,
1001
1001
0010
0010
,
0100
0010
0100
0010
,
1000
0001
0010
0100
,
1000
0001
1000
0001
,
1001
1001
0100
0100
,
0010
0100
0010
0000
,
1000
0100
0010
0001
,
0010
0100
1000
0010
,
0010
0000
0000
0100
,
0100
0000
0000
0001
,
0001
0000
0000
1000
,
1000
0010
0100
0000
;
