#TITLE:BROKEN EDEN;
#SUBTITLE:;
#ARTIST:MYTHOLOGIA by MLREC.;
#TITLETRANSLIT:;
#SUBTITLETRANSLIT:;
#ARTISTTRANSLIT:;
#CREDIT:DigiMindAxel;
#BANNER:BROKEN EDEN.png;
#BACKGROUND:BROKEN EDEN-bg.png;
#LYRICSPATH:;
#CDTITLE:beatmania IIDX.png;
#MUSIC:BROKEN EDEN.mp3;
#OFFSET:-7.095;
#SAMPLESTART:18.877;
#SAMPLELENGTH:12.000;
#SELECTABLE:YES;
#DISPLAYBPM:162.000;
#BPMS:0.000=162.000,124.000=81.000,130.000=162.000;
#STOPS:27.000=1.481
,124.000=2.963
;
#BGCHANGES:0.000=white.PNG=1.000=0=0=1,
0.500=Light1.avi=1.000=1=0=1,
4.000=white.PNG=1.000=0=0=1,
4.500=Light6.avi=1.000=1=0=1,
8.000=white.PNG=0.900=0=0=1,
8.500=no002.avi=1.000=1=0=1,
12.000=white.PNG=1.000=0=0=1,
12.500=Spark1.avi=1.000=1=0=1,
16.000=white.PNG=1.000=0=0=1,
16.500=Tunnel9.avi=1.000=1=0=1,
26.500=white.PNG=1.000=1=0=1,
28.000=Light7.avi=1.000=1=0=1,
44.000=no002.avi=1.000=0=0=1,
60.000=Light6.avi=1.000=0=0=1,
76.000=Spark1.avi=1.000=0=0=1,
92.000=white.PNG=1.000=0=0=1,
92.500=Light1.avi=1.000=1=0=1,
123.500=white.PNG=1.000=0=0=1,
126.000=popup2=0.500=1=0=1,
130.000=white.PNG=1.000=0=0=1,
130.500=Light1.avi=1.000=1=0=1,
134.000=white.PNG=1.000=0=0=1,
134.500=Light6.avi=1.000=1=0=1,
138.000=white.PNG=1.000=0=0=1,
138.500=no002.avi=1.000=1=0=1,
142.000=white.PNG=1.000=0=0=1,
142.500=Spark1.avi=1.000=1=0=1,
146.000=white.PNG=1.000=1=0=1,
150.000=Light7.avi=1.000=1=0=1,
165.500=Light6.avi=1.000=0=0=1,
182.000=Tunnel9.avi=1.000=1=0=1,
198.500=Spark1.avi=1.000=0=0=1,
214.000=white.PNG=1.000=1=0=1,
218.000=Light1.avi=1.000=1=0=1,
227.000=Tunnel9.avi=1.000=0=0=1,
234.000=Light6.avi=1.000=0=0=1,
238.500=no002.avi=1.000=0=0=1,
250.000=white.PNG=1.000=0=0=1,
250.500=BROKEN EDEN-bg.png=1.000=1=0=1,
99999=-nosongbg-=1.000=0=0=0 // don't automatically add -songbackground-
;

//---------------dance-single - ----------------
#NOTES:
     dance-single:
     :
     Easy:
     4:
     0.269,0.271,0.078,0.121,0.000:
2000
0000
0000
0000
,
3002
0000
0000
0000
,
2003
0000
0000
0000
,
3002
0000
0000
0000
,
1003
0001
1000
0001
,
0100
0010
0100
0001
,
2002
0000
0000
3003
,
0110
0001
0001
0001
,
1000
1000
1000
1000
,
0001
0100
0001
0100
,
0010
1000
0010
1000
,
0001
0001
0001
0001
,
1000
1000
1000
1000
,
0100
0010
0100
0010
,
0002
0000
0000
0000
,
1003
0001
1000
0001
,
1000
0010
1000
0010
,
0100
0001
0100
0001
,
2000
0000
0000
0000
,
3010
0100
0010
0100
,
0001
1000
0001
1000
,
0001
0010
0001
0010
,
0100
1000
0100
0000
,
1001
1000
1000
1000
,
0001
0001
0001
0001
,
1000
1000
1000
1000
,
0001
0001
0001
0001
,
0010
0100
1000
0001
,
0010
0100
1000
0100
,
0010
0001
1000
0100
,
0010
0001
1000
0000
,
1001
0000
0000
0000
,
0000
0000
0110
0000
,
0000
0000
0010
0000
,
0000
0000
0100
0000
,
0000
0000
0010
0010
,
0010
0010
0110
0000
,
0000
0000
1001
0001
,
0001
1000
0001
0001
,
1000
0001
1000
1000
,
0001
1000
1000
1000
,
0001
1000
0100
0010
,
0001
0100
0001
0010
,
0100
1000
0010
0100
,
0010
0100
0020
0000
,
0000
0000
0130
0001
,
1000
1000
0001
0100
,
0010
0010
0100
0001
,
1000
1000
0010
1000
,
0001
0100
0002
0000
,
0000
0000
2003
0000
,
0000
0000
3001
0010
,
0100
1000
0020
0000
,
0000
0000
0200
0000
,
0000
0330
1001
1000
,
1000
0100
0010
0001
,
1000
0010
0100
0010
,
1000
0001
0001
0001
,
0001
0010
0100
1000
,
0001
0000
0000
0100
0000
0010
0100
0000
,
0000
0001
0000
0100
0000
0001
0000
0100
,
0000
0010
0000
1000
0002
0000
0000
0000
,
1003
0000
1001
0000
;

//---------------dance-single - ----------------
#NOTES:
     dance-single:
     :
     Medium:
     6:
     0.439,0.413,0.061,0.173,0.026:
0001
1000
0000
0010
0000
1000
0000
0010
,
1000
0001
0000
0010
0000
0001
0000
0010
,
0001
0100
0000
0010
0000
0100
0000
0010
,
1000
0100
0000
1000
0000
0100
0000
1000
,
0001
0100
0001
0000
0010
0100
1000
0000
,
1000
0010
1000
0000
0100
0010
0001
1000
,
0020
0000
0000
0030
,
2100
0001
0001
3001
,
0001
0100
0001
0000
0100
0010
1000
0000
,
0002
1000
1000
1003
,
1000
0000
0010
0000
1000
0000
0000
0010
0000
0000
0100
0000
0001
0000
0000
0000
,
0102
1000
1000
1003
,
1000
0010
1000
0000
0010
0100
0001
0000
,
0100
0001
0100
0000
0010
1000
0100
0000
,
0020
0000
0000
0030
,
0101
0000
1000
0000
0100
1000
0010
0000
,
0100
0001
0010
0000
0001
0010
0001
0000
,
0010
0001
1000
0000
0010
1000
0100
0000
,
1000
0000
0100
0000
0010
0000
0000
0001
0000
0000
0100
0000
0010
0000
0000
0000
,
1100
0000
0001
0000
0100
0001
0010
0000
,
0100
1000
0010
0000
1000
0010
1000
0000
,
0010
1000
0010
1000
0001
0010
0001
0010
,
0001
0000
0000
1000
0000
0010
0100
0000
0000
0000
0000
0000
,
0001
0100
0001
0100
0001
0000
1000
0100
,
1000
0100
1000
0000
0100
0010
0100
0010
,
0100
0000
1000
0010
1000
0010
1000
0000
,
0001
0010
0001
0010
0001
0000
0010
0100
,
0010
0100
0010
0000
0001
0100
0010
0100
,
0001
0000
1000
0010
0100
0010
1000
0000
,
0001
0100
0000
1000
0000
0100
0000
0001
,
2000
0000
0000
0100
3100
0000
0000
0000
,
2002
3003
0000
0000
0000
0000
0000
0000
0000
0000
0000
0000
0000
0000
0000
0000
0000
0000
0000
0000
0000
0000
0000
0000
2000
0000
0000
0000
0000
0000
0000
0000
0000
0000
0000
0000
0000
0000
0000
0000
0000
0000
0000
0000
0000
0000
0000
0000
,
3002
0000
2003
0000
,
0000
0000
3002
0000
,
0000
0000
0203
0000
,
0320
0000
0130
0010
,
0100
0010
0220
0000
,
0000
0000
0330
0000
1000
0010
0100
0001
,
1000
0000
1000
0000
0001
0100
0010
1000
,
0001
0000
0001
0000
1000
0100
0010
0001
,
1000
0000
1000
0000
0001
0010
0100
1000
,
0001
0000
0000
0100
0000
0000
0001
0000
1000
0000
0010
0000
0100
0000
0001
0000
,
0100
0001
0100
0000
0001
0100
0010
1000
,
0010
1000
0010
0000
1000
0010
1000
0001
,
0010
0000
0000
0001
0000
0000
0010
0000
0000
0100
0000
0000
1000
0000
0000
0000
0000
0000
0001
0000
0000
0000
0100
0000
,
0010
0000
0000
0000
0010
0000
0100
0000
0000
0000
0000
0000
0010
0000
0000
1000
0000
0000
0100
0000
0000
1000
0000
0000
,
0001
0100
0001
0000
0100
0001
0010
0001
,
1000
0010
1000
0000
0100
1000
0010
1000
,
0001
0010
0001
0000
0010
0001
0100
0001
,
1000
0100
1000
0000
0001
0100
0000
0100
,
0000
0100
0000
0100
0000
0010
0000
0010
,
0000
0010
0000
0010
1000
0100
0010
0001
,
1000
0100
1000
0001
0100
0000
0000
0000
,
0001
0100
1000
0100
0002
0000
0000
0000
,
0000
0000
0003
0000
1000
0010
1000
0010
,
0100
0000
0001
0010
0001
0010
0100
0000
,
1000
0001
0100
0001
1000
0000
0100
0010
,
0001
0010
0100
0000
0010
0100
0010
0001
,
0010
0000
0100
0010
0001
0100
0010
0000
,
1000
0100
0000
0010
0000
0001
0100
0001
,
0000
0100
0000
0010
0000
1000
0010
1000
,
0000
0001
0000
0100
0002
0000
0000
0000
,
1000
1003
0000
0000
2002
0000
0000
0000
,
0000
0000
3003
0000
;

//---------------dance-single - ----------------
#NOTES:
     dance-single:
     :
     Hard:
     8:
     0.520,0.471,0.234,0.234,0.095: // measure 1
0201
0001
0001
0301
,  // measure 2
1200
1000
1000
1300
,  // measure 3
1002
0100
0100
0103
,  // measure 4
2001
0100
0100
3100
,  // measure 5
1000
0001
0100
0000
0001
0100
1000
0100
,  // measure 6
0001
1000
0100
0000
1000
0100
0001
0100
,  // measure 7
2000
0000
0000
3000
,  // measure 8
0100
0010
0100
0000
1000
0010
0100
0000
,  // measure 9
0010
0100
0010
0000
0100
0010
1000
0000
,  // measure 10
0100
0010
0100
0000
1000
0100
0001
0000
,  // measure 11
0100
0000
1000
0000
0001
0000
0000
0100
0000
0000
0001
0000
1000
0000
0001
0000
,  // measure 12
0010
0100
0010
0000
0100
0010
0001
0000
,  // measure 13
1000
0010
0100
0000
0010
0100
0010
0000
,  // measure 14
1000
0000
0010
0000
0100
0000
0001
0000
0100
0000
0000
1000
0000
0000
0100
0000
,  // measure 15
0002
0000
1000
1003
,  // measure 16
1001
0010
0100
1000
0001
0100
0010
0000
,  // measure 17
1000
0010
1000
0010
0100
0001
0010
0000
,  // measure 18
0100
1000
0100
0010
0001
0100
0010
0000
,  // measure 19
1000
0000
0010
0000
1000
0000
0000
0001
0000
0001
1000
0000
0010
0000
0000
0000
,  // measure 20
1001
0010
0100
1000
0001
0100
0010
0000
,  // measure 21
1000
0100
1000
0100
0010
0001
0100
0000
,  // measure 22
0010
1000
0010
0100
0001
1000
0100
0000
,  // measure 23
1000
0000
1000
0100
0000
0100
0002
0000
0000
1003
0000
0000
,  // measure 24
0001
0100
0001
0100
0010
1000
0100
0010
,  // measure 25
0001
0100
0010
0000
1000
0100
1000
0100
,  // measure 26
0010
0001
0100
0010
1000
0100
0010
0000
,  // measure 27
0001
0100
0010
1000
1000
0100
0001
0100
,  // measure 28
1000
0001
0001
0000
1000
0010
0100
0001
,  // measure 29
0001
0100
1000
0100
0001
1000
1000
0000
,  // measure 30
0001
1000
0000
0110
0000
0001
0000
1000
,  // measure 31
0001
0010
0100
2000
0001
3001
0000
0000
,  // measure 32
2002
3003
0000
0000
0000
0000
0000
0000
0000
0000
0000
0000
0000
0000
0000
0000
0000
0000
0000
0000
0000
0000
0000
0000
0200
0000
0000
0000
0000
0000
0000
0000
0000
0000
0000
0000
0000
0000
0000
0000
0000
0000
0000
0000
0000
0000
0000
0000
,  // measure 33
0320
0000
0000
0030
1002
0000
0000
0000
,  // measure 34
0100
0003
2001
0000
,  // measure 35
0100
3000
0220
0030
,  // measure 36
0002
0303
0110
1000
,  // measure 37
0001
0100
0220
0000
,  // measure 38
0000
0000
0330
0000
0001
0100
0001
1000
,  // measure 39
0100
0000
0000
0100
0000
0000
0100
0000
1000
0000
0100
0000
1000
0000
0001
0000
,  // measure 40
0010
0000
0000
0010
0000
0000
0010
0000
0001
0000
0010
0000
0001
0000
1000
0000
,  // measure 41
0010
0000
0000
0010
0000
0000
0010
0000
1000
0000
0001
0000
1000
0000
0100
0000
,  // measure 42
0010
0000
0000
0110
0000
0000
0100
0000
0001
0000
1000
0000
0001
0000
1000
0000
,  // measure 43
0100
0001
0100
1000
0100
0010
0100
1000
,  // measure 44
0001
0010
0100
1000
0001
0100
0001
1000
,  // measure 45
0100
0000
0000
0001
0000
0000
0100
0000
0000
0010
0000
0000
0001
0000
0000
0000
0001
0000
0100
0000
0000
0000
0100
0000
,  // measure 46
1000
0000
0000
0000
1000
0000
0001
0000
0000
0000
0000
0000
1000
0000
0000
0010
0000
0000
1000
0000
0000
0001
0000
0000
,  // measure 47
0010
0000
0001
1000
0000
0000
1000
0000
0001
0000
0010
0000
0001
0000
1000
0000
,  // measure 48
0100
0000
1000
0001
0000
0000
0001
0000
1000
0000
0010
0000
1000
0000
0001
0000
,  // measure 49
0100
0000
0000
0000
0000
0000
0001
0000
0000
1000
0000
0000
0000
0000
0000
0000
0000
0000
1000
0000
0000
0000
0000
0000
0001
0000
0000
0000
0000
0000
0000
0000
0001
0000
0000
0000
0100
0000
0000
0000
0000
0000
0000
0000
0100
0000
0000
0000
,  // measure 50
1000
0000
1000
0100
0000
0100
0002
0000
0000
0000
0000
0000
,  // measure 51
1000
1000
2003
0000
,  // measure 52
0001
0000
0001
0000
3001
0010
0100
1000
,  // measure 53
0001
0100
1000
0100
0002
0000
0203
0000
,  // measure 54
0310
1000
0001
0010
0200
0000
0000
0000
,  // measure 55
0000
0300
0101
0101
,  // measure 56
0010
1000
0100
0001
0100
1000
0010
0000
,  // measure 57
1010
0000
1010
0000
0100
0001
0010
1000
,  // measure 58
0010
0000
0001
0000
0100
0000
0000
0000
0001
1000
0001
0000
0010
0000
0100
0000
,  // measure 59
0010
0000
0001
0000
1000
0001
1000
0000
0100
0000
0010
0000
0100
0000
1000
0000
,  // measure 60
0010
0100
0000
1010
0000
1001
1000
0001
,  // measure 61
0000
0101
0000
1001
0000
1010
0000
1001
,  // measure 62
0000
0011
0000
1001
0001
1000
0100
0020
,  // measure 63
0100
0130
0000
1000
2002
0000
0000
0000
,  // measure 64
0000
0000
0000
0000
,  // measure 65
3003
0000
0000
0000
;

//---------------dance-single - ----------------
#NOTES:
     dance-single:
     :
     Challenge:
     9:
     0.734,0.749,0.156,0.095,0.689:
1100
0010
0100
1000
,
0011
0100
0010
0001
,
1010
0000
0100
0000
0001
1000
0010
0000
,
0101
0000
0010
0000
1000
0001
0100
0000
,
0010
1000
0010
1000
0100
0001
0100
1000
,
0001
1000
0001
0010
1000
0010
0001
1000
,
0002
0000
0000
0100
0000
0000
0100
0000
0000
0100
0000
0000
0103
0000
0000
0000
,
0001
0100
0010
0100
0001
0010
0100
0000
,
1000
0010
0100
0010
1000
0100
0010
0000
,
0001
0010
0100
0010
0001
1000
0010
1000
,
0001
0010
0000
0010
0001
0000
1000
0010
0000
0010
1000
0000
0001
0000
0001
0000
,
1000
0010
1000
0001
0010
0100
0010
0000
,
0001
0000
0100
0000
0001
0000
1000
0000
0010
1000
0010
0000
0100
0010
0100
0000
,
0001
1000
0001
1000
0001
0000
0010
0000
0100
0000
0000
1000
0010
0100
0010
0000
,
1000
0000
0000
0000
0000
0000
0010
0100
0010
0100
0010
0100
0010
0100
0010
0000
,
0101
0000
0100
0000
0001
0000
1000
0000
0100
0010
0100
0000
1000
0000
0001
0000
,
1000
0000
0010
0000
1000
0000
0001
0000
0010
0100
0010
0000
0001
0000
1000
0000
,
0100
0010
0100
0010
0100
0000
1000
0000
0010
1000
0010
0000
0100
0010
0100
0000
,
0001
0100
0000
0100
0001
0000
1000
0100
0000
0100
1000
0000
0001
0000
0100
0000
,
0001
0000
0100
0000
0010
0000
1000
0000
0100
1000
0100
0000
0010
0100
0010
0000
,
0001
0000
0100
0000
0001
0000
1000
0000
0100
0010
0100
0000
1000
0001
1000
0000
,
0001
0000
0010
0000
0100
0000
1000
0000
0001
0100
0001
0000
0100
0001
0100
0000
,
0010
1000
0001
0010
0001
0010
0100
1000
0100
1000
0000
0000
,
0001
0100
0001
0000
0100
0001
0100
0001
0010
0000
0010
0000
0100
1000
0100
0000
,
1000
0100
1000
0100
0010
0000
0010
0000
0001
0100
0001
0000
1000
0010
1000
0010
,
0100
0000
0100
0000
0001
1000
0001
0000
0010
0001
0010
0001
0100
0000
0100
0000
,
0010
1000
0010
0000
1000
0001
1000
0001
0100
0000
0100
0000
0001
0010
0001
0000
,
0010
0100
0010
0100
1000
0000
1000
0000
0100
1000
0100
0000
1000
0001
1000
0001
,
0100
0000
0100
0000
0001
0100
0001
0000
1000
0001
1000
0001
0100
0000
0100
0000
,
0001
1000
0001
0000
0010
0100
0010
0000
0100
1000
0100
0000
1000
0001
1000
0000
,
0100
1000
0100
1000
0100
1000
0010
0100
0010
0000
0010
0000
0000
0000
1000
0001
,
2000
3000
0000
0000
0000
0000
0000
0000
0000
0000
0000
0000
0000
0000
0000
0000
0000
0000
0000
0000
0000
0000
0000
0000
0002
0000
0000
0000
0000
0000
0000
0000
0000
0000
0000
0000
0000
0000
0000
0000
0000
0000
0003
0000
0000
0000
0000
0000
,
2000
0000
0000
3000
1100
0000
0001
0000
,
0010
0100
0011
1000
,
0100
0010
0101
1000
,
1100
0001
1010
1010
,
0011
0110
2002
0000
,
0000
0000
0000
0000
3003
0000
0000
0000
1000
0000
0010
0000
0100
0000
0001
1000
,
0001
0000
1000
0100
0000
1000
0100
0000
1000
0000
0010
0000
0100
0000
0001
1000
,
0001
0000
0100
0001
0000
0100
0001
0000
1000
0000
0100
0000
0010
0000
0001
1000
,
0001
0000
0100
0010
0000
0100
0010
0000
1000
0000
0100
0000
0010
0000
0001
1000
,
0001
0000
0000
0101
0000
0000
1100
0000
0001
0000
1000
0000
0001
0100
0001
0000
,
1000
0100
1000
0000
0100
1000
0100
0000
1000
0000
0001
0000
1000
0010
1000
0000
,
0001
0010
0001
0000
0010
0001
0010
0000
0001
0000
0100
0000
0010
0000
1000
0000
,
0100
0000
0000
0001
0000
0000
0100
0000
0000
1000
0000
0000
0001
0000
0100
0000
0001
0000
0100
0000
0010
0000
1000
0000
,
0100
0000
0000
0000
0010
0000
0000
0000
0001
0000
0000
0000
1000
0000
0000
0000
0000
0000
0000
0000
0000
0000
0000
0000
0001
0000
0000
1000
0000
0000
0001
0000
0000
0000
0000
0000
0100
0000
0000
0000
0000
0000
0001
0000
0000
0010
0000
0000
,
0100
0000
1000
0010
0000
1000
0010
0000
1000
0001
1000
0000
0010
0000
1000
0100
,
0010
0000
0001
0100
0000
0001
0100
0000
0001
1000
0001
1000
0001
0000
1000
0000
,
0010
0000
0000
0000
0000
0000
0100
0000
0000
0001
0000
0000
0000
0000
0000
0100
0000
0000
0001
0000
0000
0000
0000
0000
1000
0000
0000
0000
0010
0000
0000
0000
1000
0000
0000
0000
0010
0000
0000
0000
0100
0000
0000
0000
0001
0000
0000
0000
,
0010
0000
0100
0000
1000
0000
0001
0000
0010
0000
0001
0000
0010
0000
0000
0100
0000
0000
0000
0000
0000
1000
0000
0000
,
0000
0010
0000
0100
0000
0001
0000
1000
,
0000
0001
0001
0000
1001
0100
0010
0001
,
1000
0000
0000
0010
0000
0000
0001
0000
0000
0010
0000
0000
1000
0000
0001
0000
1000
0000
0001
0000
0010
0000
0100
0000
,
1000
0100
0010
0001
0100
0010
2000
0000
0000
0000
0000
0000
,
0002
0000
0000
0000
3000
0000
0000
0000
1003
0010
1000
0000
0010
1000
0100
1000
,
0100
0000
0100
0000
0010
0001
0010
0000
0001
0100
0001
0100
0010
0000
0010
0000
,
1000
0001
1000
0000
0100
0010
0100
0010
0001
0000
0001
0000
0010
0100
0010
0000
,
0100
1000
0100
1000
0010
0000
0010
0000
0100
0001
0100
0001
1000
0100
1000
0100
,
0010
0000
0010
0000
0001
1000
0001
1000
0100
1000
0100
1000
0010
0000
0010
0000
,
1000
0010
1000
0001
0010
0001
0010
0100
1000
0000
1000
0000
0001
0100
0001
1000
,
0100
1000
0100
0010
0001
0000
0001
0000
1000
0000
0001
0100
0010
0000
0100
0010
,
1000
0000
0100
0010
0001
0000
1000
0100
1000
0100
0010
0001
0010
0001
1000
0000
,
0010
0000
0010
0000
0000
0000
1000
0000
1002
0000
0000
0000
0000
0000
0103
0001
,
0200
0000
0000
0000
0000
0000
0310
0100
0020
0000
0000
0000
0000
0000
0000
0000
,
0030
0000
0000
0000
;

//---------------dance-single - ----------------
#NOTES:
     dance-single:
     :
     Beginner:
     2:
     0.113,0.135,0.052,0.000,0.000:
0000
0000
0000
0000
,
0000
0000
0000
0000
,
0000
0000
0000
0000
,
0000
0000
0000
0000
,
1000
0000
0000
0000
,
0001
0000
0000
0000
,
1000
0000
0000
0000
,
0010
0000
0010
0000
,
0010
0000
0000
0000
,
0100
0000
0100
0000
,
0100
0000
0000
0000
,
0010
0000
0010
0000
,
0010
0000
0000
0000
,
1000
0000
0001
0000
,
1000
0000
0000
0000
,
1001
0000
1000
0000
,
0001
0000
0000
0000
,
0001
0000
1000
0000
,
0001
0000
0000
0000
,
1000
0000
0001
0000
,
1000
0000
0000
0000
,
1000
0000
0001
0000
,
1000
0000
0000
0000
,
1001
0000
0000
1000
,
0000
0000
0001
0000
,
0000
1000
0000
0000
,
0001
0000
0000
0010
,
0000
0000
0100
0000
,
0000
1000
0000
0000
,
0001
0000
0000
0000
,
0000
0000
0000
0000
,
1001
0000
0000
0000
,
0000
0000
1000
0000
,
0000
0000
0001
0000
,
0000
0000
1000
0000
,
1000
0000
0001
0000
,
0001
0000
1001
0000
,
0000
0000
1000
0000
,
0001
0000
1000
0000
,
0001
0000
1000
0000
,
0001
0000
1000
0000
,
0000
0000
0010
0000
,
0100
0000
0010
0000
,
0100
0000
0010
0000
,
0010
0000
0010
0000
,
0000
0000
1000
0000
,
0001
0000
1000
0000
,
0001
0000
1000
0000
,
0100
0000
1000
0000
,
0100
0000
1000
0000
,
0000
0000
0001
0000
,
0000
0000
0001
0000
,
0100
0000
0001
0000
,
0100
0000
0001
0000
,
0000
0000
1001
0000
,
0000
1000
0000
0000
,
0001
0000
0000
1000
,
0000
0000
0100
0000
,
0000
0010
0000
0000
,
0001
0000
0000
1000
,
0000
0000
0001
0000
,
0000
0000
1000
0000
,
1000
0000
1001
0000
;
