#TITLE:撲殺天使ドクロちゃん;
#SUBTITLE:(ルルティエ-Mix);
#ARTIST:千葉紗子;
#TITLETRANSLIT:BOKUSATSU TENSHI DOKURO-CHAN;
#SUBTITLETRANSLIT:(RURUTIE-Mix);
#ARTISTTRANSLIT:SAEKO CHIBA;
#CREDIT:DigiMindAxel;
#BANNER:BOKUSATSU TENSHI DOKURO-CHAN (RURUTIE-Mix).png;
#BACKGROUND:BOKUSATSU TENSHI DOKURO-CHAN (RURUTIE-Mix)-bg.png;
#LYRICSPATH:BOKUSATSU TENSHI DOKURO-CHAN (RURUTIE-Mix).lrc;
#CDTITLE:DigiMindAxel original simfile.png;
#MUSIC:BOKUSATSU TENSHI DOKURO-CHAN (RURUTIE-Mix).mp3;
#OFFSET:-6.210;
#SAMPLESTART:69.154;
#SAMPLELENGTH:12.000;
#SELECTABLE:YES;
#DISPLAYBPM:170.000;
#BPMS:0.000=170.000,12.000=85.000,14.500=170.000;
#STOPS:252.000=0.706
;
#BGCHANGES:;

//---------------dance-single - ----------------
#NOTES:
     dance-single:
     :
     Easy:
     3:
     0.272,0.281,0.029,0.146,0.000:
0001
0000
0010
0000
,
0100
0000
2000
0000
,
3001
0000
0100
0000
,
0220
0000
0000
0000
0000
0330
0000
0000
,
0001
1000
0001
0000
,
1000
0001
1000
0000
,
0100
1000
0100
0000
,
0010
0001
0010
0000
,
0001
1000
0010
0010
,
1000
0001
0100
0100
,
0001
1000
0010
0010
,
2002
0000
0000
3003
,
1000
0100
1000
0000
,
0001
0010
0001
0000
,
1000
0010
1000
0000
,
0001
0100
0001
0000
,
1000
0001
0100
0100
,
0001
1000
0010
0010
,
1000
0001
0100
0100
,
2002
0000
0000
3003
,
1000
0001
0100
0001
,
1000
0000
0100
0000
,
0010
0100
1000
0010
,
0100
0000
0001
0000
,
0010
0001
0010
0001
,
1000
0100
1000
0000
,
0010
0100
0010
1000
,
0002
0000
0000
0003
,
1000
0100
1000
0001
,
1000
0100
1000
0000
,
0001
0100
0001
1000
,
0001
0100
0001
0000
,
0010
0100
1000
0010
,
0100
0000
0010
0000
,
1000
0001
1000
0001
,
1000
0000
0020
0000
,
0130
0001
1000
0000
,
0010
0100
0001
1000
,
0100
0010
0001
1000
,
0010
0000
0100
0000
,
0001
0001
1000
1000
,
0001
1000
0001
0000
,
0010
0100
0010
0100
,
2000
0000
0000
3000
,
0010
0100
0010
1000
,
0002
0000
0003
0000
,
1000
0100
0010
0001
,
1000
1000
0000
0000
,
0001
1000
0001
0100
,
0020
0000
0000
0030
,
1000
0001
1000
1000
,
0001
0001
0000
0000
,
0100
0000
0010
0000
,
1000
0100
0010
0001
,
1000
0000
0010
0000
,
0100
0001
0010
0100
,
1000
0001
1000
0000
,
0010
0100
0010
0100
,
0002
0000
0000
0000
,
2003
0000
0000
0000
,
0000
0000
0000
0000
,
0000
0000
0000
0000
,
0000
0000
0000
0000
,
3000
0020
0000
0000
0000
0000
0000
0000
,
0100
0000
0000
0130
0000
0000
0000
0000
;

//---------------dance-single - ----------------
#NOTES:
     dance-single:
     :
     Medium:
     6:
     0.420,0.468,0.107,0.165,0.000:
1000
0000
0000
0001
0000
0001
0000
1000
,
0010
0000
0200
0000
,
0310
0000
0000
1000
0000
1000
0000
0001
,
0200
0000
0000
0000
0000
0300
0000
0000
,
0001
0010
0100
1000
,
0010
0100
0001
1000
,
0001
0010
0100
1000
,
0010
0100
0001
1000
,
0010
0100
0010
0000
1000
0000
0001
0000
,
1000
0001
1000
0000
0010
0000
0100
0000
,
0001
1000
0001
0000
0010
0000
0100
0000
,
2000
3200
0302
0203
,
1300
0100
0010
0001
,
1000
0010
0100
0001
,
1000
0100
0010
0001
,
1000
0010
0100
0001
,
1000
0100
1000
0000
0001
0000
1000
0000
,
0010
0100
0010
0000
1000
0000
0001
0000
,
0010
0001
0010
0000
0100
0000
1000
0000
,
2002
0000
0000
3003
,
0010
0000
0100
0000
0001
1000
0001
0000
,
0010
0000
0100
0000
1000
0001
1000
0000
,
0100
0000
0010
0000
0001
1000
0001
0000
,
0100
0000
0010
0000
1000
0001
1000
0000
,
0100
1000
0100
0010
,
0001
1000
0010
0010
,
0100
0000
0001
1000
0100
0000
1000
0001
,
2000
3200
0320
0032
,
1003
0000
0010
0000
0100
0001
0100
0000
,
0001
0000
1000
0000
0010
0100
0010
0000
,
1000
0000
0001
0000
0100
0010
0100
0000
,
0001
0000
0100
0000
0010
1000
0010
0000
,
1000
0100
0010
0001
,
1000
0100
1000
0000
0001
0100
0001
0000
,
0010
0000
0100
0000
1000
0001
0100
0000
,
0001
1000
0001
0000
0100
0010
0100
0010
,
0200
0000
0000
0000
0000
0001
0301
0000
,
1001
0100
1100
0001
,
0201
0000
0000
0000
0000
0010
0310
0000
,
1100
1000
1001
0010
,
0110
0000
0010
0100
0001
0000
0010
0000
,
0100
1000
0001
0000
,
0110
0000
0100
0010
1000
0000
0100
0000
,
0022
0000
0000
0033
,
1001
0000
0010
0000
0100
1000
0001
0000
,
1000
0100
1000
0010
0100
0000
0001
0000
,
1000
0100
1000
0000
0010
0100
0010
0000
,
1000
0100
0010
0001
1000
0000
0001
0000
,
1001
0000
0100
0000
0010
0001
1000
0000
,
0010
0100
0001
0010
0001
0000
1000
0000
,
0100
0010
0100
0000
1000
0001
1000
0000
,
0001
0010
0100
1000
0001
0000
1000
0000
,
0010
0100
0010
1000
,
0100
0010
0001
1000
,
0100
0001
0100
1000
,
0010
0100
0001
0000
,
0010
0100
1000
0010
,
0100
0010
0100
0010
0100
0010
0100
0000
,
0001
1000
0001
1000
0001
0010
0100
1000
,
0002
0000
0000
0000
,
0000
0000
0000
0000
,
0000
0000
0000
0000
,
0000
0000
0000
0000
,
0003
0100
0010
0000
1000
0000
0100
0000
,
0010
0001
0010
0100
0000
0000
0000
0000
;

//---------------dance-single - ----------------
#NOTES:
     dance-single:
     :
     Hard:
     8:
     0.596,0.593,0.175,0.233,0.024: // measure 1
1001
0000
0010
0100
0000
0001
0000
0001
,  // measure 2
0100
0000
0010
0000
1000
0001
0100
0001
,  // measure 3
1001
0000
0100
0010
0000
1000
0000
1000
,  // measure 4
0020
0000
0000
0000
0000
0030
0000
0000
,  // measure 5
1000
0001
0100
0001
0100
0001
0100
1000
,  // measure 6
0100
0001
0010
0100
1000
0000
1100
0000
,  // measure 7
1000
0001
0010
0001
0010
0001
0010
1000
,  // measure 8
0010
0001
0100
0010
1000
0000
1001
0000
,  // measure 9
1000
0000
1100
0000
0001
0100
1000
0000
,  // measure 10
0001
0000
0101
0000
1000
0100
0001
0000
,  // measure 11
0100
0000
0110
0000
0001
1000
0010
0000
,  // measure 12
1000
0100
0010
0001
0010
0100
1000
0010
,  // measure 13
0100
0001
0100
0001
0100
1000
0100
1000
,  // measure 14
0100
0001
0010
0100
1000
0000
1001
0000
,  // measure 15
0001
1000
0010
1000
0010
0001
0010
0001
,  // measure 16
0010
1000
0100
0010
0001
0000
1001
0000
,  // measure 17
0001
0100
0010
0100
0001
0010
0100
1000
,  // measure 18
0010
0100
0010
1000
0010
0100
0001
0010
,  // measure 19
0100
0010
0001
0100
0010
1000
0001
1000
,  // measure 20
2002
0000
0000
3003
,  // measure 21
1000
0001
0100
0001
0100
0001
0100
1000
,  // measure 22
0100
0001
0010
0100
0000
1000
0001
0000
,  // measure 23
1000
0001
0010
0001
0010
0001
0010
1000
,  // measure 24
0010
0001
0100
0010
0000
1000
0001
0000
,  // measure 25
0200
0000
0302
0000
1003
0100
0010
0001
,  // measure 26
0100
0010
0100
0000
1100
0000
1100
0000
,  // measure 27
2000
0000
3001
0010
0100
0000
0010
0001
,  // measure 28
2000
3200
0302
0203
,  // measure 29
1300
0001
0010
0001
0010
0001
0010
1000
,  // measure 30
0010
0001
0100
0010
1000
0100
0010
0000
,  // measure 31
0001
1000
0010
1000
0010
1000
0010
0001
,  // measure 32
0010
1000
0100
0010
0001
0100
0010
0000
,  // measure 33
0200
0000
0302
0000
1003
0000
0001
0010
,  // measure 34
0100
0010
0000
0001
1000
0100
0010
0000
,  // measure 35
0100
1000
0010
0000
0100
0001
1000
0100
,  // measure 36
0010
0000
0010
0000
0001
0000
0001
0000
1000
0001
1000
0001
1000
0001
1000
0000
,  // measure 37
0010
0000
0100
0000
0001
0000
0000
0001
0000
0000
0100
0000
0101
0000
0000
0000
,  // measure 38
0010
0100
1000
0000
1000
0100
0010
0000
,  // measure 39
0100
0000
1000
0000
0001
0000
0000
0001
0000
0000
0010
0000
0011
0000
0000
0000
,  // measure 40
0001
0010
1000
0010
0001
0000
0001
0000
,  // measure 41
2000
0000
3001
0010
1000
0010
0001
0010
,  // measure 42
1000
0010
0001
0100
0010
0000
0010
0000
,  // measure 43
2000
0000
3001
0100
1000
0100
0010
0000
,  // measure 44
1000
0100
0010
0001
0100
0010
1000
0000
,  // measure 45
0002
0000
0203
0000
1300
0100
0010
0000
,  // measure 46
1000
0100
0001
0100
1000
0010
0110
0000
,  // measure 47
0001
0001
1000
1000
0100
0010
0001
0010
,  // measure 48
0100
1000
0010
0100
0001
1000
1001
0000
,  // measure 49
2000
0000
3200
0000
0301
0100
0010
0000
,  // measure 50
0001
0010
1000
0010
0001
0100
0110
0000
,  // measure 51
2000
0000
3100
0000
1000
1000
0001
0001
,  // measure 52
0010
0100
0010
0001
1000
0010
0110
0000
,  // measure 53
0200
0000
0301
0010
0100
0000
0010
0100
,  // measure 54
1000
0100
0020
0000
0130
0000
0001
0000
,  // measure 55
0020
0000
0031
0100
0010
0000
1000
0100
,  // measure 56
0010
0100
1000
0010
0100
0010
1000
0000
,  // measure 57
0020
0000
0130
0001
1000
0000
0100
0000
,  // measure 58
0010
0001
0100
0010
1000
0100
1000
0001
,  // measure 59
0010
1000
0010
0001
1000
0100
0010
0001
,  // measure 60
2000
0000
0000
0000
,  // measure 61
0000
0000
0000
0000
,  // measure 62
0000
0000
0000
0000
,  // measure 63
0000
0000
0000
0000
,  // measure 64
3000
0010
1000
1000
0001
0001
1000
0100
,  // measure 65
0010
0001
0100
0100
0000
0000
0000
0000
;

//---------------dance-single - ----------------
#NOTES:
     dance-single:
     :
     Challenge:
     10:
     0.785,0.843,0.165,0.029,0.616: // measure 1
1001
0000
1000
1100
0000
0100
1000
0100
,  // measure 2
0010
0000
0000
0000
0100
0000
0000
0000
0010
0001
0010
0001
0010
0001
0010
0001
,  // measure 3
0100
0000
0010
0110
0000
0100
0001
0010
,  // measure 4
0220
0000
0000
0000
0000
0330
0000
0000
,  // measure 5
1000
0000
0010
0000
1000
0000
0000
0001
1000
0000
0100
0000
0010
0000
0000
0000
,  // measure 6
0001
0000
0100
0000
0001
0000
0000
1000
0001
0000
0010
0000
0100
0000
0000
0000
,  // measure 7
0010
0000
0001
0000
0100
0000
0000
0010
0100
0000
0001
0000
0010
0000
0000
0000
,  // measure 8
0100
0000
1000
0000
0010
0000
0000
0100
0010
0000
1000
0000
0100
0000
0000
0000
,  // measure 9
0010
0000
0001
0000
1000
0000
0010
1000
0010
0000
1000
0000
0001
0000
0000
0000
,  // measure 10
0100
0000
0001
0000
1000
0000
0100
1000
0100
0000
1000
0000
0001
0000
0000
0000
,  // measure 11
0010
0000
0100
0000
1000
0000
0001
1000
0001
0000
1000
0000
0100
0000
0000
0000
,  // measure 12
1000
0001
1000
0000
0001
1000
0001
0000
1000
0001
1000
0000
0001
1000
0001
1000
,  // measure 13
0001
0000
0010
0000
0100
0000
0000
0010
0001
0000
0100
0000
0010
0000
0000
0000
,  // measure 14
1000
0000
0100
0000
0010
0000
0000
0100
1000
0000
0010
0000
0100
0000
0000
0000
,  // measure 15
0001
0000
0100
0000
0010
0000
0000
0100
0001
0000
0010
0000
0100
0000
0000
0000
,  // measure 16
1000
0000
0010
0000
0100
0000
0000
0010
1000
0000
0100
0000
0010
0000
0000
0000
,  // measure 17
0001
0000
0010
0000
0100
0000
0010
0001
0010
0000
0100
0000
0010
0000
0001
0000
,  // measure 18
1000
0000
0010
0000
0100
0000
0010
1000
0010
0000
0100
0000
0010
0000
1000
0000
,  // measure 19
0100
0000
0010
0000
0001
0000
0100
0010
0100
0000
0001
0000
1000
0000
0010
0000
,  // measure 20
0100
0010
0100
0010
0100
0010
0100
0010
0100
0010
0100
0010
0100
0010
0100
0010
,  // measure 21
0100
0001
1000
1000
0001
0001
0010
1000
,  // measure 22
0010
0000
0001
0000
1000
0000
0010
0100
0001
0000
1000
0000
0001
0000
0000
0000
,  // measure 23
0010
0001
1000
1000
0001
0001
0100
1000
,  // measure 24
0100
0000
0001
0000
1000
0000
0100
0010
0001
0000
0100
0000
0010
0000
0000
0000
,  // measure 25
1000
0000
0001
0000
1000
0000
0100
1000
0100
1000
0100
0000
0010
0000
0000
0000
,  // measure 26
0001
0000
1000
0000
0001
0000
0010
0001
0010
0001
0010
0000
0100
0000
0000
0000
,  // measure 27
1000
0100
0001
0100
1000
0010
0001
0010
,  // measure 28
1010
0110
0101
1001
,  // measure 29
0001
0000
1000
0000
0100
0000
1000
0001
1000
0000
0010
0000
0100
0000
0001
0000
,  // measure 30
0010
0000
0100
0000
1000
0000
0010
0100
0010
0000
1000
0000
0001
0000
0000
0000
,  // measure 31
1000
0000
0001
0000
0100
0000
0001
1000
0001
0000
0010
0000
0100
0000
1000
0000
,  // measure 32
0010
0000
0100
0000
0001
0000
0010
0100
0010
0000
0001
0000
1000
0000
0000
0000
,  // measure 33
0100
1000
0100
0000
1000
0000
0001
0100
0001
0000
0010
0000
0100
0000
1000
0000
,  // measure 34
0010
0000
0100
0001
0010
0000
0100
0010
0100
0000
1000
0000
0001
0000
0000
0000
,  // measure 35
0010
0001
0010
0000
0001
0000
1000
0010
1000
0000
0100
0000
0010
0000
0001
0000
,  // measure 36
0100
0010
0100
0010
0100
0010
0100
0010
1000
0100
0010
0001
0010
0100
1000
0001
,  // measure 37
0100
0000
0010
0000
1000
0000
0100
0010
0000
0010
0100
0000
0101
0000
0000
0000
,  // measure 38
0010
0000
0100
0001
0010
0000
0100
1000
0000
1000
0010
0000
0100
0000
0000
0000
,  // measure 39
0001
0000
1000
0000
0100
0000
0010
0100
0000
0010
0100
0000
0101
0000
0000
0000
,  // measure 40
0100
0000
0010
1000
0100
0000
0010
0001
0000
0001
0100
0000
0010
0000
0000
0000
,  // measure 41
1000
0000
0001
0000
1000
0000
0100
0010
0100
0010
0100
0000
1000
0000
0010
0000
,  // measure 42
0100
0000
0001
0010
0100
0000
0010
0100
0010
0100
0010
0000
0001
0000
0000
0000
,  // measure 43
1000
0000
0001
0000
1000
0000
0010
0100
0010
0100
0010
0000
1000
0000
0100
0000
,  // measure 44
0010
0001
0010
0001
0010
0001
0010
0001
1000
0010
1000
0010
1000
0010
1000
0010
,  // measure 45
1000
0000
0000
1000
0001
0000
0000
0001
0100
0000
0010
0000
0100
0000
0001
0000
,  // measure 46
1000
0000
0000
1000
0001
0000
0000
0001
0100
0000
0110
0000
0110
0000
0000
0000
,  // measure 47
0001
0010
1000
0010
0001
0100
1000
0100
,  // measure 48
0001
1000
0001
1000
0001
1000
0001
1000
0001
1000
0100
0000
1100
0000
0000
0000
,  // measure 49
0001
0000
0000
0001
1000
0000
0000
1000
0010
0000
0100
0000
0010
0000
1000
0000
,  // measure 50
0001
0000
0000
0001
1000
0000
0000
1000
0010
0000
0110
0000
0110
0000
0000
0000
,  // measure 51
1000
0100
0001
0100
1000
0010
0001
0010
,  // measure 52
1000
0001
1000
0001
1000
0001
1000
0001
1000
0001
0100
0000
0101
0000
0000
0000
,  // measure 53
0001
0000
0100
0000
1000
0000
0100
0000
0010
1000
0010
0000
1000
0000
0001
0000
,  // measure 54
1000
0001
1000
0000
0100
0000
0001
0000
0100
0000
1000
0000
1001
0000
0000
0000
,  // measure 55
1000
0000
0010
0000
0001
0000
0010
0000
0100
0001
0100
0000
0001
0000
1000
0000
,  // measure 56
0010
0100
0010
0100
0010
0100
0010
0100
0010
0100
0010
0100
0010
0100
0010
0100
,  // measure 57
0010
0000
1000
0000
0100
0000
0010
0001
0100
0010
0100
0000
0010
0000
1000
0000
,  // measure 58
0100
1000
0100
1000
0100
1000
0100
1000
0001
0100
0001
0100
0001
0100
0001
0100
,  // measure 59
0001
0010
0100
1000
0001
0010
0100
0010
0001
0100
0010
1000
0001
0100
0010
0100
,  // measure 60
0002
0000
0000
0000
,  // measure 61
0000
0000
0000
0000
,  // measure 62
0000
0000
0000
0000
,  // measure 63
0000
0000
0000
0000
,  // measure 64
0003
1000
0100
0100
0001
0001
0100
1000
,  // measure 65
0010
0100
0001
0001
0000
0000
0000
0000
;

//---------------dance-single - ----------------
#NOTES:
     dance-single:
     :
     Beginner:
     2:
     0.067,0.114,0.000,0.000,0.000:
0001
0000
0000
0000
,
0000
0000
1000
0000
,
0001
0000
0000
0000
,
1000
0000
0000
0000
,
0010
0000
0000
0000
,
0000
0000
0000
0000
,
0010
0000
0000
0000
,
0000
0000
0000
0000
,
0100
0000
0000
0000
,
0010
0000
0000
0000
,
0100
0000
0000
0000
,
0100
0000
0000
0000
,
0001
0000
0000
0000
,
0000
0000
0000
0000
,
0001
0000
0000
0000
,
0000
0000
0000
0000
,
0001
0000
0000
0000
,
1000
0000
0000
0000
,
0001
0000
0000
0000
,
1000
0000
0000
0000
,
0100
0000
0000
0000
,
0000
0000
0000
0000
,
0100
0000
0000
0000
,
0000
0000
0000
0000
,
0010
0000
0000
0000
,
0000
0000
0000
0000
,
0001
0000
0000
0000
,
0000
0000
0000
0000
,
1000
0000
0000
0000
,
0000
0000
0000
0000
,
0001
0000
0000
0000
,
0000
0000
0000
0000
,
1000
0000
0000
0000
,
0000
0000
0000
0000
,
0010
0000
0000
0000
,
0100
0000
0000
0000
,
0010
0000
0000
0000
,
1000
0000
0000
0000
,
0001
0000
0000
0000
,
1000
0000
0000
0000
,
0001
0000
0000
0000
,
0100
0000
0000
0000
,
0010
0000
0000
0000
,
0100
0000
0000
0000
,
0001
0000
0000
0000
,
0000
0000
0000
0000
,
1000
0000
0001
0000
,
1000
0000
0000
0000
,
0001
0000
0000
0000
,
0000
0000
0000
0000
,
1000
0000
0001
0000
,
1000
0000
0000
0000
,
0100
0000
0000
0000
,
0000
0000
0000
0000
,
0010
0000
0000
0000
,
0000
0000
0000
0000
,
0100
0000
0000
0000
,
1000
0000
0001
0000
,
1000
0000
0000
0000
,
1000
0000
0000
0000
;
