#TITLE:アストライアの双皿;
#SUBTITLE:;
#ARTIST:ZODIACSYNDICATE;
#TITLETRANSLIT:ASTRAIA NO SOUBEI;
#SUBTITLETRANSLIT:;
#ARTISTTRANSLIT:;
#CREDIT:DigiMindAxel;
#BANNER:ASTRAIA NO SOUBEI.png;
#BACKGROUND:ASTRAIA NO SOUBEI-bg.png;
#LYRICSPATH:;
#CDTITLE:jubeat.png;
#MUSIC:ASTRAIA NO SOUBEI.mp3;
#OFFSET:-6.495;
#SAMPLESTART:36.262;
#SAMPLELENGTH:12.000;
#SELECTABLE:YES;
#BPMS:0.000=173.000;
#STOPS:;
#BGCHANGES:;

//---------------dance-single - ----------------
#NOTES:
     dance-single:
     :
     Easy:
     4:
     0.269,0.323,0.087,0.252,0.000:
0001
1000
0001
1000
,
0001
1000
0001
1000
,
0010
0010
0010
0010
,
0200
0000
0000
0300
,
0000
0000
1001
0010
,
0100
1000
0100
1000
,
0001
1000
0100
0010
,
0001
1000
0001
0010
,
0001
1000
2002
0000
,
3003
0000
0220
0000
,
0330
0000
2002
0000
,
3003
0000
0220
0000
,
0330
0000
0020
0000
,
0000
0000
0000
0000
,
0000
0000
0000
0000
,
0000
0000
0000
0000
,
0000
0000
0130
0000
,
0000
0000
0001
1000
,
0001
1000
0100
1000
,
0100
1000
0001
1000
,
0001
1000
0001
0100
,
0002
0000
1003
0000
,
0100
1000
0100
0000
,
1000
0001
1000
0000
,
0001
0000
0010
0000
,
0100
0010
0100
0000
,
0010
0000
0001
0000
,
0100
0000
0010
0000
,
1000
0000
0001
0010
,
0100
1000
0001
0001
,
0001
0000
1000
1000
,
1000
0000
0001
0001
,
0001
0000
1000
1000
,
1000
0000
0010
0100
,
0001
0010
0100
0100
,
0100
0100
0010
0001
,
1000
0010
0200
0000
,
0000
0000
0310
0000
,
0000
0000
0000
0000
,
0000
0000
1000
0000
,
0000
0000
0001
0000
,
0000
0000
1000
0000
,
0000
0000
0001
0000
,
0000
0000
0010
0000
,
0000
0000
0200
0000
,
0000
0000
0310
0000
,
0001
0000
1000
0000
,
0010
0000
0100
0000
,
0001
0000
1000
0000
,
1000
0000
0001
0000
,
0001
0000
0010
0000
,
0100
0000
2000
0000
,
3100
0000
0020
0000
,
0031
0000
2000
0000
,
3010
0000
0200
0000
,
0301
0000
2000
0000
,
3002
0000
2003
0000
,
3002
0000
0023
0000
,
0230
0000
2300
0000
,
3020
0000
0130
0001
,
0100
0001
1000
0100
,
0010
0001
1001
0000
,
0000
0000
0220
0000
,
0000
0330
0010
0100
,
0010
0100
0001
1000
,
0001
1000
0100
0010
,
0001
0010
0100
1000
,
0020
0000
0130
0001
,
0100
0001
1000
0010
,
1000
0001
0010
0100
,
1000
0001
0010
0100
,
2000
0000
3001
0000
,
0000
0000
0010
0100
,
0001
0010
0100
0000
,
0000
0000
1000
0010
,
0100
0001
2000
0000
,
3002
0000
1003
0000
,
0110
0000
0001
0000
,
1001
0000
1000
0000
,
0110
0000
0001
0000
,
1001
0000
2000
0000
,
0000
0000
3001
0100
,
0010
1000
0000
0000
;

//---------------dance-single - ----------------
#NOTES:
     dance-single:
     :
     Medium:
     6:
     0.433,0.486,0.157,0.425,0.020:
1000
0100
0010
0001
,
1000
0100
0010
0001
,
0100
0010
0100
0010
,
2000
3002
2003
3002
,
0003
0000
0000
0000
1000
0100
1000
0000
,
0010
0000
0100
0000
0001
0100
0001
0000
,
0010
0000
0100
0000
1000
0100
1000
0000
,
0010
0000
0100
0000
0001
0100
0001
0000
,
0010
0000
0100
0000
1000
0001
0000
0000
,
0200
0000
0000
0000
0301
1000
0000
0000
,
0020
0000
0000
0000
1030
0001
0000
0000
,
0200
0000
0000
0000
0301
1000
0000
0000
,
0020
0000
2030
0000
,
3002
0000
2003
0000
,
3002
0000
2003
0000
,
3002
0000
2003
0000
,
3002
0000
0203
0000
,
0020
0330
1000
0100
,
0010
0001
0100
1000
,
0100
0001
0010
0100
,
1000
0010
0001
0010
,
1000
0001
1001
0000
,
0010
0001
0010
0001
0010
0000
0000
0000
,
0100
1000
0100
1000
0100
0000
0000
1000
,
0002
0000
0003
0010
0200
0000
0300
1000
,
0010
0100
0010
0100
0010
0000
0000
1000
,
0002
0000
0003
0010
0200
0000
0300
1000
,
0001
0100
0001
0100
0001
0000
0000
1000
,
0200
0000
0300
0010
0100
0000
1000
0000
,
0001
0100
0010
0100
0001
0000
0001
0000
,
0010
0001
0010
0000
0100
0000
0100
0000
,
1000
0100
1000
0000
0010
0000
0010
0000
,
0100
0001
0100
0000
0001
0000
0001
0000
,
1000
0010
1000
0000
0100
0000
0100
0000
,
0010
0001
0010
0000
0100
0000
0100
0000
,
1000
0010
1000
0000
0100
0010
0100
1000
,
0001
0000
0001
0000
0110
0000
0000
0110
,
0000
0000
0100
0010
0200
0000
0000
0000
,
0000
0000
0302
0000
,
0203
0000
0302
0000
,
0000
0000
2003
0000
,
3200
0000
0320
0000
,
0000
0000
0032
0000
,
2003
0000
3020
0000
,
0230
0000
0000
0000
0310
0000
0000
0110
,
0000
0000
0010
0100
0020
0000
0000
0000
,
0130
0001
2000
0000
,
3100
0010
0002
0000
,
0013
0001
0200
0000
,
0310
0100
0002
0000
,
0023
0000
0031
0010
,
0100
0000
1000
0000
0001
1000
0000
0000
,
0020
0000
0030
0000
1000
0001
0000
0000
,
0200
0000
0300
0000
0001
1000
0000
0000
,
0020
0000
0030
0000
1000
0001
0000
0000
,
0200
0300
0001
0010
,
0100
1000
0100
0010
,
0001
1000
0100
0001
,
0100
1000
0010
0001
,
0010
0000
1000
0000
0001
1000
0001
0000
,
0100
0001
0010
0000
0100
1000
0010
0100
,
0010
0100
0010
0000
2002
0000
0000
0000
,
0000
0000
3003
0000
0110
0000
0000
0110
,
0000
0000
0100
0010
0100
0001
0010
0000
,
0100
0000
0010
0000
0001
1000
0010
0000
,
0100
0000
0010
1000
0001
0000
0101
0000
,
1000
1010
0110
0110
,
2002
0000
3003
0000
0100
1000
0010
0000
,
0100
0000
0010
0000
1000
0001
0100
0000
,
0001
0000
1000
0000
0100
1000
0100
0000
,
0010
0001
0010
0000
0001
1000
0100
1000
,
0001
1000
0100
0000
1000
0001
0000
0200
,
0000
0000
0310
0000
1000
0001
0010
0001
,
1000
0001
0010
0000
0001
1000
0000
0020
,
0000
0130
0001
0100
,
0010
1000
0002
0000
,
2003
0000
3001
0000
,
0101
0000
1100
0000
,
0110
0000
0101
0000
,
0110
0000
1100
0000
,
1001
0000
0220
0000
,
0000
0000
0000
0000
0330
0000
0000
0000
0001
0000
0000
1000
0000
0010
0000
1000
,
0000
0001
0000
0100
0000
0000
0010
0000
0000
0000
0000
0000
0000
0000
0000
0000
;

//---------------dance-single - ----------------
#NOTES:
     dance-single:
     :
     Hard:
     8:
     0.642,0.713,0.488,0.582,0.232: // measure 1
0001
0100
0001
0001
,  // measure 2
1000
0000
0100
0000
0010
0000
0010
0001
,  // measure 3
1000
0000
0100
0000
1000
0000
0010
0000
0100
0000
0010
0000
1000
0001
1000
0000
,  // measure 4
0002
0023
0230
2300
,  // measure 5
3000
0000
0000
0000
0001
1000
0001
1000
,  // measure 6
0010
0100
0001
0000
1000
0100
1000
0100
,  // measure 7
0010
0100
1000
0000
0100
1000
0010
0100
,  // measure 8
0010
0100
0001
0000
1000
0001
1000
0001
,  // measure 9
0010
0100
1000
0000
1001
1001
0000
0000
,  // measure 10
0100
0010
0100
0000
1001
1001
0000
0000
,  // measure 11
0010
0100
0010
0000
1001
1001
0000
0000
,  // measure 12
0100
0010
0100
0000
1001
1001
0000
0000
,  // measure 13
1000
0000
0010
0100
0000
0001
2000
0000
0000
0000
0000
0000
,  // measure 14
3200
0320
0032
0000
,  // measure 15
2003
0000
3002
0023
,  // measure 16
0230
2300
3002
0000
,  // measure 17
2003
0000
3020
0000
,  // measure 18
0200
0000
0330
0000
0010
0100
0010
0100
,  // measure 19
0001
0010
0100
0000
0010
0001
0010
0001
,  // measure 20
0100
0010
1000
0000
0010
0100
0001
0010
,  // measure 21
0001
0010
0100
0000
1000
0100
1000
0010
,  // measure 22
0100
0000
0001
0000
1000
0000
0001
0000
1002
0000
0000
0000
0000
0000
1003
0010
,  // measure 23
1000
0000
0100
0000
0010
0000
0001
0000
2000
0000
0000
0000
0000
0000
3001
0100
,  // measure 24
0001
0000
0010
0000
0100
0000
1000
0000
0002
0000
0000
0000
0000
0000
1003
0100
,  // measure 25
2000
0000
0000
0000
0000
0000
3001
0010
0002
0000
0000
0000
0000
0000
1003
0001
,  // measure 26
1000
0000
0100
0000
0010
0000
0001
0000
0200
0000
0000
0000
0000
0000
0310
0100
,  // measure 27
0020
0000
0000
0000
0000
0000
1030
0001
2000
0000
0000
0000
0000
0000
3001
1000
,  // measure 28
0001
0000
0010
0000
0100
0000
1000
0000
0002
0000
0000
0000
0000
0000
0013
0001
,  // measure 29
0020
0000
0000
0000
0030
0000
0100
1000
0100
0000
1000
0001
1000
0000
0000
0000
,  // measure 30
0100
0000
0010
0000
0001
0000
0010
0000
0100
0000
0000
1000
0000
0000
0010
0000
,  // measure 31
0000
0100
0000
0000
0001
0000
0100
0000
1000
0000
0000
0100
0000
0000
0010
0000
,  // measure 32
0000
1000
0000
0000
0001
0000
1000
0000
0100
0000
0000
0001
0000
0000
0100
0000
,  // measure 33
0000
0010
0000
0000
0001
0000
0100
0000
0010
0000
0000
1000
0000
0000
0100
0000
,  // measure 34
0000
0001
0000
0000
0100
0000
1000
0000
0010
0000
0100
0000
0010
0000
1000
0000
,  // measure 35
0100
0010
0001
0000
0100
0010
0100
0001
,  // measure 36
0010
0100
1000
0000
0001
0010
1000
0010
,  // measure 37
0001
0000
1000
0000
0010
0000
0100
0000
0110
0000
0000
0110
0000
0000
0110
0000
,  // measure 38
0000
0110
0000
0000
1000
0000
0001
0000
2000
0000
0000
0000
0000
0000
0100
0000
,  // measure 39
0200
0000
0000
0300
,  // measure 40
3002
0000
0203
0000
0302
0000
0000
2003
,  // measure 41
0000
0000
3001
0000
0200
0000
0000
0320
,  // measure 42
0000
0130
0002
0000
,  // measure 43
0000
0000
0000
0000
2003
0000
0000
3200
,  // measure 44
0000
0000
0310
0000
0200
0000
0000
2300
,  // measure 45
0000
0000
0000
0000
3010
0000
0000
0000
0110
0000
0000
0110
0000
0000
0110
0000
,  // measure 46
0000
0110
0000
0000
0001
0000
1000
0000
0001
0000
0001
0000
0000
0000
0100
0010
,  // measure 47
0100
2001
3200
0320
,  // measure 48
0032
0000
1003
0000
1000
1000
0000
0110
,  // measure 49
0000
0210
0302
0023
,  // measure 50
0230
2300
3002
0000
,  // measure 51
0203
0000
0000
0000
0000
0000
0301
0000
0010
0100
0000
1000
,  // measure 52
0010
0000
0000
0000
0100
0000
0010
0000
0000
0000
0000
0000
1001
0000
0000
1001
0000
0000
0000
0000
0000
0000
0000
0000
,  // measure 53
0100
0100
0000
0000
1001
1001
0000
0000
,  // measure 54
0010
0010
0000
0000
1001
1001
0000
0000
,  // measure 55
0100
0100
0000
0000
1001
1001
0000
0000
,  // measure 56
0010
0010
0000
0000
1000
1000
0001
0000
,  // measure 57
0010
0010
0100
0000
1000
1000
0100
0000
,  // measure 58
0010
0000
0010
0000
0001
0000
0000
0000
1000
0000
0000
1000
0010
0000
0000
0000
,  // measure 59
0100
0000
0000
0100
0001
0000
0000
0000
0010
0000
0000
0010
0100
0000
0000
0000
,  // measure 60
1000
0000
0000
1000
0001
0000
0000
0000
1000
0000
0100
0000
1000
0000
0001
0000
,  // measure 61
0100
0001
1000
0010
0001
0010
1000
0100
,  // measure 62
0010
0001
0100
0010
2002
0000
0000
0000
,  // measure 63
0000
0000
0000
0000
3003
0000
0000
0000
0110
0000
0000
0110
0000
0000
0110
0000
,  // measure 64
0000
0110
0000
0000
0010
0000
0100
0000
0010
0000
1000
0000
0100
0000
0010
0000
,  // measure 65
0001
0010
0100
1000
0010
0100
0010
1000
,  // measure 66
0100
0001
0100
1000
0001
0000
0101
0000
,  // measure 67
0101
1100
1100
0110
,  // measure 68
2001
0000
0000
0001
0000
0000
3001
0000
0100
0000
0001
0000
0010
0000
0100
0000
,  // measure 69
1000
0010
0100
0010
1000
0010
0001
0010
,  // measure 70
1000
0001
1000
0010
0110
0000
0101
0000
,  // measure 71
1100
1100
0110
0110
,  // measure 72
2002
0000
3003
0000
1100
2200
0000
0000
,  // measure 73
3300
0000
1001
0000
1000
0100
0001
0100
,  // measure 74
1000
0100
0010
0001
0101
0202
0000
0000
,  // measure 75
0000
0000
0303
0000
1001
0000
0001
1000
,  // measure 76
0020
0130
2200
0300
,  // measure 77
0002
0000
0000
0000
3003
0000
0000
0000
1002
0000
0000
0010
0000
0013
0000
0000
,  // measure 78
0210
0000
0000
0001
0000
0301
0000
0000
2100
0000
0000
0001
0000
3001
0000
0000
,  // measure 79
0120
0000
0000
1000
0000
1030
0000
0000
1002
0000
0000
0010
0000
0013
0000
0000
,  // measure 80
0120
0000
0000
1000
0000
1030
0000
0000
2001
0000
0000
0100
0000
3100
0000
0000
,  // measure 81
0210
0000
0000
0001
0000
0301
0000
0000
0220
0000
0000
0000
0000
0000
0000
0000
,  // measure 82
0000
0000
0000
0000
0330
0000
0000
0000
1000
0001
0000
0100
0000
0100
0000
0100
,  // measure 83
0000
0001
0000
1000
0100
0000
0100
0000
0000
0000
0000
0000
0000
0000
0000
0000
;

//---------------dance-single - ----------------
#NOTES:
     dance-single:
     :
     Challenge:
     10:
     0.823,0.778,0.205,0.385,0.728: // measure 1
2001
0100
0010
3100
,  // measure 2
2000
0000
0001
0000
0010
0000
3001
1000
,  // measure 3
0001
0000
0100
0000
0010
0000
1000
0000
0010
0000
0100
0000
0001
1000
0001
0000
,  // measure 4
1000
0000
0100
1000
0100
0000
0010
0100
0010
0000
0001
1000
0001
0000
0200
0000
,  // measure 5
0000
0000
0000
0000
0000
0000
0300
0000
1001
0000
0010
0000
0100
1000
0100
0000
,  // measure 6
0010
0000
0100
0000
1000
0001
1000
0000
0010
0000
0100
0000
0001
0100
0001
0000
,  // measure 7
0010
0000
0100
0000
1000
0001
1000
0000
0100
0000
0010
0000
0100
1000
0100
0000
,  // measure 8
0010
0000
0001
0000
0100
0001
0100
0000
0001
0000
1000
0000
0100
0010
0100
0000
,  // measure 9
1000
0010
0100
0000
0010
0100
0010
0000
1001
0000
1001
0000
0000
0000
0000
0000
,  // measure 10
0100
0001
0010
0001
0100
0000
0000
0000
1001
0000
1001
0000
0000
0000
0000
0000
,  // measure 11
0010
1000
0100
1000
0010
0000
0000
0000
1001
0000
1001
0000
0000
0000
0000
0000
,  // measure 12
0100
0010
0001
0010
0100
0000
0000
0000
1001
0000
1001
0000
0000
0000
0000
0000
,  // measure 13
0010
1000
0100
0010
0001
1000
0020
0000
0000
0000
0000
0000
,  // measure 14
1000
0100
2030
3200
,  // measure 15
0320
0032
2003
3020
,  // measure 16
0230
0302
2003
0000
,  // measure 17
0002
3003
2002
3003
,  // measure 18
0220
0000
0000
0000
0330
0000
0000
0000
1000
0000
0010
0000
0100
0001
0100
0000
,  // measure 19
0001
0000
1000
0000
0100
0010
0100
0000
1000
0000
0100
0000
0010
0001
0010
0000
,  // measure 20
0001
0000
0100
0000
0010
0100
0010
0000
0100
0000
0001
0000
0010
0100
0010
0000
,  // measure 21
0001
0000
1000
0000
0010
1000
0010
0000
1000
0000
0001
0000
0010
0001
0010
0000
,  // measure 22
0100
1000
0010
0100
0010
1000
0100
0000
1002
0000
0000
0000
0103
0000
0001
0100
,  // measure 23
0010
0000
0100
0000
0001
0000
0001
0000
2000
0000
0000
0000
3010
0000
1000
0010
,  // measure 24
0100
0000
0001
0000
1000
0000
1000
0000
0020
0000
0000
0000
0130
0000
0001
0010
,  // measure 25
0200
0000
0000
0000
1300
0000
0001
0100
0020
0000
0000
0000
1030
0000
0001
1000
,  // measure 26
0001
0000
0010
0000
0100
0000
0010
0000
0002
0000
0000
0000
1003
0000
0010
1000
,  // measure 27
0200
0000
0000
0000
0310
0000
0001
0010
0200
0000
0000
0000
0310
0000
0001
1000
,  // measure 28
0001
0000
0100
0000
0010
0000
1000
0000
0020
0000
0000
0000
0130
0000
0001
1000
,  // measure 29
0200
0000
0000
0000
0310
0000
0001
0100
0010
0000
1000
0001
1000
0001
1000
0000
,  // measure 30
0001
0010
0100
0010
0001
0010
0100
0000
1000
0010
0000
0010
0100
0000
0100
0010
,  // measure 31
0000
0010
1000
0000
0001
1000
0001
0000
0010
0001
0000
0001
0100
0000
0100
0010
,  // measure 32
0000
0010
1000
0000
0001
1000
0001
0000
0100
0001
0000
0001
0010
0000
0010
0100
,  // measure 33
0000
0100
1000
0000
0010
0100
0010
0000
1000
0100
0000
0100
0010
0000
0010
0001
,  // measure 34
0000
0001
1000
0000
0100
0010
0100
0000
1000
0000
0001
0100
0001
0000
0010
0000
,  // measure 35
0100
1000
0000
1000
0001
0000
1000
0000
0001
0000
1000
0100
1000
0000
0010
0000
,  // measure 36
0100
0001
0000
0001
1000
0000
0001
0000
1000
0000
0100
1000
0100
1000
0100
0000
,  // measure 37
1000
0000
0001
0100
0001
0100
0001
0000
1000
0100
0000
0100
1000
0000
0100
0010
,  // measure 38
0000
0010
0100
0000
1000
0001
1000
0001
0200
0000
0000
0000
0000
0000
0010
0000
,  // measure 39
0320
1000
1030
0001
,  // measure 40
0010
0000
1000
0000
0010
0000
0001
1000
,  // measure 41
0001
0000
0100
0000
0010
0000
1000
0001
,  // measure 42
1000
0010
0200
0001
,  // measure 43
0001
0000
0301
0000
1000
0000
0010
0100
,  // measure 44
0010
0000
1000
0000
0001
0000
0010
0100
,  // measure 45
0010
0000
0000
0000
0001
0000
0000
0000
0100
0001
0000
0001
0100
0000
0010
0100
,  // measure 46
0000
0100
0010
0000
1000
0000
0001
0000
1001
0000
1001
0000
0000
0000
0010
0001
,  // measure 47
0100
0000
0001
0000
1000
0100
1000
0000
0100
0010
0100
0000
1000
0100
1000
0000
,  // measure 48
0001
1000
0001
0000
1000
0001
1000
0000
1001
0000
1001
0000
0000
0000
0110
0000
,  // measure 49
0000
0000
0100
0000
0001
0010
0001
0000
0010
0100
0010
0000
0001
0010
0001
0000
,  // measure 50
1000
0001
1000
0000
0001
1000
0001
0000
2000
0000
0100
0000
0000
0000
3001
0010
,  // measure 51
0002
0000
0000
0100
0000
0000
0000
0000
0000
0000
0000
0000
1003
0000
0100
0000
0001
0000
0100
0000
1000
0000
0010
0000
,  // measure 52
0001
0000
0000
0000
0010
0000
0000
0000
1000
0000
0000
0000
0001
0000
0000
0000
0100
0000
0000
0000
0010
0000
0000
0000
0001
0000
0000
1000
0000
0000
0001
0000
0000
0000
0000
0000
0000
0000
0000
0000
0000
0000
0000
0000
0000
0000
0000
0000
,  // measure 53
0200
0000
0020
0000
0330
0000
0000
0000
1000
0001
1000
0000
0000
0000
0000
0000
,  // measure 54
0020
0000
0200
0000
0330
0000
0000
0000
0001
1000
0001
0000
0000
0000
0000
0000
,  // measure 55
0020
0000
0200
0000
0330
0000
0000
0000
1000
0001
1000
0000
0001
0000
0000
0000
,  // measure 56
0200
0000
0020
0000
0330
0000
0000
0000
1000
0001
1000
0000
0200
0000
0300
0000
,  // measure 57
0010
0001
0010
0000
0200
0000
0300
0000
1000
0010
1000
0000
0020
0000
0030
0000
,  // measure 58
0100
0001
0100
0000
0002
0000
0003
0000
1000
0001
0000
0001
0010
0000
0000
0000
,  // measure 59
0010
0100
0000
0100
1000
0000
0000
0000
1000
0010
0000
0010
0100
0000
0000
0000
,  // measure 60
0100
0001
0000
0001
1000
0000
0000
0000
1000
0000
0001
0100
0001
0000
1000
0100
,  // measure 61
1000
0000
0001
0010
0001
0000
1000
0010
1000
0000
0100
0000
0001
0000
0100
0000
,  // measure 62
1000
0000
0010
0000
0100
0001
0100
0001
2000
0000
0000
0000
0000
0000
0000
0000
,  // measure 63
0000
0000
0000
0000
3000
0000
0000
0000
0010
0100
0000
0100
0010
0000
1000
0001
,  // measure 64
0000
0001
1000
0000
0010
0000
0010
0000
1000
0001
1000
0000
0100
0000
0001
0000
,  // measure 65
0100
0000
1000
0000
0010
0000
0100
0000
0001
1000
0001
0000
0010
0000
1000
0000
,  // measure 66
0010
0001
0100
0010
1000
1000
0100
0100
,  // measure 67
0010
0000
0010
0000
0001
0000
0001
0000
0100
0010
0000
0100
0010
0000
1000
0000
,  // measure 68
0001
1000
0000
0001
1000
0000
0010
0000
0100
0010
0100
0000
0001
0000
0010
0000
,  // measure 69
1000
0000
0010
0000
0001
0000
1000
0000
0010
0100
0010
0000
1000
0000
0100
0000
,  // measure 70
0001
0000
0100
0000
1000
0000
0010
0000
0100
0000
0001
0010
0100
0000
0010
0000
,  // measure 71
0001
0000
1000
0010
0100
0000
0010
0000
1000
0001
0100
0000
0001
1000
0001
0000
,  // measure 72
0100
0010
0100
0010
0100
0010
0100
0000
1010
0000
1010
0000
0000
0000
0100
0000
,  // measure 73
0000
0100
0000
0000
1001
0000
1000
0000
0001
0100
0001
0000
1000
0100
1000
0000
,  // measure 74
0001
0010
0100
1000
0010
0100
0010
0000
0101
0000
0101
0000
0000
0000
0010
0000
,  // measure 75
0000
0010
0000
0010
0011
0000
0100
1000
,  // measure 76
0020
0000
0130
0000
0102
0100
0100
0000
,  // measure 77
1000
0000
1000
0000
1003
0000
0000
0000
0001
1000
0000
0100
0000
0001
0000
0000
,  // measure 78
0100
1000
0000
0010
0000
0100
0000
0000
0001
1000
0000
0010
0000
0001
0000
0000
,  // measure 79
0010
1000
0000
0001
0000
0010
0000
0000
0100
0001
0000
0100
0000
1000
0000
0000
,  // measure 80
0001
0100
0000
0010
0000
0001
0000
0000
0010
1000
0000
0100
0000
0010
0000
0000
,  // measure 81
1000
0010
0000
0001
0000
1000
0000
0000
0120
0000
0000
0000
1000
0000
0000
0000
,  // measure 82
0100
0000
0100
0000
0130
0000
0000
0000
0001
1000
0000
0100
0000
0001
0000
1000
,  // measure 83
0000
0010
0000
0001
1000
0000
0001
0000
0000
0000
0000
0000
0000
0000
0000
0000
;

//---------------dance-single - ----------------
#NOTES:
     dance-single:
     :
     Beginner:
     2:
     0.116,0.128,0.126,0.000,0.000:
0001
0000
0000
0000
,
0001
0000
0000
0000
,
0010
0000
0000
0000
,
0010
0000
0000
0000
,
0000
0000
0100
0000
,
0010
0000
0100
0000
,
0000
0000
1000
0000
,
0001
0000
1000
0000
,
0000
0000
1001
0000
,
0000
0000
1001
0000
,
0000
0000
0110
0000
,
0000
0000
0110
0000
,
0000
0000
0010
0000
,
0000
0000
0000
0000
,
0000
0000
0000
0000
,
0000
0000
0000
0000
,
0000
0000
0100
0000
,
0000
0000
0001
0000
,
1000
0000
0001
0000
,
0000
0000
0010
0000
,
0001
0000
0010
0000
,
0000
0000
1001
0000
,
0000
0000
0100
0000
,
0000
0000
1000
0000
,
0000
0000
0001
0000
,
0000
0000
0100
0000
,
0000
0000
0010
0000
,
0000
0000
0100
0000
,
0000
0000
0001
0000
,
0000
0000
1001
0000
,
1000
0000
0001
0000
,
0000
0000
1000
0000
,
0001
0000
1000
0000
,
0000
0000
0100
0000
,
1000
0000
0100
0000
,
0000
0000
0010
0000
,
0001
0000
0010
0000
,
0000
0000
0001
0000
,
0000
0000
0000
0000
,
0000
0000
1000
0000
,
0000
0000
0000
0000
,
0000
0000
0001
0000
,
0000
0000
0000
0000
,
0000
0000
0010
0000
,
0000
0000
0100
0000
,
0000
0000
1001
0000
,
0000
0000
0001
0000
,
0000
0000
1001
0000
,
0000
0000
1000
0000
,
0000
0000
0001
0000
,
0000
0000
1000
0000
,
0000
0000
0110
0000
,
0000
0000
0010
0000
,
0000
0000
0010
0000
,
0000
0000
0010
0000
,
0000
0000
0100
0000
,
0000
0000
0010
0000
,
0000
0000
0100
0000
,
0000
0000
0010
0000
,
0000
0000
1000
0000
,
0000
0000
0001
0000
,
0000
0000
1001
0000
,
0000
0000
0000
0000
,
0000
0000
0001
0000
,
1000
0000
0001
0000
,
0000
0000
0100
0000
,
0100
0000
0100
0000
,
0000
0000
0001
0000
,
1000
0000
0001
0000
,
0000
0000
0010
0000
,
0010
0000
0010
0000
,
0000
0000
0100
0000
,
0000
0000
1000
0000
,
0000
0000
0010
0000
,
0000
0000
0100
0000
,
0000
0000
0001
0000
,
0000
0000
1001
0000
,
0000
0000
1001
0000
,
0000
0000
1001
0000
,
0000
0000
0110
0000
,
0000
0000
0110
0000
,
0000
0000
1001
0000
;
