#TITLE:緋月の狂想曲;
#SUBTITLE:;
#ARTIST:倉持武志;
#TITLETRANSLIT:AKATSUKI NO KYOUSOUKYOKU;
#SUBTITLETRANSLIT:;
#ARTISTTRANSLIT:TAKESHI KURAMOCHI;
#CREDIT:DigiMindAxel;
#BANNER:AKATSUKI NO KYOUSOUKYOKU.png;
#BACKGROUND:AKATSUKI NO KYOUSOUKYOKU-bg.png;
#LYRICSPATH:;
#CDTITLE:pop'n music.png;
#MUSIC:AKATSUKI NO KYOUSOUKYOKU.mp3;
#OFFSET:-8.500;
#SAMPLESTART:17.324;
#SAMPLELENGTH:12.000;
#SELECTABLE:YES;
#DISPLAYBPM:270.000;
#BPMS:0.000=270.000,32.000=135.000,36.000=270.000,412.000=135.000;
#STOPS:;
#BGCHANGES:;

//---------------dance-single - ----------------
#NOTES:
     dance-single:
     :
     Easy:
     3:
     0.251,0.381,0.185,0.111,0.000:
1000
0000
0100
0000
,
1000
0000
0001
0000
,
0100
0000
0010
0000
,
0000
0000
0000
0000
,
0110
0000
0100
0000
,
0010
0000
0100
0000
,
2002
0000
0000
0000
,
0000
0000
3003
0000
,
0000
0000
0000
0000
,
1001
0000
0010
0000
,
0100
0000
1000
0000
,
0001
0000
0001
0000
,
1000
0000
1000
0000
,
0001
0000
0100
0000
,
0010
0000
0100
0000
,
0002
0000
0000
0000
,
0000
0000
0000
0000
,
1003
0000
0100
0000
,
0010
0000
0001
0000
,
1000
0000
1000
0000
,
0001
0000
0001
0000
,
0110
0000
0000
0000
,
0100
0000
0010
0000
,
1001
0000
0000
0000
,
1000
0000
0000
0000
,
0001
0000
0010
0000
,
0100
0000
1000
0000
,
0001
0000
0001
0000
,
1000
0000
1000
0000
,
0010
0000
0100
0000
,
0010
0000
1000
0000
,
0001
0000
0100
0000
,
0010
0000
0100
0000
,
0110
0000
0000
0000
,
0010
0000
0100
0000
,
1001
0000
0000
0000
,
0100
0000
0010
0000
,
0110
0000
1000
0000
,
0100
0000
0010
0000
,
0001
0000
0000
0000
,
1000
0000
0000
0000
,
1001
0000
0000
0000
,
0000
0000
0000
0000
,
0010
0000
0010
0000
,
0010
0000
0010
0000
,
0110
0000
0000
0000
,
0000
0000
0000
0000
,
0100
0000
0100
0000
,
0100
0000
0100
0000
,
0110
0000
0000
0000
,
0000
0000
0000
0000
,
0001
0000
1000
0000
,
0001
0000
0000
0000
,
1001
0000
0100
0000
,
0010
0000
0001
0000
,
1000
0000
1000
0000
,
1000
0000
1000
0000
,
0001
0000
0010
0000
,
0100
0000
1000
0000
,
0001
0000
0001
0000
,
0001
0000
0001
0000
,
0110
0000
0110
0000
,
0110
0000
0110
0000
,
1001
0000
0000
0000
,
0001
0000
0000
0000
,
0001
0000
0000
0000
,
0001
0000
0000
0000
,
1000
0000
0000
0000
,
1000
0000
0000
0000
,
1000
0000
0000
0000
,
0000
0000
0000
0000
,
1001
0000
1000
0000
,
0001
0000
0010
0000
,
0100
0000
1000
0000
,
0001
0000
1000
0000
,
0200
0000
0000
0000
,
0320
0000
0000
0000
,
0032
0000
0000
0000
,
2003
0000
0000
0000
,
3001
0000
0100
0000
,
0010
0000
0100
0000
,
0001
0000
0010
0000
,
0100
0000
1000
0000
,
0002
0000
0000
0000
,
1003
0000
0100
0000
,
0020
0000
0000
0000
,
0130
0000
0000
0000
,
1000
0000
0100
0000
,
1000
0000
0001
0000
,
1000
0000
0100
0000
,
1000
0000
0001
0000
,
0020
0000
0000
0000
,
0032
0000
0000
0000
,
0103
0000
0000
0000
,
0110
0000
0000
0000
,
0001
0000
0100
0000
,
0001
0000
1000
0000
,
0001
0000
0010
0000
,
0001
0000
1000
0000
,
0200
0000
0000
0000
,
0310
0000
0001
0000
,
0110
0000
0000
0000
,
0010
0000
0100
0000
,
1000
0000
0000
0000
;

//---------------dance-single - ----------------
#NOTES:
     dance-single:
     :
     Medium:
     6:
     0.362,0.429,0.241,0.083,0.000:
0001
0000
1001
0000
,
1000
0000
1100
0000
,
0001
0000
0101
0000
,
0000
0010
0100
0010
,
1000
0000
0100
0000
,
0010
0000
0001
0000
,
0100
0000
0000
0100
0000
0000
0200
0000
,
0000
0000
0000
0000
,
0310
0000
0000
0000
,
1001
0000
0100
0000
,
1000
0100
1000
0000
,
0001
0010
0100
0000
,
1000
0100
0010
0000
,
0001
0000
0100
0000
,
0010
0000
1000
0000
,
0100
1000
0010
0000
,
0100
0010
0100
0000
,
1001
0000
0010
0000
,
0100
0000
1000
0100
,
1000
0000
0010
0100
,
0001
0000
0010
0001
,
0010
0000
0001
0000
,
0010
0000
0100
0000
,
1001
0000
0000
0000
,
1100
0000
0000
0000
,
0001
0000
0010
0000
,
0001
1000
0001
0000
,
1000
0100
0010
0000
,
0001
0010
0100
0000
,
1000
0000
0010
0000
,
0100
0000
0001
0000
,
0100
0010
0100
0000
,
0001
1000
0100
0000
,
1001
0000
0100
0000
,
0010
0000
0001
0100
,
0010
0000
0100
0000
,
0001
0000
0010
0100
,
1000
0000
0010
0000
,
1000
0000
0100
0000
,
0011
0000
0000
0000
,
0110
0000
0000
0000
,
1001
0000
0000
0000
,
1000
0000
0100
0000
,
0001
0000
0100
0000
,
1000
0000
0000
1000
0000
0000
1000
0000
,
0110
0000
0000
0000
,
0001
0000
0010
0000
,
1000
0000
0010
0000
,
0001
0000
0000
0000
,
0110
0000
0000
0000
,
1000
0000
0010
0000
,
0001
0000
0010
0000
,
1000
0000
0000
0000
,
1001
0000
0100
1000
,
0100
1000
0010
0000
,
0100
0010
0100
0000
,
0001
1000
0001
0000
,
1000
0100
0010
0000
,
0001
0010
0001
0000
,
0100
0001
0100
0001
,
0100
0001
1000
0000
,
1001
0000
1001
0000
,
0110
0000
0110
0000
,
1002
0000
0000
0000
,
0100
0000
0000
0000
,
1003
0000
0000
0000
,
0010
0000
0010
0000
,
0110
0000
1000
0000
,
0100
0000
0010
0000
,
0002
0000
0000
0000
,
0103
0010
0100
0001
,
0010
0000
0100
1000
,
0010
0000
0100
0010
,
0100
0000
0010
1000
,
0100
0010
0001
0000
,
0202
0000
0003
0000
,
0020
0000
0330
0000
,
1001
0000
0000
1000
0000
0000
0001
0000
,
0200
0000
0000
0000
,
0310
0000
0100
0001
,
0010
0100
1000
0000
,
0010
0000
0100
0000
,
0010
1000
0100
0000
,
0010
0001
0100
0000
,
0001
0010
0100
1000
,
0010
0000
0100
0000
,
0110
0000
0000
0100
0000
0000
0100
0000
,
0001
0010
0001
0000
,
0010
0100
0010
0000
,
0100
1000
0100
0000
,
1000
0001
1000
0100
,
0020
0000
0001
0000
,
0100
0000
0031
0000
,
1001
0000
0000
0001
0000
0000
0001
0000
,
0200
0000
0000
0000
,
0310
0000
0100
0000
,
0010
0100
0010
0000
,
1000
0010
0100
0001
,
0010
0100
1000
0001
,
0100
0000
0010
0000
,
1000
0000
0000
0100
0000
0000
1000
0000
,
0001
0000
0000
0000
,
0101
0000
0110
0000
,
1000
0000
0000
0000
;

//---------------dance-single - ----------------
#NOTES:
     dance-single:
     :
     Hard:
     9:
     0.684,0.674,0.500,0.093,0.056:
1000
0100
1100
0000
,
0001
0100
0110
0000
,
1001
0000
0000
0001
1000
0000
0100
0000
,
1000
0001
0100
0010
,
1010
0000
0000
1000
0000
0000
1001
0000
,
0000
0100
0000
0000
1100
0000
0000
0100
,
0000
0000
0011
0000
0000
0010
0000
0000
,
0110
0000
0000
0100
0000
0000
1000
0000
,
0001
0000
0000
0000
,
1001
0100
0010
1000
,
0001
0000
0010
0200
0000
0000
0310
0000
,
0001
0000
0100
0010
0100
0000
0001
0000
,
1000
0000
0010
0100
0010
0000
1000
0000
,
0001
0010
1000
0010
,
0001
0000
0100
0010
0100
0000
0001
0000
,
1000
0000
0001
0100
0001
0000
1000
0000
,
0100
0000
0010
0100
0010
0000
0100
0000
,
1100
0000
0001
0100
0001
0000
1000
0000
,
0001
0000
0100
0010
0100
0000
0001
0000
,
0101
0000
0010
0100
0010
0000
1000
0000
,
0010
0000
0100
0001
1000
0000
0010
0000
,
0110
0000
0100
0010
0100
0000
0001
0000
,
0010
0000
0100
1000
0010
0000
0100
0000
,
0110
0000
0000
0110
0000
0000
0010
0100
,
0001
1000
0001
1000
0001
0000
0000
0000
,
1001
0000
1000
0010
1000
0000
0010
1000
,
0100
0000
0010
0200
0000
0000
1300
0000
,
0001
0000
0010
0001
0010
0000
0100
0010
,
0100
0000
1000
0100
1000
0000
0010
0000
,
0100
0000
0001
0010
0001
0000
0010
0001
,
0100
0001
1000
0100
,
0010
0000
0100
1000
0100
0000
0010
0100
,
0010
0000
0001
0010
0001
0000
0100
0000
,
0110
0000
0001
0100
0001
0000
0100
0010
,
0100
0000
0010
1000
0010
0000
0100
0000
,
0110
0000
0001
0010
0001
0000
0100
0010
,
0100
0000
0001
0010
0100
0000
1000
0000
,
1100
0000
0010
0100
0010
0000
1000
0001
,
1000
0000
0010
0100
0001
0000
0100
0000
,
0100
0000
0000
0000
0110
0000
0100
0010
,
1000
0100
1000
0100
1000
0100
1000
0000
,
1001
0000
0000
0000
,
0001
0100
0001
0100
0001
0100
0010
0000
,
1010
0000
0110
0000
,
1001
0000
0000
1001
0000
0000
1001
0000
,
0110
0000
0000
0000
0000
0000
0000
1000
,
0001
0000
0010
0000
0100
0000
1000
0010
,
0100
0000
0110
0000
,
0101
0000
0100
0000
,
0110
0000
0000
0001
1000
0000
0100
0000
,
0010
0001
0010
0001
0010
0001
0010
0000
,
0001
1000
0001
0000
1000
0001
1000
0000
,
0020
0000
0000
0030
,
1001
0000
0000
0001
1000
0000
0100
0000
,
0001
0000
0100
0000
1000
0000
0001
1000
,
0010
0001
0010
1000
,
0010
0010
0100
0100
,
0001
0000
1000
0001
1000
0000
0010
0000
,
0001
0000
0010
0000
1000
0000
0001
1000
,
0100
0001
0100
1000
,
0010
0010
0100
0100
,
1100
0100
1100
0100
,
0101
0100
0101
0100
,
1001
0000
0000
0000
,
1100
0000
0000
0010
,
0110
0000
0000
0000
0000
0000
0000
0100
,
0010
0000
0000
0010
0000
0000
0010
0100
,
0010
0000
0000
1001
0000
0000
1001
0000
,
0000
0000
0010
1000
0001
0000
0000
0000
,
1000
0000
0100
0000
0010
0000
0001
0000
1000
0000
0010
0000
,
0100
0100
0010
0010
,
1001
0000
1000
0100
1000
0000
0100
0010
,
0100
0000
1000
0100
1000
0000
0010
0100
,
0001
1000
0001
1000
0001
0000
0100
0001
,
0100
0000
0010
1000
0100
0010
0100
0000
,
1002
0000
0000
1000
0000
0000
1000
0000
,
0100
0000
0000
0100
0000
0000
0103
0000
,
0110
0000
0000
0110
0000
0000
0010
0100
,
0001
0010
0001
0010
0001
0000
0000
0000
,
1001
0000
1000
0001
1000
0000
0010
1000
,
0010
1000
0100
0010
0002
0000
1000
0000
,
0000
0100
0000
1003
,
0100
1000
0100
1000
0010
0100
0001
0100
,
0020
1000
0000
0031
,
0020
0000
0000
0100
0000
0000
0130
0000
,
1001
0000
1000
0001
1000
0001
1000
0001
,
1000
0000
0000
0110
0000
0000
1001
0000
,
0001
0100
0001
0000
1000
0100
1000
0000
,
0001
0100
0001
0000
1000
0100
1000
0000
,
0100
0010
0001
0100
0010
0000
1000
0000
,
0100
0010
0001
0100
0010
0000
1000
0000
,
2010
0000
0000
0001
,
0002
0000
0000
0000
3003
0000
0100
0010
,
0100
0000
0000
0110
0000
0000
0100
0000
,
0010
0100
0001
1000
0001
1000
0001
0000
,
1001
0000
1000
0010
1000
0000
0010
0000
,
0100
0000
0001
0010
0001
0000
0010
0000
,
0100
0000
0000
0000
0000
0000
0000
0000
0000
0000
0000
0000
0000
0000
1000
0000
0000
0000
0000
0000
0000
0000
0000
0000
0000
0100
0000
0000
0000
0000
0000
0000
0000
0000
0000
0000
0000
0000
1000
0000
0000
0000
0000
0000
0000
0000
0000
0000
0000
0010
0000
0000
0000
0000
0000
0000
0000
0000
0000
0000
0000
0000
0100
0000
,
0000
0000
0000
0000
0000
0000
0000
0000
0000
0001
0000
0000
0000
0000
0000
0000
0000
0000
0000
0000
0000
0000
0010
0000
0000
0000
0000
0000
0000
0000
0000
0000
0000
0000
0100
0000
0000
0000
0000
0000
0000
0000
0000
0000
0000
0000
0000
0000
1000
0000
0000
0000
0000
0000
0000
0000
0000
0000
0000
0000
0000
0000
0000
0000
,
0010
0000
1000
0010
1000
0000
0001
0000
,
0100
0000
0000
1100
0000
0000
0100
0000
,
0101
0000
0000
0100
0010
1000
0100
0010
,
0001
0000
0000
0101
0000
0000
1100
0000
,
0200
0000
0000
0000
,
0300
0000
0000
0000
;

//---------------dance-single - ----------------
#NOTES:
     dance-single:
     :
     Beginner:
     2:
     0.127,0.191,0.120,0.000,0.000:
1000
0000
0000
0000
,
0001
0000
0000
0000
,
1000
0000
0000
0000
,
0000
0000
0000
0000
,
0010
0000
0000
0000
,
0000
0000
0000
0000
,
0010
0000
0000
0000
,
0000
0000
0000
0000
,
0010
0000
0000
0000
,
1001
0000
0000
0000
,
0000
0000
0000
0000
,
0001
0000
0000
0000
,
1000
0000
0000
0000
,
0001
0000
0000
0000
,
0000
0000
0000
0000
,
0100
0000
0000
0000
,
0000
0000
0000
0000
,
0110
0000
0000
0000
,
0000
0000
0000
0000
,
0010
0000
0000
0000
,
0000
0000
0000
0000
,
0100
0000
0000
0000
,
0000
0000
0000
0000
,
0010
0000
0000
0000
,
0000
0000
0000
0000
,
1000
0000
0000
0000
,
0001
0000
0000
0000
,
1000
0000
0000
0000
,
0001
0000
0000
0000
,
1000
0000
0000
0000
,
0100
0000
0000
0000
,
0010
0000
0000
0000
,
0001
0000
0000
0000
,
0010
0000
0000
0000
,
0100
0000
0000
0000
,
1000
0000
0000
0000
,
0010
0000
0000
0000
,
0100
0000
0000
0000
,
0001
0000
0000
0000
,
1000
0000
0000
0000
,
0000
0000
0000
0000
,
1001
0000
0000
0000
,
0000
0000
0000
0000
,
1001
0000
0000
0000
,
0000
0000
0000
0000
,
1001
0000
0000
0000
,
0000
0000
0000
0000
,
1000
0000
0000
0000
,
0000
0000
0000
0000
,
1001
0000
0000
0000
,
0001
0000
0000
0000
,
0000
0000
0000
0000
,
1001
0000
0000
0000
,
0010
0000
0000
0000
,
0100
0000
0000
0000
,
0010
0000
0000
0000
,
0010
0000
0000
0000
,
0100
0000
0000
0000
,
0100
0000
0000
0000
,
0010
0000
0000
0000
,
0100
0000
0000
0000
,
1001
0000
0000
0000
,
0000
0000
0000
0000
,
1001
0000
0000
0000
,
0001
0000
0000
0000
,
1000
0000
0000
0000
,
0001
0000
0000
0000
,
1000
0000
0000
0000
,
1000
0000
0000
0000
,
1000
0000
0000
0000
,
0000
0000
0000
0000
,
1001
0000
0000
0000
,
1000
0000
0000
0000
,
0001
0000
0000
0000
,
1000
0000
0000
0000
,
0010
0000
0000
0000
,
0010
0000
0000
0000
,
0010
0000
0000
0000
,
0000
0000
0000
0000
,
0100
0000
0000
0000
,
0010
0000
0000
0000
,
0100
0000
0000
0000
,
0001
0000
0000
0000
,
1000
0000
0000
0000
,
1000
0000
0000
0000
,
1001
0000
0000
0000
,
0000
0000
0000
0000
,
0001
0000
0000
0000
,
0010
0000
0000
0000
,
0100
0000
0000
0000
,
1000
0000
0000
0000
,
0100
0000
0000
0000
,
0010
0000
0000
0000
,
0001
0000
0000
0000
,
0000
0000
0000
0000
,
1001
0000
0000
0000
,
1000
0000
0000
0000
,
0010
0000
0000
0000
,
0100
0000
0000
0000
,
0001
0000
0000
0000
,
0001
0000
0000
0000
,
1001
0000
0000
0000
,
1000
0000
0000
0000
,
0001
0000
0000
0000
;

//---------------dance-single - ----------------
#NOTES:
     dance-single:
     :
     Challenge:
     10:
     0.854,0.818,0.602,0.157,0.056: // measure 1
0001
0000
0100
0001
0100
0000
0010
0100
,  // measure 2
0010
0000
1000
0010
1000
0000
0001
1000
,  // measure 3
0002
0000
0000
0103
0010
0000
1000
0000
,  // measure 4
0001
0100
0101
0100
,  // measure 5
1010
0000
0000
0110
0000
0000
0101
0000
,  // measure 6
0000
1100
0000
0000
0110
0000
0000
0010
,  // measure 7
1000
0100
0000
1000
0100
0000
0010
0001
,  // measure 8
0000
0010
0001
1000
0100
0000
0000
0000
,  // measure 9
0220
0000
0000
0330
,  // measure 10
1001
0000
0100
1000
0100
0000
0010
0001
,  // measure 11
0010
0000
0100
0020
0000
0000
0031
0000
,  // measure 12
1000
0000
0100
1000
0010
0000
0100
0001
,  // measure 13
0010
0000
0100
0010
0100
1000
0001
0000
,  // measure 14
1001
0000
0100
0001
0100
0000
0010
1000
,  // measure 15
0020
0100
0130
0001
,  // measure 16
1000
0000
0010
1000
0100
0000
0010
0001
,  // measure 17
0100
0000
0010
1000
0100
0010
0100
0000
,  // measure 18
1001
0000
0001
0100
0010
0000
1000
0000
,  // measure 19
1010
0000
1000
0010
0100
0000
0001
0000
,  // measure 20
0101
0000
0001
0010
0001
0000
0010
0100
,  // measure 21
0010
0000
0100
1000
0001
0010
0100
0000
,  // measure 22
1001
0000
0100
0001
0010
0000
0100
0010
,  // measure 23
0100
0000
1000
0010
0100
0000
0010
0000
,  // measure 24
0110
0000
0000
0110
0000
0000
0010
0100
,  // measure 25
0001
0010
0100
1000
0100
0010
0001
0000
,  // measure 26
1001
0000
0100
0001
0100
0000
0010
1000
,  // measure 27
0010
0000
1000
0002
0000
0000
0103
0000
,  // measure 28
0010
0000
1000
0100
0010
0000
0100
1000
,  // measure 29
0100
0000
1000
0100
0010
0001
1000
0000
,  // measure 30
1001
0000
0010
0001
0010
0000
0100
1000
,  // measure 31
0200
0010
0310
0001
,  // measure 32
1000
0000
0001
0100
0010
0000
0100
0001
,  // measure 33
0100
0000
0001
0100
0010
1000
0001
0000
,  // measure 34
1001
0000
0001
0010
0100
0000
1000
0010
,  // measure 35
0100
0000
0010
0100
0010
0000
1001
0000
,  // measure 36
1001
0000
1000
0010
0100
0000
0001
0010
,  // measure 37
0100
0000
0010
0100
0010
0000
1001
0000
,  // measure 38
1001
0000
0100
1000
0010
0000
0100
0000
,  // measure 39
0101
0000
0100
0010
1000
0000
0010
0000
,  // measure 40
1010
0000
0000
0000
0110
0000
0100
0010
,  // measure 41
1000
0100
0010
0001
0010
0100
1000
0000
,  // measure 42
1001
0000
0000
0000
0001
0100
0001
0100
,  // measure 43
0010
1000
0010
1000
0100
0010
0100
0010
,  // measure 44
0001
1000
0001
1000
0010
0100
0010
0100
,  // measure 45
0001
1000
0001
1000
0100
0010
0001
0000
,  // measure 46
1001
0000
0000
0000
1000
0100
1000
0100
,  // measure 47
0010
0001
0010
0001
0100
0010
0100
0010
,  // measure 48
1000
0001
1000
0001
0010
0100
0010
0100
,  // measure 49
1000
0001
1000
0001
0010
0100
1000
0000
,  // measure 50
1001
0000
0000
0000
1000
0001
1000
0001
,  // measure 51
0010
0100
0010
0100
1000
0001
1000
0001
,  // measure 52
0100
0010
1000
0010
0100
0001
1000
0100
,  // measure 53
0020
0100
0100
0130
,  // measure 54
1001
0000
1000
0001
0100
0000
1000
0100
,  // measure 55
0001
0000
0101
0000
1001
0000
0001
1000
,  // measure 56
0100
0000
0001
0100
1000
0000
0100
0000
,  // measure 57
1100
0010
0011
1000
,  // measure 58
1001
0000
0001
1000
0010
0000
0001
0010
,  // measure 59
1000
0000
1010
0000
1001
0000
0001
1000
,  // measure 60
0100
0000
0001
0100
1000
0000
0001
0000
,  // measure 61
0101
1000
1010
0010
,  // measure 62
0110
0110
1001
1001
,  // measure 63
1100
1100
0011
0011
,  // measure 64
1001
0000
0000
0100
0000
0000
0100
0000
,  // measure 65
1100
0010
0001
0100
,  // measure 66
0110
0000
0010
0100
,  // measure 67
0010
0001
1000
0100
,  // measure 68
0010
0000
0001
1000
0000
1000
0001
0000
,  // measure 69
0000
0000
0100
0001
1000
0000
0001
0000
,  // measure 70
1000
0000
0100
0000
0001
0000
0100
0000
1000
0000
0100
0000
,  // measure 71
0010
0110
0110
1001
,  // measure 72
1001
0000
0001
0100
0001
0100
0010
1000
,  // measure 73
0010
1000
0100
0010
0001
0010
0100
1000
,  // measure 74
0010
0100
0001
1000
0010
0100
0001
0010
,  // measure 75
0100
1000
0001
0010
0100
1000
0010
0100
,  // measure 76
0020
0000
0000
1000
0000
0000
1000
0000
,  // measure 77
0100
0000
0000
0100
0000
0000
1030
0000
,  // measure 78
1001
0000
0000
1001
0000
0000
1000
0100
,  // measure 79
0010
0001
0010
0100
1000
0010
0100
0000
,  // measure 80
1001
0000
1000
0100
1000
0100
0010
0001
,  // measure 81
0010
0001
0100
0010
1000
0001
1000
0000
,  // measure 82
0001
0100
0001
0000
1000
0010
1000
0000
,  // measure 83
0100
0010
0001
0010
0100
1000
0001
0100
,  // measure 84
0020
1000
1000
1030
,  // measure 85
0210
0000
0000
0302
0000
0000
0013
0000
,  // measure 86
1001
0000
0001
0010
0100
1000
0100
0010
,  // measure 87
0001
0000
0000
0110
0000
0000
1001
0000
,  // measure 88
0001
0100
1000
0100
0001
0010
0100
1000
,  // measure 89
0001
0100
1000
0100
0001
0010
0100
1000
,  // measure 90
0010
0001
0010
1000
0100
0010
0001
1000
,  // measure 91
0010
0001
0010
1000
0100
0010
0001
0100
,  // measure 92
0020
0000
1000
0000
1030
0000
0001
1000
,  // measure 93
0002
0000
0010
0000
0013
0000
0001
1000
,  // measure 94
0100
0000
0000
1001
0000
0000
1000
0100
,  // measure 95
0010
0001
0010
0100
1000
0010
0100
0000
,  // measure 96
1001
0000
0001
0010
0001
0000
0100
0010
,  // measure 97
0100
0000
0001
0010
0001
1000
0010
0000
,  // measure 98
0100
0000
0000
0000
0000
0000
0000
0000
0000
0000
0000
0000
0000
0000
0001
0000
0000
0000
0000
0000
0000
0000
0000
0000
0000
0100
0000
0000
0000
0000
0000
0000
0000
0000
0000
0000
0000
0000
0010
0000
0000
0000
0000
0000
0000
0000
0000
0000
0000
1000
0000
0000
0000
0000
0000
0000
0000
0000
0000
0000
0000
0000
0100
0000
,  // measure 99
0000
0000
0000
0000
0000
0000
0000
0000
0000
0010
0000
0000
0000
0000
0000
0000
0000
0000
0000
0000
0000
0000
0001
0000
0000
0000
0000
0000
0000
0000
0000
0000
0000
0000
0100
0000
0000
0000
0000
0000
0000
0000
0000
0000
0000
0000
0000
0000
0010
0000
0000
0000
0000
0000
0000
0000
0000
0000
0000
0000
0000
0000
0000
0000
,  // measure 100
1001
0000
1000
0010
0100
0000
0010
0100
,  // measure 101
0020
0000
0000
2030
0000
0000
3100
0000
,  // measure 102
0101
0000
0001
0100
0010
1000
0100
0010
,  // measure 103
0001
1000
0000
1000
0100
0000
0110
0000
,  // measure 104
0020
0000
0000
0000
,  // measure 105
0030
0000
0000
0000
;
