#TITLE:愛(忠誠心);
#SUBTITLE:;
#ARTIST:エクセル♥ガールズ;
#TITLETRANSLIT:AI (CHUU SEISHIN);
#SUBTITLETRANSLIT:;
#ARTISTTRANSLIT:EXCEL♥GIRLS;
#CREDIT:DigiMindAxel;
#BANNER:AI (CHUU SEISHIN).png;
#BACKGROUND:AI (CHUU SEISHIN)-bg.png;
#LYRICSPATH:;
#CDTITLE:DigiMindAxel original simfile.png;
#MUSIC:AI (CHUU SEISHIN).mp3;
#OFFSET:-3.580;
#SAMPLESTART:66.391;
#SAMPLELENGTH:12.000;
#SELECTABLE:YES;
#BPMS:0.000=120.800,12.000=181.200,15.000=120.800,44.000=181.200,47.000=120.800,76.000=181.200,79.000=120.800,125.000=181.200,128.000=120.800,174.000=181.200,181.500=120.799;
#STOPS:15.000=0.502
,47.000=0.502
;
#BGCHANGES:-8.000=AI (CHUU SEISHIN).avi=1.000=1=1=0,
99999=-nosongbg-=1.000=0=0=0 // don't automatically add -songbackground-
;

//---------------dance-single - ----------------
#NOTES:
     dance-single:
     :
     Easy:
     3:
     0.214,0.220,0.118,0.182,0.000:
1001
0000
0001
0000
,
1000
0000
0001
0000
,
0100
0000
0010
0000
,
2002
0000
0000
3003
,
0010
0000
0100
0000
,
0010
0000
1000
0000
,
0001
0000
0100
0000
,
0001
0000
1000
0001
,
1000
0000
0010
0100
,
0010
0000
1001
0000
,
0001
0000
1001
0000
,
0220
0000
0000
0330
,
0000
0001
0000
0100
,
0000
0010
0000
1000
,
0000
0100
0000
1000
,
0000
0001
0000
1000
,
0001
1000
0000
0010
,
0100
0010
0000
1000
,
0000
0010
0000
1000
,
2002
0000
0000
3003
,
0000
0001
0100
0001
,
0000
1000
0100
1000
,
0000
0010
0100
0010
,
0000
1001
0000
0100
,
0000
1000
0001
1000
,
0000
0001
0100
0001
,
0000
1000
0010
1000
,
0000
2002
0000
3003
,
0000
0001
1000
0001
,
1000
0001
0100
0010
,
0100
0010
0100
0001
,
1000
2002
0000
0000
,
3003
0000
1000
0100
,
1000
0000
0100
0010
,
0100
0000
0010
0001
,
0010
0000
0001
1000
,
0001
0000
1000
0100
,
0010
0001
0010
0100
,
1000
0001
0200
0000
,
0320
0000
0230
0000
,
0310
0000
0010
0100
,
0010
0000
1000
0100
,
1000
0000
0001
0010
,
0001
1000
1002
0000
,
0000
2003
0000
0000
,
3000
0000
0000
2002
0000
3003
0000
0000
;

//---------------dance-single - ----------------
#NOTES:
     dance-single:
     :
     Hard:
     7:
     0.549,0.586,0.460,0.525,0.048:
0001
0100
0010
1000
1000
0000
0100
0010
,
0001
0010
0100
0010
0001
0010
0100
0000
,
1000
0010
0100
0001
0001
0000
1001
0000
,
0002
0203
0302
0203
0302
0203
0310
0000
,
2010
0000
0000
0100
0100
0000
3010
0000
,
1000
0100
0010
0010
0010
0000
1001
0000
,
0102
0000
0000
0010
0010
0000
0103
0000
,
0001
0010
0100
0100
0100
0000
0110
0000
,
1100
1100
0011
0011
,
1001
0110
1001
1001
,
1000
0000
0010
0200
0000
0000
0001
0000
0301
0000
0000
0000
1000
0000
0100
0000
,
0020
0000
0000
0032
0000
0000
0023
0000
0000
0032
0000
0000
2003
0000
0000
3200
0000
0000
0320
0030
0000
0000
0000
0000
,
1002
0000
0000
0100
0100
0000
1003
0000
,
0001
0010
0100
0100
0100
0000
0110
0000
,
2001
0000
0000
0100
0100
0000
3001
0000
,
1000
0100
0010
0010
0010
0000
0110
0000
,
0101
0101
1010
1010
,
1001
0110
1001
1001
,
0001
0000
0100
0020
0000
0000
1000
0000
1030
0000
0001
0000
0010
0000
0100
0000
,
2000
3020
2030
3020
0230
0302
2003
0000
,
3001
0000
1000
0100
0010
0001
0010
0100
,
1000
0000
0001
0010
0100
1000
0100
0010
,
0001
0000
1000
0010
0100
0001
0100
0010
,
1000
0000
0000
0000
0100
0000
0010
0000
0100
0000
0000
0220
0000
0000
0000
0000
,
0330
0000
0001
0010
0100
1000
0100
0010
,
0001
0000
1000
0100
0010
0001
0010
0100
,
1000
0000
0000
0000
0001
0000
0100
0000
0010
0000
1000
0000
0010
0000
0000
0010
,
0000
0000
0000
0000
1001
0000
0000
0000
1001
0000
0000
0110
0000
0000
0000
0000
,
0000
0000
1000
0100
0001
0100
1000
0001
,
0100
0010
1000
0100
0001
0100
1000
0001
,
0100
0010
1000
0100
0001
0100
1000
0001
,
0010
0100
2000
3200
2300
3002
0023
0032
,
2003
3000
0000
0000
0000
0000
0000
0000
0000
0000
0000
0000
0101
0000
0000
0000
0000
0000
1100
0000
0000
0000
0000
0000
,
0101
0000
1100
0000
1000
0100
0010
0001
,
1000
0000
0100
0000
0001
0100
1000
0000
,
0001
0100
0010
0000
1000
0100
0001
0000
,
0100
0000
1000
0010
0110
0000
1001
0000
,
0110
0000
0000
0000
1001
0000
0000
0000
0001
0000
0010
0000
0100
0000
0000
0100
,
0000
0000
1000
0000
0001
0000
0000
0000
1001
0000
0000
0001
0000
0000
0001
0000
,
1000
0000
0000
1000
0000
0000
1000
0000
0110
0000
0000
0110
0000
0000
0001
0000
,
1001
0000
0000
0000
1000
1000
0010
0100
,
0001
0000
0010
0100
1000
0100
0010
0100
,
1000
0100
0010
0000
0001
0001
0010
0100
,
1000
0000
1001
0000
2000
3200
2300
3002
,
0203
0302
0203
0320
2030
3200
0320
0032
,
0003
0000
0000
2002
0000
3003
0000
0000
;

//---------------dance-single - ----------------
#NOTES:
     dance-single:
     :
     Challenge:
     9:
     0.633,0.635,0.193,0.578,0.380:
0001
0000
1000
0010
0000
0010
1000
0000
0001
0000
0000
0000
1000
0000
0010
0100
,
0010
0000
1000
0100
0000
1000
0100
0000
0000
0000
0010
0000
0100
0000
1000
0000
,
0001
0000
0100
0010
0000
0010
0100
0000
0001
0000
0000
0000
1001
0000
0000
0000
,
2000
0000
0000
3200
0000
0000
0320
0000
0000
0032
0000
0000
0023
0000
0000
0230
0000
0000
2300
3000
0000
0000
0000
0000
,
0010
0100
0001
1000
2000
0000
3100
0010
,
0000
0001
0100
0010
1000
0100
0010
0000
,
0100
1000
0010
0100
0200
0000
0301
1000
,
0000
0000
0100
0000
0010
0000
0001
0000
0100
0000
0010
0000
1000
0001
1000
0000
,
1001
0000
0000
1000
0100
0000
0000
0100
0001
0000
0000
0001
0100
0000
0000
0100
,
1000
0000
0000
1000
0001
0000
0000
0001
1000
0000
0000
0000
1001
0000
0000
0000
,
0001
0000
0100
0020
0000
0000
1000
0000
1030
0000
0000
0000
0001
0000
0010
0000
,
0002
0000
0000
2003
0000
0000
3200
0000
0000
0320
0000
0000
0032
0000
0000
2003
0000
0000
3020
0030
0000
0000
0000
0000
,
1000
0100
1000
0001
0002
0000
1003
0010
,
0000
0100
0001
0010
0100
1000
0001
0000
,
0010
0001
1000
0100
0200
0000
0310
0100
,
0000
0000
1000
0000
0010
0000
0100
0000
0010
0000
1000
0000
0001
1000
0001
0000
,
1001
0000
0000
0001
0100
0000
0000
0100
1000
0000
0000
1000
0100
0000
0000
0100
,
0001
0000
0000
0001
1000
0000
0000
1000
0001
0000
0000
0000
1001
0000
0000
0000
,
1000
0000
0010
0200
0000
0000
0001
0000
0301
0000
0000
0000
1000
0000
0100
0000
,
2000
3002
0023
0230
2300
3020
2030
0000
,
3001
0000
0000
0000
0001
0000
0010
0000
0001
0000
1000
0000
0010
0000
1000
0001
,
0000
0000
0010
0100
0010
0000
0001
0000
0100
0000
0001
1000
0001
0000
0010
0000
,
0100
0000
0000
0000
1000
0000
0100
0000
1000
0000
0001
0000
0100
0000
0001
1000
,
0000
0000
0100
0010
0100
0000
1000
0000
0010
0000
0100
0002
0000
0000
1000
0000
,
1003
0000
0000
0000
0001
0000
0100
0000
0010
0000
1000
0000
0100
0010
0100
0000
,
1000
0001
1000
0100
0010
0001
0100
0100
,
0110
0000
0000
0000
1000
0000
0100
0000
0010
0000
0100
0000
1000
0010
0000
0010
,
0100
0000
0001
0000
1001
0000
0000
0000
0110
0000
0000
0110
0000
0000
0000
0000
,
1000
0001
1000
0000
0001
0000
0100
0000
0001
0010
0100
0000
1000
0000
0010
0000
,
1000
0100
0010
0000
0100
0000
1000
0000
0001
0010
0001
0000
0100
0000
0010
0000
,
1000
0100
1000
0000
0001
0000
0010
0000
0100
0010
0001
0000
1000
0000
0010
0000
,
0100
0001
0100
0000
0002
0000
0023
0000
0230
0000
2300
0000
3020
0000
0230
0000
,
0302
0000
0003
0000
0000
0000
0000
0000
0000
0000
0000
0000
0000
0000
0000
0000
0000
0000
0000
0000
0000
0000
0000
0000
1001
0000
0000
0000
0000
0000
0000
0000
0000
1000
0000
0000
0010
0000
0000
0000
0000
0000
0000
0000
0000
0010
0000
0000
,
0100
0000
0000
0100
0001
0000
0000
0000
1000
0001
0000
0010
0000
0100
0000
2000
,
0000
0000
3001
0000
0100
0010
0000
0000
1000
0000
0010
0000
0001
0000
0010
0000
,
1000
0010
0000
0100
0000
0000
0001
1000
0001
0100
0000
0020
0000
0000
1000
0000
,
1030
0000
0000
0000
0010
0000
0100
0000
1001
0000
0000
0001
0010
0000
0000
0010
,
0100
0000
0000
0100
1000
0000
0000
0000
0010
0100
0010
1000
0000
0100
0000
0020
,
0000
0000
0031
0000
0100
0010
0000
0000
0102
0000
0000
1000
0000
0000
1003
0000
,
2100
0000
0000
0010
0000
0000
3010
0000
0110
0000
0000
0110
0000
0000
1001
0000
,
1001
0000
0000
0000
0000
0000
0000
0000
0001
0000
1000
0100
0000
0100
1000
0000
,
0010
0000
0100
0000
0001
0000
1000
0010
1000
0000
0010
0100
0000
0001
0010
0000
,
0001
0000
0010
0000
0100
0000
1000
0000
0001
0000
0100
0001
0000
0001
0100
0000
,
0001
0010
0100
0000
2000
3002
0023
0032
,
0203
0320
2030
3002
0203
0320
0230
0302
,
0003
0000
0000
2002
0000
3003
0000
0000
;

//---------------dance-single - ----------------
#NOTES:
     dance-single:
     :
     Medium:
     6:
     0.415,0.415,0.300,0.321,0.027:
1001
0100
1100
0000
,
0010
0010
0100
0010
,
1001
0100
0101
0000
,
2002
0000
3003
1001
,
1001
0000
0100
1000
0100
0000
0010
0000
,
0100
0000
1000
0000
0010
0100
0010
0000
,
1000
0000
0001
0010
0001
0000
0010
0000
,
0100
0000
0010
0001
0010
0000
1001
0000
,
0210
0320
2030
3002
,
0203
0320
2030
3001
,
1000
0100
0010
0000
0001
0100
0001
0000
,
2002
0000
0000
0000
0000
3003
1001
0000
,
1001
0000
0100
1000
0100
0000
0010
0000
,
0100
0000
1000
0000
0010
0100
0010
0000
,
1001
0000
0100
0001
0100
0000
0001
0000
,
0010
0000
0100
0000
1000
0010
0100
0000
,
2001
3020
0230
0302
,
0023
0230
2300
3001
,
1000
0010
0100
0000
0001
0001
1000
0000
,
2002
0000
3003
2002
,
3003
0000
1000
0100
1000
0000
0010
0100
,
0010
0000
1000
0100
0010
0000
0001
1000
,
0001
0000
0010
0001
0010
0000
0100
0010
,
0100
0000
0000
0000
0010
0000
0001
0000
1000
0000
0000
1000
0000
0000
0000
0000
,
0000
0000
0001
0100
0001
0000
0010
0001
,
0010
0000
0001
0100
0001
0000
0010
0100
,
1000
0000
0010
0100
0010
0000
1000
0001
,
1000
0000
0000
0000
0010
0000
0000
0000
0010
0000
0000
0110
0000
0000
0000
0000
,
0000
0000
0100
0010
0100
0001
1000
0000
,
0100
0000
0010
0100
1000
0010
0100
0000
,
0001
0000
1000
0100
0010
0001
0100
0000
,
0010
2002
0000
3003
,
1001
0000
0110
0100
,
0110
0000
0010
0000
1000
0100
0010
0001
,
1000
1000
1001
0010
,
0110
0100
0110
0001
,
1001
0000
0010
0001
0010
0000
0100
1000
,
0100
0010
0001
0000
1000
0010
0100
0010
,
1000
0000
0000
0000
0001
0000
0000
0000
1001
0000
0000
1000
0000
0000
1000
0000
,
0001
0000
0000
0001
0000
0000
0001
0000
0100
0000
0000
0100
0000
0000
0100
0000
,
0110
0000
0000
0000
0001
0010
0100
1000
,
0001
0100
0001
0000
1000
0100
0010
0001
,
1000
0010
1000
0000
0100
0010
0001
0010
,
0100
0000
1000
0000
0002
0000
0000
0203
,
0000
0000
0320
0000
0000
2030
0000
0000
,
3000
0000
0000
2002
0000
3003
0000
0000
;

//---------------dance-single - ----------------
#NOTES:
     dance-single:
     :
     Beginner:
     1:
     0.072,0.097,0.054,0.000,0.000: // measure 1
1000
0000
0000
0000
,  // measure 2
0001
0000
0000
0000
,  // measure 3
1000
0000
0000
0000
,  // measure 4
1000
0000
0000
0000
,  // measure 5
0001
0000
0000
0000
,  // measure 6
0000
0000
0000
0000
,  // measure 7
1000
0000
0000
0000
,  // measure 8
0000
0000
0000
0000
,  // measure 9
0010
0000
0000
0000
,  // measure 10
0010
0000
0000
0000
,  // measure 11
0010
0000
0000
0000
,  // measure 12
0100
0000
0000
0000
,  // measure 13
0001
0000
0000
0000
,  // measure 14
0000
0000
0000
0000
,  // measure 15
1000
0000
0000
0000
,  // measure 16
0000
0000
0000
0000
,  // measure 17
0001
0000
0000
0000
,  // measure 18
0001
0000
0000
0000
,  // measure 19
1000
0000
0000
0000
,  // measure 20
1000
0000
0000
0000
,  // measure 21
0000
1001
0000
0000
,  // measure 22
0000
1000
0000
0000
,  // measure 23
0000
0001
0000
0000
,  // measure 24
0000
1000
0000
0000
,  // measure 25
0000
0010
0000
0000
,  // measure 26
0000
0100
0000
0000
,  // measure 27
0000
0010
0000
0000
,  // measure 28
0000
0010
0000
0000
,  // measure 29
0000
1001
0000
0000
,  // measure 30
0000
1000
0000
0000
,  // measure 31
0000
0001
0000
0000
,  // measure 32
0000
1000
0000
0000
,  // measure 33
0000
0000
1001
0000
,  // measure 34
0000
0000
0001
0000
,  // measure 35
0000
0000
1000
0000
,  // measure 36
0000
0000
0001
0000
,  // measure 37
0000
0000
0100
0000
,  // measure 38
0000
0000
0100
0000
,  // measure 39
0000
0000
0110
0000
,  // measure 40
0010
0000
0100
0000
,  // measure 41
0000
0000
0001
0000
,  // measure 42
0000
0000
1000
0000
,  // measure 43
0000
0000
0001
0000
,  // measure 44
0000
0000
0001
0000
,  // measure 45
0000
0000
0000
0000
,  // measure 46
0000
0000
0000
1001
0000
0000
0000
0000
;
