#TITLE:ΔMAX;
#SUBTITLE:;
#ARTIST:DM Ashura;
#TITLETRANSLIT:deltaMAX;
#SUBTITLETRANSLIT:;
#ARTISTTRANSLIT:;
#CREDIT:DM Ashura;
#BANNER:deltaMAX.png;
#BACKGROUND:deltaMAX-bg.png;
#LYRICSPATH:;
#CDTITLE:[DBMC] Dance Dance Revolution Universe 3.png;
#MUSIC:deltaMAX.mp3;
#OFFSET:-0.330;
#SAMPLESTART:50.150;
#SAMPLELENGTH:12.000;
#SELECTABLE:YES;
#DISPLAYBPM:*;
#BPMS:0.000=100.000,16.000=101.000,17.000=102.000,18.000=103.000,19.000=104.000,20.000=105.000,21.000=106.000,22.000=107.000,23.000=108.000,24.000=109.000,25.000=110.000,26.000=111.000,27.000=112.000,28.000=113.000,29.000=114.000,30.000=115.000,31.000=116.000,32.000=117.000,33.000=118.000,34.000=119.000,35.000=120.000,36.000=121.000,37.000=122.000,38.000=123.000,39.000=124.000,40.000=125.000,41.000=126.000,42.000=127.000,43.000=128.000,44.000=129.000,45.000=130.000,46.000=131.000,47.000=132.000,48.000=133.000,49.000=134.000,50.000=135.000,51.000=136.000,52.000=137.000,53.000=138.000,54.000=139.000,55.000=140.000,56.000=141.000,57.000=142.000,58.000=143.000,59.000=144.000,60.000=145.000,61.000=146.000,62.000=147.000,63.000=148.000,64.000=148.980,65.000=150.000,66.000=151.000,67.000=152.000,68.000=153.000,69.000=154.000,70.000=155.000,71.000=156.000,72.000=157.000,73.000=158.000,74.000=159.000,75.000=160.000,76.000=161.000,77.000=162.000,78.000=163.000,79.000=164.000,80.000=165.000,81.000=166.000,82.000=167.000,83.000=168.000,84.000=169.000,85.000=170.000,86.000=171.000,87.000=172.000,88.000=173.000,89.000=174.000,90.000=175.000,91.000=176.000,92.000=177.000,93.000=178.000,94.000=179.000,95.000=180.000,96.000=181.000,97.000=182.000,98.000=183.000,99.000=184.000,100.000=185.000,101.000=186.000,102.000=187.000,103.000=188.000,104.000=189.000,105.000=190.000,106.000=191.000,107.000=192.000,108.000=193.000,109.000=194.000,110.000=195.000,111.000=196.000,112.000=197.000,113.000=198.000,114.000=199.000,115.000=200.000,116.000=201.000,117.000=202.000,118.000=203.000,119.000=204.000,120.000=205.000,121.000=206.000,122.000=207.000,123.000=208.000,124.000=209.000,125.000=210.000,126.000=211.000,127.000=212.000,128.000=213.000,129.000=214.000,130.000=215.000,131.000=216.000,132.000=217.000,133.000=218.000,134.000=219.000,135.000=220.000,136.000=221.000,137.000=222.000,138.000=223.000,139.000=224.000,140.000=225.000,141.000=226.000,142.000=227.000,143.000=228.000,144.000=229.000,145.000=230.000,146.000=231.000,147.000=232.000,148.000=233.000,149.000=234.000,150.000=235.000,151.000=236.000,152.000=237.000,153.000=238.000,154.000=239.000,155.000=240.000,156.000=241.000,157.000=242.000,158.000=243.000,159.000=244.000,160.000=245.000,161.000=246.000,162.000=247.000,163.000=248.000,164.000=249.000,165.000=250.000,166.000=251.000,167.000=252.000,168.000=253.000,169.000=254.000,170.000=255.000,171.000=256.000,172.000=257.000,173.000=258.000,174.000=259.000,175.000=260.000,176.000=261.000,177.000=262.000,178.000=263.000,179.000=264.000,180.000=265.000,181.000=266.000,182.000=267.000,183.000=268.000,184.000=269.000,185.000=270.000,186.000=271.000,187.000=272.000,188.000=273.000,189.000=274.000,190.000=275.000,191.000=276.000,192.000=277.000,193.000=278.000,194.000=279.000,195.000=280.000,196.000=281.000,197.000=282.000,198.000=283.000,199.000=284.000,200.000=285.000,201.000=286.000,202.000=287.000,203.000=288.000,204.000=289.000,205.000=290.000,206.000=291.000,207.000=292.000,208.000=293.000,209.000=294.000,210.000=295.000,211.000=296.000,212.000=297.000,213.000=298.000,214.000=299.000,215.000=300.000,216.000=301.000,217.000=302.000,218.000=303.000,219.000=304.000,220.000=305.000,221.000=306.000,222.000=307.000,223.000=308.000,224.000=309.000,225.000=310.000,226.000=311.000,227.000=312.000,228.000=313.000,229.000=314.000,230.000=315.000,231.000=316.000,232.000=317.000,233.000=318.000,234.000=319.000,235.000=320.000,236.000=321.000,237.000=322.000,238.000=323.000,239.000=324.000,240.000=325.000,241.000=326.000,242.000=327.000,243.000=328.000,244.000=329.000,245.000=330.000,246.000=331.000,247.000=332.000,248.000=333.000,249.000=334.000,250.000=335.000,251.000=336.000,252.000=337.000,253.000=338.000,254.000=339.000,255.000=340.000,256.000=341.000,257.000=342.000,258.000=343.000,259.000=344.000,260.000=345.000,261.000=346.000,262.000=347.000,263.000=348.000,264.000=349.000,265.000=350.000,266.000=351.000,267.000=352.000,268.000=353.000,269.000=354.000,270.000=355.000,271.000=356.000,272.000=357.000,273.000=358.000,274.000=359.000,275.000=360.000,276.000=361.000,277.000=362.000,278.000=363.000,279.000=364.000,280.000=365.000,281.000=366.000,282.000=367.000,283.000=368.000,284.000=369.000,285.000=370.000,286.000=371.000,287.000=372.000,288.000=373.000,289.000=374.000,290.000=375.000,291.000=376.000,292.000=377.000,293.000=378.000,294.000=379.000,295.000=380.000,296.000=381.000,297.000=382.000,298.000=383.000,299.000=384.000,300.000=385.000,301.000=386.000,302.000=387.000,303.000=388.000,304.000=389.000,305.000=390.000,306.000=391.000,307.000=392.000,308.000=393.000,309.000=394.000,310.000=395.000,311.000=396.000,312.000=397.000,313.000=398.000,314.000=399.000,315.000=400.000,316.000=401.000,317.000=402.000,318.000=403.000,319.000=404.000,320.000=405.000,321.000=406.000,322.000=407.000,323.000=408.000,324.000=409.000,325.000=410.000,326.000=411.000,327.000=412.000,328.000=413.000,329.000=414.000,330.000=415.000,331.000=416.000,332.000=417.000,333.000=418.000,334.000=419.000,335.000=420.000,336.000=421.000,337.000=422.000,338.000=423.000,339.000=424.000,340.000=425.000,341.000=426.000,342.000=427.000,343.000=428.000,344.000=429.000,345.000=430.000,346.000=431.000,347.000=432.000,348.000=433.000,349.000=434.000,350.000=435.000,351.000=436.000,352.000=437.000,353.000=438.000,354.000=439.000,355.000=440.000,356.000=441.000,357.000=442.000,358.000=443.000,359.000=444.000,360.000=445.000,361.000=446.000,362.000=447.000,363.000=448.000,364.000=449.000,365.000=450.000,366.000=451.000,367.000=452.000,368.000=453.000,369.000=454.000,370.000=455.000,371.000=456.000,372.000=457.000,373.000=458.000,374.000=459.000,375.000=460.000,376.000=461.000,377.000=462.000,378.000=463.000,379.000=464.000,380.000=465.000,381.000=466.000,382.000=467.000,383.000=468.000,384.000=469.000,385.000=470.000,386.000=471.000,387.000=472.000,388.000=473.000,389.000=474.000,390.000=475.000,391.000=476.000,392.000=477.000,393.000=478.000,394.000=479.000,395.000=480.000,396.000=481.000,397.000=482.000,398.000=483.000,399.000=484.000,400.000=485.000,401.000=486.000,402.000=487.000,403.000=488.000,404.000=489.000,405.000=490.000,406.000=491.000,407.000=492.000,408.000=493.000,409.000=494.000,410.000=495.000,411.000=496.000,412.000=497.000,413.000=498.000,414.000=499.000,415.000=500.000,416.000=500.980,417.000=502.000,418.000=503.000,419.000=504.000,420.000=505.000,421.000=506.000,422.000=507.000,423.000=508.000,424.000=509.000,425.000=510.000,426.000=511.000,427.000=512.000,428.000=513.000,429.000=514.000,430.000=515.000,431.000=516.000,432.000=517.000,433.000=518.000,434.000=519.000,435.000=520.000,436.000=521.000,437.000=522.000,438.000=523.000,439.000=524.000,440.000=525.000,441.000=526.000,442.000=527.000,443.000=528.000,444.000=529.000,445.000=530.000,446.000=531.000,447.000=532.000,448.000=533.000,449.000=534.000,450.000=535.000,451.000=536.000,452.000=537.000,453.000=538.000,454.000=539.000,455.000=540.000,456.000=541.000,457.000=542.000,458.000=543.000,459.000=544.000,460.000=545.000,461.000=546.000,462.000=547.000,463.000=548.000,464.000=549.000,465.000=550.000,466.000=551.000,467.000=552.000,468.000=553.000,469.000=554.000,470.000=555.000,471.000=556.000,472.000=557.000,473.000=558.000,474.000=559.000,475.000=560.000,476.000=561.000,477.000=562.000,478.000=563.000,479.000=564.000,480.000=565.000,481.000=566.000,482.000=567.000,483.000=568.000,484.000=569.000,485.000=570.000,486.000=571.000,487.000=572.000,488.000=573.000;
#STOPS:;
#BGCHANGES:0.030=deltaMAX.avi=0.997=1=0=0,
609.375=deltaMAX.avi=0.000=0=0=0,
99999=-nosongbg-=1.000=0=0=0 // don't automatically add -songbackground-
;

//---------------dance-single - Dial.B.M----------------
#NOTES:
     dance-single:
     Dial.B.M:
     Hard:
     16:
     0.775,1.000,0.640,0.720,0.152:
0000
0000
0000
0000
,
0000
0000
0000
0000
,
0000
0000
0000
0000
,
0000
0000
0000
0000
,
2010
0000
0000
3001
0000
0000
0100
0000
0001
0000
0000
0000
0010
0000
1100
0000
,
0002
0000
0000
0103
0000
0000
1001
0000
0110
0000
0000
0000
0102
0000
0000
0000
,
0013
0000
0000
1100
0000
0000
0010
0000
0001
0000
0000
0000
1000
0100
0010
0000
,
0021
0000
0000
0200
0000
0000
0330
0000
1001
0000
0000
0220
0000
0000
0330
0000
,
0101
0000
0000
2200
0000
0000
3300
0000
0000
0011
0000
0000
0001
0000
0010
0000
,
0100
0000
0000
1200
0000
0000
0310
0000
0011
0000
0000
0120
0000
0000
0031
0000
,
1001
0000
0000
0220
0000
0000
0330
0000
1001
0000
0000
0220
0000
0000
0330
0000
,
0001
0000
0000
0100
0000
0000
1000
0000
0000
0100
0000
0000
0001
0000
0010
0000
,
0200
0000
0000
2000
0000
0000
0000
0000
0300
0000
3000
0000
0010
0000
1000
0000
,
0100
0000
0000
0101
0000
0000
0010
0000
0100
0000
0000
0000
0110
0000
0000
0000
,
2000
0000
0000
0002
0000
0000
3003
0000
0000
0000
0100
0000
0001
0010
0100
0000
,
2000
0000
0000
3001
0000
0000
0000
0000
0002
0000
0000
1003
0000
0000
0000
0000
,
0101
0000
0000
0011
0000
0000
0001
0000
0100
0001
0010
0000
0200
0000
0310
0000
,
0002
0000
0000
0103
0000
0000
0020
0000
1030
0000
0000
0010
0000
0000
0100
0000
,
0001
0000
0000
1000
0010
0000
0000
1000
0100
0000
0000
1000
0001
0000
0000
0010
,
0001
0000
0000
0100
0001
0000
0000
0010
0001
0000
0000
0100
0001
0000
0000
1000
,
0001
2000
0000
3200
0320
0000
0032
0023
,
0000
0230
2300
3000
0012
0000
1003
0000
,
0000
0000
1000
0001
0100
0000
0010
0000
2000
0000
0000
0000
3020
0000
0230
0000
,
0000
0302
0023
0030
0210
0000
1300
0000
,
0000
0002
0000
0013
0200
0000
1300
0010
,
0000
0000
0100
0001
0010
0000
0000
0000
1200
0000
0000
0000
0301
0000
0000
0000
,
0110
0000
0001
1001
0000
0010
0110
0000
,
0001
0000
1000
0000
0000
0000
0001
1000
0010
0000
0000
0000
1100
0000
0000
0000
,
1000
0002
0000
0023
0230
0000
2300
3200
,
0000
0320
0032
0003
2100
0000
3001
0000
,
0000
0000
0001
1000
0010
0000
0100
0000
0002
0000
0000
0000
0203
0000
0320
0000
,
0000
2030
3200
0300
0120
0000
0031
0000
,
0000
2000
0000
3100
0020
0000
0031
0100
,
0000
0000
0010
1000
0100
0000
0000
0000
0021
0000
0000
0000
1030
0000
0000
0000
,
0110
0000
1000
1001
0000
0100
0110
0000
,
1000
0000
0001
0000
0000
0000
1000
0001
0100
0000
0000
0000
0011
0000
0000
0000
,
1010
0000
0020
0000
0000
0130
0000
0001
,
0200
0302
0023
0230
,
1300
0000
0020
0000
0000
0130
0000
0001
,
0100
0010
1000
0000
1001
0000
0000
0000
,
1100
0000
0102
0000
0000
0013
0000
0100
,
0010
0002
2003
3002
,
1003
0000
0110
0000
0000
0110
0000
0010
,
1000
0100
0010
0002
0200
0000
0303
0000
,
0101
0000
0200
0000
0000
0310
0000
1000
,
0020
2030
3200
0320
,
0031
0000
0200
0000
0000
0310
0000
1000
,
0010
0100
0001
0000
1001
0000
0000
0000
,
0011
0000
2010
0000
0000
3100
0000
0010
,
0100
2000
3002
2003
,
3001
0000
0110
0000
0000
0110
0000
0100
,
0001
0010
0100
1000
0100
0010
0001
0100
,
0010
0000
1000
0000
0010
0000
0100
0001
,
0000
1000
0100
0000
1000
0001
0010
0100
,
0000
0100
1000
0000
0001
1000
0010
0000
,
0110
0000
0000
1001
0000
0000
0110
0000
,
1010
0000
0001
0000
1000
0000
0001
1000
,
0000
0010
1000
0000
0100
0000
1000
0001
,
0000
1000
0001
0000
0010
0000
0001
0000
,
0100
0000
0001
0100
0000
0100
0001
0000
,
0101
0000
0100
0000
0010
0000
1000
0001
,
0000
1000
0100
0000
0010
0000
0001
0100
,
0000
0010
1000
0000
1001
0000
0010
0000
,
2000
0000
0000
3001
0000
0000
1001
0000
,
1010
0000
0100
0000
0001
0000
0100
0010
,
0000
0100
0010
0000
1000
0010
0100
0001
,
0000
0100
0001
0000
1000
0100
1000
0000
,
0001
0010
0100
1000
0000
0001
0100
0000
,
0001
0001
0101
0001
,
0001
1001
0001
0001
,
0011
0001
0001
1000
,
0010
0000
0000
1010
0000
0000
0010
0000
,
1000
1000
1010
1000
,
1000
1001
1000
1000
,
1100
1000
0100
0010
,
0001
0010
0001
0010
0001
0000
0100
0000
,
0101
0100
0110
0010
,
1000
1010
1000
0100
,
1100
1000
0001
1001
,
0101
0000
0000
1001
0000
0000
0100
0000
,
0001
1000
1001
1000
,
0100
1100
1000
0010
,
1010
0100
0001
0100
,
0001
0010
0100
1000
,
0001
0100
0010
2000
,
0000
3010
0000
1000
,
0100
0010
0001
0100
,
0000
0002
0103
0000
,
0001
0010
0100
1000
,
0000
1001
0000
0001
,
1000
0001
0100
0010
,
1000
0100
0010
0000
,
0001
0100
0010
0100
,
0000
1001
0000
0100
,
0010
0100
0001
0010
,
0000
0200
1300
0000
,
0010
1000
0010
1000
,
0000
0110
0000
0001
,
0100
0001
1000
0010
,
0100
0001
1000
0000
,
0010
1000
0010
0100
,
0000
0101
0000
0001
,
0100
1000
0100
0001
,
0000
1000
0010
0000
,
0100
0001
0010
0100
,
0000
0110
0000
0100
,
0010
0100
0010
0001
,
1000
0010
0100
0000
,
0001
1000
0001
2000
,
0000
3010
0000
0100
,
0001
0100
0001
0100
,
0000
0010
1000
0000
,
1000
0010
1000
0020
,
0000
1030
0000
0010
,
0100
0010
1000
0001
,
0010
0001
0100
0000
,
0010
0100
0001
0100
,
0010
1000
0002
0000
,
0103
0010
1000
0010
,
0100
0001
2000
0000
,
3001
0010
0100
1000
,
0100
0010
0001
0000
,
2002
0000
0000
0000
,
3003
0000
0000
0000
;

//---------------dance-single - Dial.B.M----------------
#NOTES:
     dance-single:
     Dial.B.M:
     Easy:
     8:
     0.450,0.586,0.288,0.296,0.000: // measure 1
0000
0000
0000
0000
,  // measure 2
0000
0000
0000
0000
,  // measure 3
0000
0000
0000
0000
,  // measure 4
0000
0000
0000
0000
,  // measure 5
0100
0001
0100
0001
,  // measure 6
1000
0010
1000
0010
,  // measure 7
1001
0100
0010
0100
,  // measure 8
1001
1000
0001
1000
,  // measure 9
0110
1000
0100
0010
,  // measure 10
0001
0010
0001
0010
,  // measure 11
0100
1000
0100
1000
,  // measure 12
1001
0100
0010
0001
,  // measure 13
0100
0010
0100
0010
,  // measure 14
0100
0001
1000
0010
,  // measure 15
0110
1000
0001
0100
,  // measure 16
0110
0001
0100
0001
,  // measure 17
0101
1000
0010
0100
,  // measure 18
0110
1000
0001
0100
,  // measure 19
0001
0100
0001
0100
,  // measure 20
0010
1000
0010
1000
,  // measure 21
1001
0100
0100
0100
,  // measure 22
0010
0010
0010
0010
,  // measure 23
1001
0100
0100
0100
,  // measure 24
0001
0001
0001
0001
,  // measure 25
0110
1000
1000
1000
,  // measure 26
0100
0100
0100
0100
,  // measure 27
1100
0010
0100
0010
,  // measure 28
0100
0001
1000
0010
,  // measure 29
0110
0001
1000
0001
,  // measure 30
1000
0010
0100
0001
,  // measure 31
0101
1000
0010
0100
,  // measure 32
0001
0100
0001
1000
,  // measure 33
1100
0100
1000
0100
,  // measure 34
1000
0100
1000
0010
,  // measure 35
1010
0010
0100
0001
,  // measure 36
0100
0001
1000
0001
,  // measure 37
1001
1001
0000
0010
,  // measure 38
0001
0001
1000
1000
,  // measure 39
0001
1000
0000
0100
,  // measure 40
1000
1000
0001
0000
,  // measure 41
1000
0010
0000
0001
,  // measure 42
0100
0001
1000
0010
,  // measure 43
0110
0110
0000
0001
,  // measure 44
1000
0001
0100
0000
,  // measure 45
0110
0110
0000
1000
,  // measure 46
0100
0010
0001
0010
,  // measure 47
0001
1000
0000
0001
,  // measure 48
1000
0100
0010
0000
,  // measure 49
0110
0110
0000
0001
,  // measure 50
1000
0100
1000
0001
,  // measure 51
0010
0010
0000
0100
,  // measure 52
0010
0100
1000
0001
,  // measure 53
1000
0000
0010
0000
,  // measure 54
0100
0000
0001
0000
,  // measure 55
1000
0000
0100
0000
,  // measure 56
2000
0000
0000
0100
0000
0000
3100
0000
,  // measure 57
1000
0000
0001
0000
,  // measure 58
0100
0000
0010
0000
,  // measure 59
1000
0000
0100
1000
,  // measure 60
0200
0000
0000
0010
0000
0000
0310
0000
,  // measure 61
0001
0000
0010
0000
,  // measure 62
0100
0000
0010
0000
,  // measure 63
0100
0000
1000
0000
,  // measure 64
0002
0000
0000
0010
0000
0000
0013
0000
,  // measure 65
0001
0000
1000
0000
,  // measure 66
0010
0000
0100
0000
,  // measure 67
0010
0000
0100
0010
,  // measure 68
0200
0000
0000
0010
0000
0000
0310
0000
,  // measure 69
0100
0000
0002
0000
,  // measure 70
0103
0000
0020
0000
,  // measure 71
1030
0000
0100
0000
,  // measure 72
1100
0000
1100
0000
,  // measure 73
0020
0000
0130
0000
,  // measure 74
0002
0000
1003
0000
,  // measure 75
0002
0000
0013
0000
,  // measure 76
0011
0000
0011
0000
,  // measure 77
0020
0000
0230
0000
,  // measure 78
2300
0000
3020
0000
,  // measure 79
0230
0000
0302
0000
,  // measure 80
1003
0000
1001
0000
,  // measure 81
2000
0000
3002
0000
,  // measure 82
0203
0000
0302
0000
,  // measure 83
2003
0000
3200
0000
,  // measure 84
1300
0000
1100
0000
,  // measure 85
1001
0000
0001
0000
,  // measure 86
1001
0000
1000
0000
,  // measure 87
0002
0000
1000
0000
,  // measure 88
1000
0000
1003
0000
,  // measure 89
1010
0000
0010
0000
,  // measure 90
1010
0000
1000
0000
,  // measure 91
0200
0000
1000
0000
,  // measure 92
1000
0000
1300
0000
,  // measure 93
1000
0000
0001
0000
,  // measure 94
1000
0000
0001
0000
,  // measure 95
0200
0000
0302
0000
,  // measure 96
0023
0000
0230
0000
,  // measure 97
1300
0000
0010
0000
,  // measure 98
0100
0000
0010
0000
,  // measure 99
0200
0000
0320
0000
,  // measure 100
2030
0000
3001
0000
,  // measure 101
2000
0000
0001
0000
,  // measure 102
0001
0000
3001
0000
,  // measure 103
0200
0000
0010
0000
,  // measure 104
0010
0000
0310
0000
,  // measure 105
0200
0000
0001
0000
,  // measure 106
0001
0000
0301
0000
,  // measure 107
0020
0000
0001
0000
,  // measure 108
0001
0000
0031
0000
,  // measure 109
1000
0000
0001
0000
,  // measure 110
0100
0000
0010
0000
,  // measure 111
1000
0000
0010
0000
,  // measure 112
0100
0000
0101
0000
,  // measure 113
1000
0000
0100
0000
,  // measure 114
0010
0000
0001
0000
,  // measure 115
0100
0000
0010
0000
,  // measure 116
1000
0000
0001
0000
,  // measure 117
2000
0000
0000
0000
,  // measure 118
0001
0000
0000
0000
,  // measure 119
3002
0000
0000
0000
,  // measure 120
0100
0000
0000
0000
,  // measure 121
0200
0000
0000
0000
,  // measure 122
0303
0000
0000
0000
,  // measure 123
1001
0000
0000
0000
;

//---------------dance-single - Dial.B.M----------------
#NOTES:
     dance-single:
     Dial.B.M:
     Medium:
     13:
     0.651,0.878,0.496,0.312,0.128:
0000
0000
0000
0000
,
0000
0000
0000
0000
,
0000
0000
0000
0000
,
0000
0000
0000
0000
,
0001
0000
0000
2000
0000
0000
0000
0000
3000
0000
0000
0000
0010
0000
1000
0000
,
0010
0000
0000
0100
0000
0000
0001
0000
0100
0000
0000
0000
0110
0000
0000
0000
,
0001
0000
0000
0220
0000
0000
0000
0000
0330
0000
0000
0000
0010
0100
0001
0000
,
0011
0000
0000
1000
0000
0000
0000
0000
1010
0000
0000
0001
0000
0000
0000
0000
,
1001
0000
0000
1100
0000
0000
0000
0000
0000
0010
0000
0000
1000
0000
0100
0000
,
0001
0000
0000
1100
0000
0000
0000
0000
0010
0000
0000
0101
0000
0000
0000
0000
,
1010
0000
0000
0110
0000
0000
0000
0000
0110
0000
0000
0101
0000
0000
0000
0000
,
1000
0000
0000
0100
0000
0000
0010
0000
0000
0100
0000
0000
0010
0000
0001
0000
,
0100
0000
0000
2002
0000
0000
0000
0000
0003
0000
0000
0000
3001
0000
0100
0000
,
0010
0000
0000
0101
0000
0000
1000
0000
1010
0000
0000
0000
0001
0000
0000
0000
,
1000
0000
0000
2001
0000
0000
0000
0000
0000
0000
3000
0000
0010
0100
0001
0000
,
1000
0000
0000
0100
0000
0000
0000
0000
1000
0000
0000
0010
0000
0000
0000
0000
,
0010
0000
0000
1001
0000
0000
0000
0000
0000
0010
0000
0000
0100
0000
0010
0000
,
1010
0000
0000
1010
0000
0000
0000
0000
0110
0000
0000
0110
0000
0000
1000
0000
,
0001
0000
0000
1000
0001
0000
0000
1000
0001
0000
0000
0100
0010
0000
0000
0100
,
0010
0000
0000
0100
0010
0000
0000
0100
0001
0000
0000
1000
0001
0000
0000
0001
,
0100
0002
0000
1003
0002
0000
1003
0200
,
0000
1300
0020
0000
0230
0000
0301
0000
,
0000
1000
0001
0010
0001
0000
1000
0010
,
0000
0100
0001
0000
2000
0000
3100
0000
,
0000
0010
0000
1000
0010
0000
0010
1000
,
0000
1000
0001
0000
0011
0000
1100
0000
,
2000
0000
0100
3200
0000
0010
0320
0000
,
0001
0032
0000
1000
2003
0000
3010
0000
,
0100
0001
0000
0001
1000
0000
1000
0100
,
0000
1000
0010
0000
1001
0000
1010
0000
,
0000
1000
0100
0010
0001
0000
1000
0010
,
0000
0100
0001
0000
0110
0000
0101
0000
,
0000
0101
0000
1000
0001
0000
1000
0001
,
0000
1000
0100
0000
1100
0000
1010
0000
,
0102
0000
1003
0020
0000
0130
0002
0000
,
1003
0020
0000
0130
0002
0000
1003
0000
,
0110
0000
1001
0000
0000
0001
0000
1000
,
0200
0320
0230
2300
,
3001
0000
0101
0000
0000
0100
0000
0001
,
0100
1000
0200
0000
0301
0000
0000
0000
,
1100
0000
1100
0000
1000
0010
0000
1000
,
0010
0110
1001
0110
,
1001
0000
0101
0000
1000
0001
0000
1000
,
0010
1000
0010
1000
0010
0000
0000
0000
,
1001
0000
0110
0000
0000
0010
0000
0100
,
0002
2003
3002
0203
,
0310
0000
1010
0000
0000
0001
0000
0010
,
0001
0100
0002
0000
0013
0000
0000
0000
,
0101
0000
0101
0000
0100
1000
0000
0100
,
1000
1001
0110
1001
,
0110
0000
0011
0000
0100
0010
0000
0100
,
0002
0000
0010
0000
1000
0000
1000
0003
,
0100
0001
0010
0001
,
0010
0100
1000
0100
,
1000
0100
0010
0100
,
2000
0000
0000
3002
0000
0000
0023
0000
,
0130
0010
0100
0010
,
0100
1000
0100
1000
,
0010
1000
0010
1000
,
0010
0000
0100
0001
0000
0100
0001
0000
,
1000
0100
1000
0100
,
0010
0100
0010
0100
,
0010
0001
0010
0001
,
1000
0000
0000
1001
0000
0000
1000
0000
,
0010
0100
0001
0010
,
0100
1000
0100
0010
,
0100
1000
0010
0100
,
0001
1000
0100
1000
,
0001
0010
0001
0010
,
0100
1000
0100
1000
,
0010
1000
0010
1000
,
0002
0000
0000
0013
0000
0000
0100
0000
,
0010
0100
1000
0001
,
0100
0010
1000
0010
,
0100
0001
0100
0010
,
1000
0010
0100
0001
,
1000
0010
1000
0100
,
1000
0001
1000
0100
,
1000
0010
0100
0001
,
0100
0000
0000
1010
0000
0000
0010
0000
,
1000
0001
0010
0001
,
0100
0001
1000
0001
,
0100
0001
0010
0100
,
1000
0001
0100
0010
,
0100
0001
0100
0001
,
0000
0101
0000
1000
,
0001
1000
0001
1000
,
0000
0010
1000
0000
,
1000
0100
0001
0100
,
0000
1100
0000
0001
,
0100
0001
0100
0001
,
1000
0001
0100
0000
,
0001
0010
0100
1000
,
0000
0011
0000
1000
,
0010
0100
0001
0100
,
0000
0010
1000
0000
,
0010
0100
0001
1000
,
0000
1100
0000
0100
,
1000
0100
1000
0100
,
0010
0001
1000
0000
,
0010
0100
0010
0100
,
0000
0110
0000
0010
,
1000
0010
1000
0010
,
0000
0100
0001
0000
,
0001
0010
0100
1000
,
0000
1100
0000
1000
,
0010
0100
0010
1000
,
0001
1000
0010
0000
,
0100
0001
1000
0100
,
0000
1100
0000
1000
,
0001
1000
0001
1000
,
0000
1000
0001
0000
,
0100
0010
0100
0010
,
0000
1010
0000
0010
,
1000
0010
0100
0010
,
1000
0001
0100
0000
,
0010
0100
0010
0100
,
0020
0000
0000
0000
,
1030
0001
1000
0001
,
2000
0000
0000
0000
,
3001
0100
0010
1000
,
0001
0000
0000
0000
,
1001
0000
0000
0000
;

//---------------dance-single - Dial.B.M----------------
#NOTES:
     dance-single:
     Dial.B.M:
     Beginner:
     5:
     0.206,0.439,0.224,0.000,0.000:
0000
0000
0000
0000
,
0000
0000
0000
0000
,
0000
0000
0000
0000
,
0000
0000
0000
0000
,
1000
0000
0000
0000
,
0001
0000
1000
0000
,
0010
0000
0000
0000
,
0110
0000
1001
0000
,
1000
0000
0000
0000
,
0001
0000
0100
0000
,
0010
0000
0100
0000
,
0010
0000
1000
0000
,
1001
0000
1000
0000
,
0001
0000
1000
0000
,
0110
0000
1000
0000
,
0001
0000
0100
0000
,
0010
0000
0100
0000
,
1000
0000
0001
0000
,
1000
0000
0001
0000
,
0010
0000
0100
0000
,
1001
0000
0110
0000
,
0110
0000
1001
0000
,
0100
0000
0100
0000
,
0010
0000
0010
0000
,
0110
0000
1001
0000
,
1001
0000
0110
0000
,
1000
0000
0001
0000
,
0100
0000
0001
0000
,
1000
0000
0001
0000
,
1000
0000
0010
0000
,
0100
0000
0010
0000
,
0100
0000
1000
0000
,
0001
0000
0100
0000
,
0001
0000
1000
0000
,
0010
0000
0010
0000
,
0100
0000
0100
0000
,
1001
0000
0000
0000
,
1000
0000
0000
0000
,
0001
0000
0000
0000
,
1000
0000
0000
0000
,
1001
0000
0000
0000
,
0010
0000
0000
0000
,
0100
0000
0000
0000
,
0010
0000
0000
0000
,
0110
0000
0000
0000
,
1000
0000
0000
0000
,
0100
0000
0000
0000
,
1000
0000
0000
0000
,
1001
0000
0000
0000
,
1000
0000
0000
0000
,
0001
0000
0000
0000
,
0100
0000
0100
0000
,
1001
0000
0000
0000
,
0100
0000
0000
0000
,
0010
0000
0000
0000
,
1000
0000
0000
0000
,
0100
0000
0000
0000
,
0100
0000
0000
0000
,
1000
0000
0000
0000
,
0010
0000
0010
0000
,
0010
0000
0000
0000
,
1000
0000
0000
0000
,
1000
0000
0000
0000
,
0001
0000
0000
0000
,
0001
0000
0000
0000
,
0100
0000
0000
0000
,
0001
0000
0000
0000
,
0001
0000
0001
0000
,
0010
0000
0000
0000
,
0010
0000
0000
0000
,
0100
0000
0000
0000
,
0100
0000
0000
0000
,
0001
0000
0000
0000
,
0001
0000
0000
0000
,
1000
0000
0000
0000
,
1000
0000
1000
0000
,
0010
0000
0000
0000
,
0010
0000
0000
0000
,
0100
0000
0000
0000
,
0010
0000
0000
0000
,
0100
0000
0000
0000
,
1000
0000
0000
0000
,
0100
0000
0000
0000
,
0001
0000
0000
0000
,
1000
0000
0000
0000
,
1000
0000
0000
0000
,
0001
0000
0000
0000
,
0001
0000
0000
0000
,
1000
0000
0000
0000
,
0001
0000
0000
0000
,
0010
0000
0000
0000
,
0100
0000
0000
0000
,
1001
0000
0000
0000
,
1000
0000
0000
0000
,
0001
0000
0000
0000
,
0010
0000
0000
0000
,
1000
0000
0000
0000
,
0010
0000
0000
0000
,
0100
0000
0000
0000
,
0010
0000
0000
0000
,
0100
0000
0000
0000
,
0010
0000
0000
0000
,
0100
0000
0000
0000
,
0010
0000
0000
0000
,
1001
0000
0000
0000
,
1000
0000
0000
0000
,
0010
0000
0000
0000
,
1000
0000
0000
0000
,
1001
0000
0000
0000
,
0001
0000
0000
0000
,
0010
0000
0000
0000
,
1000
0000
0000
0000
,
1001
0000
0000
0000
,
0001
0000
0000
0000
,
0100
0000
0000
0000
,
0001
0000
0000
0000
,
1001
0000
0000
0000
,
1001
0000
0000
0000
,
0110
0000
0000
0000
,
0110
0000
0000
0000
,
1001
0000
0000
0000
,
0110
0000
0000
0000
,
1001
0000
0000
0000
;

//---------------dance-single - Dial.B.M----------------
#NOTES:
     dance-single:
     Dial.B.M:
     Challenge:
     17:
     0.701,0.935,0.464,0.688,0.144:
0000
0000
0000
0000
,
0000
0000
0000
0000
,
0000
0000
0000
0000
,
0000
0000
0000
0000
,
1001
0000
0000
1010
0000
0000
0000
0000
1000
0000
0000
0000
0001
0000
1000
0000
,
0100
0000
0000
1100
0000
0000
0001
0000
0100
0000
0000
0000
1002
0000
0000
0000
,
0013
0000
0000
1100
0000
0000
0000
0000
0001
0000
0000
0000
1000
0010
1000
0000
,
0020
0000
0000
1030
0000
0000
0000
0000
2000
0000
0000
3010
0000
0000
0000
0000
,
0011
0000
0000
0202
0000
0000
0303
0000
0000
1001
0000
0000
0100
0000
0010
0000
,
0200
0000
0000
0310
0000
0000
0000
0000
0020
0000
0000
0130
0000
0000
1000
0000
,
0110
0000
0000
2002
0000
0000
3003
0000
0110
0000
0000
2002
0000
0000
3003
0000
,
0001
0000
0000
0010
0000
0000
0100
0000
0000
1000
0000
0000
0010
0000
0200
0000
,
0002
0000
0000
0010
0000
0000
0300
0000
0003
0000
0000
0000
1000
0000
0010
0000
,
0100
0000
0000
0110
0000
0000
0001
0000
1000
0000
0000
0000
2010
0000
0000
0000
,
0200
0000
0000
0010
0300
0000
3000
0000
0000
0000
0100
0000
0001
0010
0001
0000
,
0020
0000
0000
0001
0000
0000
0000
0000
0032
0000
0000
0203
0000
0000
0000
0000
,
0002
0000
0000
1303
0000
0000
0000
0000
0000
0001
0000
0000
2000
0000
3100
0000
,
0002
0000
0000
0103
0000
0000
1000
0000
0020
0000
0000
0031
0000
0000
0010
0000
,
0100
0000
0000
0010
1000
0000
0000
0010
0100
0000
0000
0001
0100
0000
0000
0001
,
1000
0000
0000
0001
0010
0000
0000
0001
1000
0000
0000
1000
0001
0000
0000
0001
,
2000
3100
0022
1033
,
0001
0100
0001
0000
0102
0000
0013
0000
,
0200
1300
2200
3301
,
0100
0010
0001
0000
0021
0000
0130
0000
,
0012
0013
0201
0301
,
0010
0001
0100
0000
1200
0000
0301
0000
,
0200
0000
1300
0020
0000
0130
0002
0000
,
1003
0000
0100
0000
0000
0000
0010
0001
0010
0000
0000
0000
0101
0000
0000
0000
,
2100
3010
0210
0301
,
0110
1100
2200
3310
,
0201
0310
1020
0130
,
0101
1100
0220
0331
,
1200
0310
0120
0031
,
1001
0110
0202
0313
,
2000
0000
3100
0020
0000
0031
0200
0000
,
0310
0000
1000
0000
0000
0000
0001
0100
0010
0000
0000
0000
1010
0000
0000
0000
,
1001
0000
1001
0000
0000
0100
0000
0001
,
1000
1010
1001
0011
,
2000
0000
3001
0000
0000
0010
0000
0001
,
0100
0010
1000
0000
2002
0000
3003
0000
,
1100
0000
1100
0000
0000
0002
0000
0103
,
0010
1100
1001
0101
,
0002
0000
1003
0000
0000
1001
0000
1000
,
0001
0010
0100
1000
0200
0000
0000
0000
,
0302
0000
0103
0000
0000
1000
0000
0010
,
0200
0320
2030
0020
,
0100
0000
3130
0000
0000
0001
0000
0010
,
0100
1000
0001
0000
0102
0000
0000
0000
,
0023
0000
0130
0000
0000
0010
0000
0001
,
2000
3200
0320
0002
,
0100
0000
0133
0000
0000
0001
0000
0100
,
0001
0010
0100
1000
0100
0010
0001
0100
,
0010
0000
1000
0000
0001
0000
1000
0100
,
0000
1000
0100
0000
1000
0000
0001
0100
,
0000
0001
0100
0000
0001
1000
0010
0000
,
1010
0000
0000
M00M
0000
0000
1001
0000
0000
0MM0
0000
0000
0110
0000
0000
0000
,
1010
0000
0001
0000
1000
0000
0010
1000
,
0000
0010
1000
0000
0100
0000
0010
0001
,
0000
0010
0001
0000
0100
0000
0001
0000
,
1000
0000
0010
1000
0000
1000
0001
0000
,
0101
0000
0100
0000
0010
0000
1000
0010
,
0000
1000
0010
0000
0100
0000
0001
0100
,
0000
0001
0100
0000
0001
0000
2000
0000
,
0002
0000
0000
3013
0000
0000
0001
0000
,
1000
0000
0100
0000
1000
0000
0100
0010
,
0000
0100
0010
0000
0001
0000
0100
0001
,
0000
0100
0001
0000
0100
0010
1000
0000
,
0100
1000
0001
0010
0000
0001
0100
0000
,
0001
1000
M00M
0100
,
0001
0M0M
0001
0010
,
00MM
0001
1000
0010
,
0100
0000
0000
0101
0000
0000
0010
0000
,
1000
0100
MM00
0010
,
0001
00MM
0001
1000
,
M00M
1000
0100
0010
,
0001
1000
0001
1000
0001
0000
0100
0000
,
0001
0100
0M0M
0001
,
1000
M00M
0001
0010
,
00MM
0001
1000
0100
,
0010
0000
0000
0001
0000
0000
0100
0000
,
0001
1000
M00M
0010
,
0100
0MM0
0001
0100
,
0M0M
0010
1000
0100
,
0010
0001
0100
0010
,
1000
0000
0010
0000
0200
0000
0002
0303
,
0000
MMMM
0000
1000
,
0001
1000
0001
1000
,
0000
0010
1000
0000
,
0001
0000
0010
0000
0200
0000
2000
3300
,
0000
MMMM
0000
1000
,
0010
0100
0010
0100
,
0001
1000
0100
0000
,
1000
0000
0100
0000
0020
0000
0002
0033
,
0000
MMMM
0000
1000
,
0001
1000
0001
0100
,
0000
0001
1000
0000
,
0010
0000
1000
0000
0020
0000
2000
3030
,
0000
MMMM
0000
0001
,
0100
0001
1000
0010
,
0100
0001
1000
0000
,
0100
1000
0002
0013
,
0000
MMMM
0000
0010
,
0100
0001
0100
0001
,
0000
1000
0010
0000
,
0100
0001
0020
0130
,
0000
MMMM
0000
0100
,
1000
0100
0010
0001
,
1000
0010
0100
0000
,
0001
1000
0002
0103
,
0000
MMMM
0000
0001
,
0010
0100
1000
0010
,
0000
1000
0100
0000
,
1000
0010
2000
3010
,
0000
MMMM
0000
1000
,
0100
0010
0001
0010
,
0100
1000
0010
0000
,
0100
0001
0100
0010
,
1000
0100
0020
0000
,
0130
0010
0001
0010
,
0100
1000
0002
0000
,
1003
0010
0100
0001
,
0010
0100
1000
0000
,
2020
0000
0000
0000
,
3030
0000
0000
0000
;
