#TITLE:1998;
#SUBTITLE:;
#ARTIST:NAOKI;
#TITLETRANSLIT:;
#SUBTITLETRANSLIT:;
#ARTISTTRANSLIT:;
#CREDIT:;
#BANNER:1998.png;
#BACKGROUND:1998-bg.png;
#LYRICSPATH:1998.lrc;
#CDTITLE:[DBMC] Dance Dance Revolution Extreme.png;
#MUSIC:1998.mp3;
#OFFSET:-0.882;
#SAMPLESTART:27.220;
#SAMPLELENGTH:12.000;
#SELECTABLE:YES;
#DISPLAYBPM:75.000:150.000;
#BPMS:0.000=150.000,64.000=75.000,66.000=150.000,166.000=75.000,174.000=150.000;
#STOPS:;
#BGCHANGES:-2.127=1998.avi=1.000=1=1=0,
227.500=1998-bg.png=1.000=0=0=0,
99999=-nosongbg-=1.000=0=0=0 // don't automatically add -songbackground-
;

//---------------dance-single - Dial.B.M----------------
#NOTES:
     dance-single:
     Dial.B.M:
     Challenge:
     14:
     0.691,0.711,0.370,0.270,0.705: // measure 1
0000
0000
0000
0000
,  // measure 2
0000
0000
0000
0000
,  // measure 3
0000
0000
0000
0000
,  // measure 4
0000
0000
0000
0000
,  // measure 5
0100
1000
0000
0100
0000
0010
0000
0100
1000
0000
0100
0000
0001
0000
0100
0000
,  // measure 6
1000
0001
0000
0100
0000
0001
0000
1000
0100
0000
0010
0000
0100
0000
0010
0000
,  // measure 7
0001
0100
0000
0001
0000
0100
0000
0010
1000
0000
0010
0000
0100
0000
0001
0000
,  // measure 8
0110
0000
0001
0000
1010
0000
0100
0000
0001
0100
0001
0100
0010
1000
0010
1000
,  // measure 9
0010
0000
1000
0000
0001
0000
0000
0000
1000
0000
0010
0100
0001
0000
0000
0000
,  // measure 10
1001
0000
0001
0000
1000
0000
0000
0000
1000
0000
0001
1000
0100
0000
1000
0000
,  // measure 11
1001
0000
0001
1000
0100
0000
0010
0001
1000
0000
0001
1000
0001
0000
1000
0001
,  // measure 12
1000
0000
0100
0010
0001
0000
1000
0100
0010
0000
1000
0000
1001
0000
0000
0000
,  // measure 13
1010
0000
0000
0000
0101
0000
0000
0000
1000
0100
0010
0000
0012
0000
0000
0000
,  // measure 14
0103
0000
0010
0000
0100
0000
0001
0000
0010
0001
0100
0000
0001
0000
1000
0000
,  // measure 15
2002
0000
0000
0000
0000
0000
0000
0000
0003
0000
3020
0000
0000
2030
0000
0000
,  // measure 16
3002
0000
0000
0010
0000
0000
0100
0000
1003
0000
0100
0000
1000
0100
0010
0002
,  // measure 17
2000
0000
0000
0000
0000
0000
3003
0000
1000
0000
0010
0100
0000
0001
0000
1000
,  // measure 18
0000
0010
0000
0100
0001
0000
0000
0000
1000
0000
0001
1000
0000
0010
0000
0100
,  // measure 19
0001
1000
0001
0000
1001
0000
0000
0000
0010
0000
0001
1000
0000
0100
0000
0010
,  // measure 20
0000
0001
0000
1000
0100
0000
0000
0000
0010
0000
0001
0100
0000
0010
0000
0100
,  // measure 21
0001
1000
0100
0020
0200
0000
0330
0000
1000
0000
0100
0010
0000
0001
0000
1000
,  // measure 22
0000
0100
0000
0010
0001
0000
1000
0000
0001
0000
0010
0100
0000
1000
0000
0001
,  // measure 23
0000
0010
0000
0100
1000
0000
0000
0000
1000
0000
0010
0100
0000
0001
0000
1000
,  // measure 24
0000
0010
0000
0100
0001
0000
1000
0000
0001
0000
1000
0000
0010
0000
0200
0000
,  // measure 25
0001
0000
0301
0000
1001
0000
0000
0000
0010
0000
0100
0001
0000
1000
0000
0010
,  // measure 26
0000
0100
0000
0001
1000
0000
0000
0000
0010
0000
1000
0010
0000
0100
0000
0001
,  // measure 27
1000
0010
1000
0000
1010
0000
0000
0000
0100
0000
1000
0100
0000
1000
0000
0001
,  // measure 28
0000
0100
0000
0010
0100
0000
0000
0000
0010
0000
1000
0001
0000
0100
0000
0001
,  // measure 29
1000
0010
0100
0002
0200
0000
0303
0000
1001
0000
0000
0000
1001
0000
0000
0000
,  // measure 30
1000
0001
0100
0001
0110
0000
0110
0000
,  // measure 31
0100
0001
1000
0010
1010
0000
1000
0000
,  // measure 32
0001
0100
0001
0000
1000
0010
0100
0010
,  // measure 33
1000
0100
1000
0001
1000
0000
1000
0000
0002
0000
0000
0000
1000
0000
0000
0000
,  // measure 34
0010
1000
0103
0000
2000
0001
0100
0001
,  // measure 35
0001
0010
3001
0000
0120
0000
1000
0001
,  // measure 36
0100
1000
1000
0100
0031
0000
1001
0000
,  // measure 37
0100
0010
0100
0000
0002
0100
0100
0000
,  // measure 38
2003
0100
0001
0000
3020
1000
0100
1030
,  // measure 39
0100
1000
0001
0000
1002
0010
1000
0100
,  // measure 40
1003
0001
0100
0001
1001
0000
1001
0010
,  // measure 41
1000
0000
0000
0001
0000
0000
0101
0000
0000
0000
0000
0000
1000
0000
0100
0000
0010
0000
0001
0000
0100
0000
0010
0000
,  // measure 42
1000
0010
0100
0001
0010
0100
2000
0000
0000
0000
0000
0000
,  // measure 43
0000
0000
0000
0000
0000
0000
0000
0001
0002
0000
3000
0000
2000
0000
0003
0000
,  // measure 44
3010
0000
0100
0000
1000
0001
0010
0001
1001
0000
0000
0000
0110
0000
0000
0000
,  // measure 45
1000
0010
1000
0000
1001
0000
0000
0000
0101
0000
0000
0000
1010
0000
0000
0000
,  // measure 46
0001
0100
0001
0000
1010
0000
0000
0000
0101
0000
0000
0000
1100
0000
0000
0000
,  // measure 47
1000
0001
0100
0000
1001
0000
0000
0000
1000
0000
0001
0000
1000
0000
0010
1000
,  // measure 48
0010
0100
0001
0100
0002
0000
0000
0000
1003
0000
0001
0010
0000
0100
0000
1000
,  // measure 49
0000
0001
0000
0010
0100
0000
1000
0000
0010
0000
1000
0010
0000
0100
0000
0001
,  // measure 50
1000
0010
1000
0000
1010
0000
0000
0000
0100
0000
1000
0100
0000
1000
0000
0001
,  // measure 51
0000
0100
0000
0010
0100
0000
0001
0000
0010
0000
0001
1000
0000
0010
0000
1000
,  // measure 52
0001
0100
0010
2000
0020
0000
3000
0000
0130
0000
0010
1000
0000
0001
0000
0100
,  // measure 53
0000
0010
0000
1000
0001
0000
0010
0000
0100
0000
1000
0010
0000
0100
0000
0001
,  // measure 54
1000
0010
1000
0000
1010
0000
0000
0000
0100
0000
1000
0100
0000
1000
0000
0001
,  // measure 55
0000
0100
0000
0010
0100
0000
0001
0000
0010
0000
0001
1000
0000
0010
0000
1000
,  // measure 56
0001
0100
0010
1000
0010
0000
1000
0000
0002
0000
1000
0000
0100
0000
1000
0000
,  // measure 57
0100
0000
1000
0000
0103
0000
1000
0000
0101
0000
0000
1010
0000
0000
1001
0000
;

//---------------dance-single - Dial.B.M----------------
#NOTES:
     dance-single:
     Dial.B.M:
     Hard:
     12:
     0.600,0.625,0.530,0.150,0.185:
0000
0000
0000
0000
,
0000
0000
0000
0000
,
0000
0000
0000
0000
,
0000
0000
0000
0000
,
0010
1000
0100
0000
0010
0100
0010
0000
,
0001
0100
0001
0000
1000
0010
0100
0000
,
0001
0010
0100
0000
1000
0001
0100
0000
,
0010
0000
1000
0000
0010
0000
0100
0000
0001
1000
0001
1000
0001
1000
0001
0000
,
0100
0010
1000
0000
0010
1000
0100
0000
,
1001
1000
0100
0000
0100
1000
0010
1000
,
1100
1000
1010
1000
1100
1000
1001
0001
,
0100
0010
1000
0100
0010
0100
1100
0000
,
0101
0000
1010
0000
0100
0002
2003
0000
,
3010
0001
0010
1000
0001
0010
0100
1000
,
2100
0000
0000
0000
0000
0000
0000
0000
3000
0000
0200
0000
0000
0320
0000
0000
,
0032
0000
0000
1000
0000
0000
0013
0000
0100
0000
0010
0000
0100
0000
2000
0000
,
0200
0000
3000
0300
1000
0010
0100
0010
,
1000
0001
0100
0000
0001
0000
0000
0000
1000
0000
1000
0000
0001
0000
0001
0000
,
0100
0010
0100
0000
0001
0000
0000
0000
1000
0000
0100
0000
0001
0000
0100
0000
,
1000
0001
1000
0000
0010
0000
0100
0000
0001
0000
0001
0000
0100
0000
0100
0000
,
0010
1000
0010
1000
0100
0000
0000
0000
1001
0000
0000
0000
0101
0000
0000
0000
,
1000
0100
1100
0000
0011
0000
1100
0000
,
0100
0010
0110
0000
1001
0000
1100
0000
,
0001
0100
1001
0000
1000
0100
1000
0010
,
1001
1001
1001
0000
1000
0100
0010
0100
,
1000
0001
1000
0000
1001
0000
0000
0000
0001
0000
1000
0000
0010
0000
0100
0000
,
0010
1000
0100
0000
1100
0000
0000
0000
0001
0000
0001
0000
0010
0000
0100
0000
,
1000
0100
1000
0000
1001
0000
0000
0000
1000
0000
0100
0000
0010
0000
0001
0000
,
0100
0010
0100
0010
1000
0000
0000
0000
1100
0000
0000
0000
1100
0000
0000
0000
,
0100
1000
0010
0000
0011
0000
1010
0000
,
0010
1000
0100
0000
0101
0000
0110
0000
,
1000
0010
1000
0000
0001
0100
0010
1000
,
0100
0010
0100
0010
0100
0000
0010
0000
0002
0000
0000
0000
0100
0000
0000
0000
,
1000
0013
0020
0001
,
1000
0000
0031
0000
0012
0000
0100
1000
,
0010
0000
0100
0010
1003
0000
1100
0000
,
0010
0001
0010
0000
2000
0000
0010
0000
,
3020
1000
2030
0010
,
3010
0100
0001
0000
0100
0001
0100
0010
,
0100
0001
0010
0100
1100
0000
1010
0001
,
1000
0000
0000
0001
0000
0000
1010
0000
0000
0000
0000
0000
1000
0000
0010
0000
1000
0000
0001
0000
1000
0000
0001
0000
,
0100
0001
0100
0010
0100
0010
0200
0000
0000
0000
0000
0000
,
0000
0000
0000
0000
0000
0000
0000
0010
0010
0000
0000
0000
0010
0000
0000
0000
,
0301
0000
0010
0000
0100
1000
0001
0000
1100
0000
0000
0000
0011
0000
0000
0000
,
0001
0100
1000
0000
1010
0000
0101
0000
,
1000
0001
0100
0000
1010
0000
0110
0000
,
0100
0010
1000
0000
0100
1000
0100
0010
,
0001
0010
0001
0010
0001
0000
0000
0000
0001
0000
0100
0000
0010
0000
0100
0000
,
0001
1000
0010
0000
1000
0000
0000
0000
0001
0000
0001
0000
1000
0000
1000
0000
,
0010
0100
0010
0000
1000
0000
0000
0000
0001
0000
0010
0000
1000
0000
0010
0000
,
0001
1000
0001
0000
0100
0000
0010
0000
1000
0000
1000
0000
0010
0000
0010
0000
,
0100
0001
0100
0001
0010
0000
0000
0000
1001
0000
0000
0000
1010
0000
0000
0000
,
0001
0010
0011
0000
1100
0000
0011
0000
,
0010
0100
0110
0000
1001
0000
0011
0000
,
1000
0010
1001
0000
1000
0100
1000
0010
,
1000
0010
1000
0010
1000
0000
0001
0000
0100
0000
0010
0000
0100
0000
0010
0000
,
0100
0000
0010
0000
0100
0000
0010
0000
0110
0000
0000
1001
0000
0000
0110
0000
;

//---------------dance-single - Dial.B.M----------------
#NOTES:
     dance-single:
     Dial.B.M:
     Medium:
     9:
     0.383,0.426,0.380,0.030,0.005:
0000
0000
0000
0000
,
0000
0000
0000
0000
,
0000
0000
0000
0000
,
0000
0000
0000
0000
,
0000
0000
0000
0000
,
0000
0000
0000
0000
,
0000
0000
0000
0000
,
0000
0000
0000
0000
,
1000
0001
1000
0000
0100
0010
0100
0000
,
0001
0100
0001
0000
1000
0010
1000
0000
,
0100
0100
0001
0001
,
1000
1000
0010
0010
,
0110
0000
0110
0000
0001
1000
0001
0000
,
0100
0000
0100
0000
0010
1000
0010
0000
,
0001
0100
0010
1000
,
1001
1001
0110
0110
,
0002
0000
1003
0010
,
0100
0001
0100
0000
0010
0000
1000
0000
,
0100
1000
0010
0000
0100
0000
0010
0000
,
1000
0100
1000
0000
0001
0000
1000
0000
,
0001
0100
0010
0000
1001
0000
0001
0000
,
1000
0010
0100
0000
0110
0000
0100
0000
,
0001
0100
0001
0000
0011
0000
0001
0000
,
1000
0010
0100
0000
0001
0000
1000
0000
,
0001
1001
0010
0100
,
0010
0100
0010
0000
0001
0000
1000
0000
,
0010
0100
0010
0000
0001
0000
0010
0000
,
0100
1000
0100
0000
0010
0000
0100
0000
,
1000
0001
1000
0000
0010
0000
1000
0000
,
0010
0001
0010
1000
,
0010
0001
1000
0100
,
0001
0100
1000
0010
,
0100
0001
0100
0000
0010
0000
0110
0000
,
0001
0101
1000
1100
,
0010
0110
1000
1001
,
0100
0110
0001
0101
,
1000
0110
0001
1000
,
0100
0000
1000
0000
0010
0100
0010
0000
,
0010
0100
0010
0000
0001
1000
0001
0000
,
0001
0100
0001
0000
0010
0000
0100
0000
,
1000
0001
0010
0000
0200
0000
0000
0000
,
0000
0000
0320
0000
,
0000
0000
1030
0001
,
1000
0100
0010
0001
1000
0000
1001
0000
,
0010
0100
0010
0000
0001
0000
0101
0000
,
1000
0010
0100
0000
0001
0000
0101
0000
,
1000
0010
0100
0000
0001
0000
0100
0000
,
0010
0100
0010
0000
0110
0000
0110
0000
,
1001
1001
0010
0010
,
0100
0100
1001
1001
,
0101
0101
0010
1000
,
0100
1000
0100
0000
0110
0000
0110
0000
,
0001
0100
0001
0000
0101
0000
0101
0000
,
1000
0010
1000
0000
1010
0000
0101
0000
,
0001
0100
0001
0000
1000
0000
0010
0000
,
1001
0000
1001
0000
1000
0001
1000
0001
,
0100
0000
0010
0000
0100
0000
0010
0000
1000
0000
0000
0001
0000
0000
1001
0000
;

//---------------dance-single - Dial.B.M----------------
#NOTES:
     dance-single:
     Dial.B.M:
     Easy:
     6:
     0.286,0.398,0.320,0.060,0.000:
0000
0000
0000
0000
,
0000
0000
0000
0000
,
0000
0000
0000
0000
,
0000
0000
0000
0000
,
0000
0000
0000
0000
,
0000
0000
0000
0000
,
0000
0000
0000
0000
,
0000
0000
0000
0000
,
1000
0000
0001
0000
,
1000
0000
0001
0000
,
1001
0000
0110
0000
,
1001
0000
0110
0000
,
1000
0000
0100
0000
,
1000
0000
0010
0000
,
0110
0000
0001
0000
,
0110
0000
0001
0000
,
2002
3003
1000
0010
,
1000
0010
0100
0001
,
0100
0001
1000
0001
,
1000
0001
1000
0010
,
0100
0010
1000
1000
,
0001
0001
0110
0110
,
0110
0110
0001
0001
,
1000
1000
1001
1001
,
1001
1001
0100
0010
,
0100
0010
1000
0001
,
1000
0001
0100
0001
,
0100
0001
1000
0010
,
1000
0010
0110
0110
,
1000
1000
1001
1001
,
0100
0100
1001
1001
,
0100
0100
0010
0010
,
0100
0100
0002
0000
,
0000
0003
2000
0000
,
0000
3000
0002
0000
,
0000
0000
0000
0003
,
0100
0010
0101
0101
,
1000
1000
1010
1010
,
0100
0100
0110
0110
,
0001
1000
0001
0100
,
0010
0110
0002
0000
,
0000
0000
1003
0000
,
0000
0000
0100
0010
,
0100
0001
1000
1000
,
0001
0001
0100
0100
,
0010
0010
0100
0100
,
0001
0001
1000
1000
,
1001
1001
0100
0010
,
1000
0010
0100
0010
,
1000
0010
1000
0100
,
0001
0100
1000
0100
,
0001
0100
0001
0001
,
1000
0100
0010
0010
,
0001
0100
0010
0010
,
1000
0100
1000
0001
,
1000
0010
0100
0100
,
0100
0000
0100
0000
0110
0000
0000
1001
;

//---------------dance-single - Dial.B.M----------------
#NOTES:
     dance-single:
     Dial.B.M:
     Beginner:
     2:
     0.196,0.256,0.250,0.000,0.000:
0000
0000
0000
0000
,
0000
0000
0000
0000
,
0000
0000
0000
0000
,
0000
0000
0000
0000
,
1000
0000
0001
0000
,
0100
0000
0010
0000
,
1000
0000
1000
0000
,
0001
0000
0001
0000
,
0110
0000
1001
0000
,
0001
0000
0001
0000
,
1000
0000
1000
0000
,
0110
0000
1001
0000
,
0001
0000
0001
0000
,
0010
0000
0010
0000
,
1001
0000
0100
0000
,
1001
0000
0010
0000
,
1001
0000
1000
1000
,
1000
1000
0001
0001
,
0001
0001
1000
0000
,
0001
0000
0100
0000
,
0010
0000
1001
0000
,
1001
0000
0110
0000
,
0110
0000
0001
0000
,
0100
0000
1000
0000
,
0100
0000
1000
0000
,
0001
0000
1000
0000
,
1001
0000
0100
0000
,
0010
0000
0001
0000
,
1001
0000
0100
0000
,
0010
0000
0100
0000
,
1001
0000
0010
0000
,
0001
0000
0100
0000
,
1000
0000
1001
0000
,
0000
0000
0010
0000
,
0000
0000
1000
0000
,
0000
0000
0001
0000
,
0000
0000
1001
0000
,
0010
0000
0100
0000
,
1000
0000
0001
0001
,
0001
0001
1000
1000
,
1000
1000
0110
0000
,
0000
0000
0001
0000
,
0000
0000
0010
0010
,
0010
0010
1000
0000
,
0100
0000
0010
0000
,
1000
0000
0100
0000
,
0001
0000
0100
0000
,
1001
0000
1001
0000
,
0010
0000
0100
0000
,
0010
0000
1001
0000
,
0010
0000
1000
0000
,
0001
0000
1001
0000
,
0010
0000
0110
0000
,
0100
0000
1001
0000
,
0001
0000
0110
0000
,
0001
0000
0100
0100
,
0100
0000
0010
0000
,
1001
0000
0000
0000
;
