#TITLE:test drive;
#SUBTITLE:;
#ARTIST:Ariana Grande;
#TITLETRANSLIT:;
#SUBTITLETRANSLIT:;
#ARTISTTRANSLIT:;
#CREDIT:Destrier75;
#BANNER:test drive.png;
#BACKGROUND:test drive-bg.png;
#LYRICSPATH:;
#CDTITLE:;
#MUSIC:test drive.ogg;
#OFFSET:1.870;
#SAMPLESTART:50.283;
#SAMPLELENGTH:16.685;
#SELECTABLE:YES;
#BPMS:0.000=115.000;
#STOPS:;
#BGCHANGES:3.583=test drive.avi=1.000=1=1=0,
99999=-nosongbg-=1.000=0=0=0 // don't automatically add -songbackground-
;

//---------------dance-single - Desrier75----------------
#NOTES:
     dance-single:
     Desrier75:
     Beginner:
     1:
     0.114,0.138,0.008,0.000,0.000:
0000
0000
0000
0000
,
0000
0000
0000
0000
,
0000
0000
0000
0000
,
0000
0000
0000
0000
,
0000
0000
0000
0000
,
0100
0000
0000
0000
,
0001
0000
0000
0000
,
1000
0000
0000
0000
,
0010
0000
0000
0000
,
1000
0000
1000
0000
,
1000
1000
1000
0000
,
0001
0000
0001
0000
,
0001
0001
0001
0000
,
0100
0000
0100
0000
,
0100
0100
0100
0000
,
0010
0000
0010
0000
,
0010
0010
0010
0000
,
1000
0000
0000
0000
,
1000
0000
0000
0000
,
0010
0000
0000
0000
,
0010
0000
0000
0000
,
0001
0000
0000
0000
,
0001
0000
0000
0000
,
1000
0000
0000
0000
,
1000
0000
0000
0000
,
0100
0100
0100
0000
,
0010
0010
0010
0000
,
0100
0000
0100
0000
,
0001
0000
0001
0000
,
1000
1000
1000
0000
,
0010
0010
0010
0000
,
0100
0000
0100
0000
,
0010
0000
0010
0000
,
1000
0000
1000
0000
,
1000
1000
1000
0000
,
0001
0000
0001
0000
,
0001
0001
0001
0000
,
0100
0000
0100
0000
,
0100
0100
0100
0000
,
0010
0000
0010
0000
,
0010
0010
0010
0000
,
0100
0000
0000
0000
,
0100
0000
0000
0000
,
0010
0000
0000
0000
,
0010
0000
0000
0000
,
1000
0000
0000
0000
,
1000
0000
0000
0000
,
0001
0000
0000
0000
,
0001
0000
0000
0000
,
0100
0100
0100
0000
,
0010
0010
0010
0000
,
1000
0000
1000
0000
,
1000
0000
0000
0000
,
0001
0001
0001
0000
,
0100
0100
0100
0000
,
0010
0000
0000
0000
,
0010
0000
0000
0000
,
1001
0000
0000
0000
;

//---------------dance-single - Destrier75----------------
#NOTES:
     dance-single:
     Destrier75:
     Easy:
     4:
     0.189,0.230,0.073,0.161,0.000:
0000
0000
0000
0000
,
0000
0000
0000
0000
,
0000
0000
0000
0000
,
0000
0000
0000
0000
,
0000
0000
0000
0000
,
2000
0000
0000
0000
0000
3001
0000
0000
,
0002
0000
0000
0000
0000
0103
0000
0000
,
2000
0000
0000
0000
0000
3010
0000
0000
,
0002
0000
0000
0000
0000
0103
0000
0000
,
1000
1000
1000
0000
,
0010
0000
0010
0000
,
0100
0100
0100
0000
,
0001
0001
0001
0000
,
1000
1000
1000
0000
,
0010
0000
0010
0000
,
0100
0100
0100
0000
,
0001
0001
0001
0000
,
2000
0000
0000
0000
,
3002
0000
0000
0000
,
0203
0000
0000
0000
,
0320
0000
0000
0000
,
2030
0000
0000
0000
,
3002
0000
0000
0000
,
2003
0000
0000
0000
,
3002
0000
0000
0000
,
1003
1000
1000
1010
,
0001
0001
0001
0101
,
1000
1000
0001
0001
,
1000
0001
1000
0001
,
0100
0100
0100
0110
,
1000
1000
1000
1010
,
0001
0001
1000
1000
,
0001
1000
0001
1000
,
0100
0100
0100
0000
,
1000
1000
1000
0000
,
0001
0001
0001
0000
,
0100
0100
0100
0000
,
0010
0010
0010
0000
,
1000
1000
1000
0000
,
0001
0001
0001
0000
,
0100
0100
0100
0000
,
2000
0000
0000
0000
,
3002
0000
0000
0000
,
0203
0000
0000
0000
,
0320
0000
0000
0000
,
2030
0000
0000
0000
,
3002
0000
0000
0000
,
2003
0000
0000
0000
,
3020
0000
0000
0000
,
0130
0100
0100
0110
,
1000
1000
1000
1001
,
0001
0100
0001
0100
,
1000
0001
1000
0001
,
0100
0100
0100
0110
,
1000
1000
1000
1001
,
0001
0100
0001
0100
,
0001
1000
0001
1000
,
1001
0000
0000
0000
;

//---------------dance-single - Destrier75----------------
#NOTES:
     dance-single:
     Destrier75:
     Medium:
     7:
     0.271,0.345,0.065,0.323,0.000:
0000
0000
0000
0000
,
0000
0000
0000
0000
,
0000
0000
0000
0000
,
0000
0000
0000
0000
,
0000
0000
0000
0000
,
2000
0000
0000
0000
0000
0001
0000
0000
,
3002
0000
0000
0000
0000
1000
0000
0000
,
2003
0000
0000
0000
0000
0001
0000
0000
,
3002
0000
0000
0000
0000
1000
0000
0000
,
1003
0010
1000
0010
1000
0000
0100
0000
,
1000
0010
0100
0001
,
0100
0001
0100
0001
0100
0000
0010
0000
,
1000
0010
1000
0010
1000
0000
0100
0000
,
1000
0010
1000
0010
1000
0000
0100
0000
,
0010
1000
0001
0100
,
0001
0100
0001
0100
0001
0000
0010
0000
,
1000
0010
1000
0010
1000
0000
0100
0000
,
2000
0000
0000
0000
,
3002
0000
0000
0000
,
0203
0000
0000
0000
,
0320
0000
0000
0000
,
2030
0000
0000
0000
,
3002
0000
0000
0000
,
0203
0000
0000
0000
,
0320
0000
0000
0000
,
1030
0001
1000
1001
,
0100
0010
0100
0110
,
1000
0010
1000
0000
0001
0100
0001
0000
,
2000
3002
2003
3002
,
1003
0001
1000
1001
,
0100
0010
0100
0110
,
1000
0010
1000
0000
0001
0100
0001
0000
,
0200
0320
0230
0320
,
1030
0001
1000
0001
1000
0000
0100
0000
,
0010
0100
0010
0100
0010
0000
0100
0000
,
1000
0010
1000
0000
0001
0100
0001
0000
,
2000
3002
2003
3002
,
1003
0010
1000
0010
1000
0000
0100
0000
,
0001
0100
0001
0100
0001
0000
0010
0000
,
1000
0001
1000
0000
0001
0100
0001
0000
,
1000
0010
1000
0000
0001
0100
0001
0000
,
0200
0000
0000
0000
,
0302
0000
0000
0000
,
2003
0000
0000
0000
,
3020
0000
0000
0000
,
2030
0000
0000
0000
,
3002
0000
0000
0000
,
0203
0000
0000
0000
,
0302
0000
0000
0000
,
1003
0001
1000
1001
,
0100
0010
0100
0110
,
1000
0010
1000
0000
0001
0100
0001
0000
,
2000
3002
2003
3002
,
1003
0010
1000
1010
,
0001
0100
0001
0101
,
1000
0001
1000
0000
0001
0100
0001
0000
,
2000
3020
0230
0302
,
1003
0000
0000
0000
;

//---------------dance-single - Destrier75----------------
#NOTES:
     dance-single:
     Destrier75:
     Hard:
     10:
     0.408,0.460,0.065,0.379,0.165: // measure 1
0000
0000
0000
0000
,  // measure 2
0000
0000
0000
0000
,  // measure 3
0000
0000
0000
0000
,  // measure 4
0000
0000
0000
0000
,  // measure 5
0000
0000
0000
0000
,  // measure 6
2000
0000
0000
0000
0000
0010
0000
0000
,  // measure 7
3020
0000
0000
0000
0000
0100
0000
0000
,  // measure 8
0230
0000
0000
0000
0000
0001
0000
0000
,  // measure 9
0302
2003
3020
1030
,  // measure 10
1000
0001
0000
0001
1000
0000
0010
0000
1000
0000
0010
0000
0100
0000
0001
0000
,  // measure 11
1000
0010
0001
1000
0001
1000
0100
0010
,  // measure 12
1000
0100
0000
0100
1000
0000
0010
0001
0000
0001
0010
0000
1000
0000
0001
0000
,  // measure 13
1000
0010
0000
0010
1000
0000
0001
1000
0000
1000
0001
0000
0001
0000
0100
0000
,  // measure 14
0001
0010
0000
0010
0001
0000
0010
0000
1000
0000
0010
0000
0100
0000
0001
0000
,  // measure 15
1000
0010
0100
0010
0100
0010
1000
0001
,  // measure 16
1000
0100
0000
0100
1000
0000
0100
0001
0000
0001
0100
0000
0001
0000
0010
0000
,  // measure 17
1000
0100
0000
0100
1000
0000
0100
0001
0000
0001
0100
0000
0001
0000
1000
0000
,  // measure 18
0002
0000
0100
0000
,  // measure 19
0203
0000
0010
0000
,  // measure 20
2300
0000
0001
0000
,  // measure 21
3001
0010
0001
0100
0020
0000
0100
0000
,  // measure 22
0230
0000
0001
0000
,  // measure 23
0302
0000
1000
0000
,  // measure 24
2003
0000
0010
0000
,  // measure 25
3010
0000
0000
0000
0000
0000
0000
0000
0000
0000
0000
0000
0000
0000
0000
0000
0000
0000
0000
0000
0000
0000
0000
0000
0100
0000
0000
0000
0000
0000
0000
0000
0000
0000
0000
0000
0000
0000
0000
0000
0000
0000
0000
0000
0000
0000
0000
0000
0010
0000
0000
0000
0000
0000
0000
0000
0000
0000
0000
0000
0000
0000
0000
0000
0000
0000
0000
0000
0000
0000
0000
0000
0100
0000
0000
0000
0000
0000
0000
0000
0000
0000
0000
0000
0000
0000
0000
0000
0000
0000
0000
0000
0000
0000
0000
0000
0001
0000
0000
0000
0000
0000
0000
0000
0000
0000
0000
0000
0000
0000
0000
0000
0000
0000
0000
0000
0000
0000
0000
0000
0100
0000
0000
0000
0000
0000
0000
0000
0000
0000
0000
0000
0000
0000
0000
0000
0000
0000
0000
0000
0000
0000
0000
0000
0010
0000
0000
0000
0000
0000
0000
0000
0000
0000
0000
0000
0000
0000
0000
0000
0000
0000
0000
0000
0000
0000
0000
0000
0100
0000
0000
0000
0000
0000
0000
0000
0000
0000
0000
0000
0000
0000
0000
0000
0000
0000
0000
0000
0000
0000
0000
1000
,  // measure 26
2000
0000
0000
0000
3002
0000
0000
0000
0103
0001
0000
0000
0101
0000
0000
0000
,  // measure 27
2000
0000
0000
0000
3002
0000
0000
0000
0103
0001
0000
0000
0101
0000
0000
0000
,  // measure 28
1000
0100
1000
0001
0100
0001
0010
0100
,  // measure 29
2000
0000
3002
0000
0103
0001
0100
0001
,  // measure 30
2000
0000
0000
0000
3002
0000
0000
0000
0103
0001
0000
0000
0101
0000
0000
0000
,  // measure 31
2000
0000
0000
0000
3020
0000
0000
0000
0130
0010
0000
0000
1001
0000
0000
0000
,  // measure 32
0100
0001
0100
1000
0010
1000
0100
0010
,  // measure 33
0002
0000
0203
0000
0301
0010
0001
1000
,  // measure 34
0200
0000
0001
0000
0301
0000
0001
1000
,  // measure 35
0001
0000
0100
0001
0000
0001
0100
0000
0010
0000
0001
0000
0010
0000
1000
0000
,  // measure 36
0001
0000
0100
0001
0000
0001
0100
0000
0010
0000
0100
0000
1000
0000
0010
0000
,  // measure 37
2000
0000
3002
0000
0103
0001
0100
0010
,  // measure 38
1000
0010
1000
0010
0100
0010
0100
0001
,  // measure 39
0100
0001
0100
0010
1000
0001
0100
0010
,  // measure 40
1000
0010
0000
0010
1000
0000
0100
0010
0000
0010
0100
0000
0001
0000
0100
0000
,  // measure 41
0001
0100
0000
0100
0001
0000
0001
1000
0000
1000
0001
0000
1000
0000
0010
0000
,  // measure 42
2000
0000
0001
0000
,  // measure 43
3002
0000
0100
0000
,  // measure 44
0203
0000
0010
0000
,  // measure 45
0301
1000
0100
0010
0200
0000
0010
0000
,  // measure 46
0320
0000
0001
0000
,  // measure 47
0032
0000
1000
0000
,  // measure 48
2003
0000
0010
0000
,  // measure 49
3010
0001
0010
1000
0010
1000
0100
0010
,  // measure 50
0002
0000
0000
0000
0203
0000
0000
0000
0310
0100
0000
0000
0110
0000
0000
0000
,  // measure 51
2000
0000
0000
0000
3002
0000
0000
0000
0103
0001
0000
0000
0101
0000
0000
0000
,  // measure 52
0001
0010
0001
1000
0100
1000
0100
0010
,  // measure 53
0002
0000
0203
0000
0310
0001
0010
0100
,  // measure 54
2000
0000
0000
0000
3020
0000
0000
0000
1030
0010
0000
0000
1010
0000
0000
0000
,  // measure 55
0002
0000
0000
0000
0203
0000
0000
0000
0301
0100
0000
0000
0101
0000
0000
0000
,  // measure 56
0001
0010
0001
1000
0100
1000
0100
0010
,  // measure 57
0002
0000
2003
0000
3100
0010
0001
0100
,  // measure 58
0001
0000
0000
0000
;
