#TITLE:Ying Run Lah;
#SUBTITLE:;
#ARTIST:Yinglee SriJumpol;
#TITLETRANSLIT:;
#SUBTITLETRANSLIT:;
#ARTISTTRANSLIT:;
#GENRE:;
#CREDIT:;
#MUSIC:Ying Run Lah.ogg;
#BANNER:Ying Run Lah.png;
#BACKGROUND:Ying Run Lah-bg.png;
#CDTITLE:;
#SAMPLESTART:57.020;
#SAMPLELENGTH:15.000;
#SELECTABLE:YES;
#OFFSET:0.280;
#BPMS:0.000=150.000;
#STOPS:;
#BGCHANGES:0.688=Ying Run Lah.avi=1.000=1=0=0=StretchNoLoop==CrossFade==,
99999.000=-nosongbg-=1.000=0=0=0=StretchNoLoop====
;
#FGCHANGES:;

//--------------- dance-single - Destrier75 ----------------
#NOTES:
     dance-single:
     Destrier75:
     Beginner:
     2:
     0,0,0,0,0:
0000
0000
0000
0000
,
0000
0000
0000
0000
,
0000
0000
0000
0000
,
0000
0000
0000
0000
,
1000
0000
1000
0000
,
0010
0000
0010
0000
,
0001
0000
0001
0000
,
0100
0000
0100
0000
,
0010
0010
0010
0000
,
1000
1000
1000
0000
,
0001
0001
0001
0000
,
0100
0000
0100
0000
,
0010
0010
0010
0000
,
0100
0100
0100
0000
,
0001
0001
0001
0000
,
1000
0000
1000
0000
,
0001
0001
0001
0000
,
0100
0100
0100
0000
,
0010
0010
0010
0000
,
1000
1000
1000
0000
,
0001
0001
0001
0000
,
0100
0100
0100
0000
,
0010
0000
0010
0000
,
0010
0000
0010
0000
,
0001
0001
0001
0000
,
0100
0100
0100
0000
,
1000
1000
1000
0000
,
0010
0010
0010
0000
,
0100
0100
0100
0000
,
0001
0001
0001
0000
,
1000
0000
0001
0000
,
1000
0000
0001
0000
,
0100
0100
0100
0000
,
0010
0010
0010
0000
,
1000
1000
1000
0000
,
1001
0000
0000
0000
,
0001
0001
0001
0000
,
0100
0100
0100
0000
,
0010
0010
0010
0000
,
1000
1000
1000
0000
,
0001
0001
0001
0000
,
0100
0100
0100
0000
,
0010
0010
0010
0000
,
1000
1000
1000
0000
,
0001
0001
0001
0000
,
0010
0000
0010
0000
,
1000
1000
1000
0000
,
0100
0000
0100
0000
,
0001
0001
0001
0000
,
0010
0000
0010
0000
,
0100
0100
0100
0000
,
0010
0000
0010
0000
,
0100
0000
0100
0000
,
0100
0000
0100
0000
,
0010
0010
0010
0000
,
1000
0000
1000
0000
,
1001
0000
0000
0000
,
0001
0001
0001
0000
,
0100
0100
0100
0000
,
0010
0010
0010
0000
,
1000
0000
1000
0000
,
0001
0001
0001
0000
,
0100
0100
0100
0000
,
0010
0010
0010
0000
,
0100
0000
0010
0000
,
0100
0000
0000
0000
;

//--------------- dance-single - Destrier75 ----------------
#NOTES:
     dance-single:
     Destrier75:
     Easy:
     6:
     0,0,0,0,0:
0000
0000
0000
0000
,
0000
0000
0000
0000
,
0000
0000
0000
0000
,
0000
0000
0000
0000
,
1000
0001
1000
0001
,
0100
0010
0100
0010
,
0100
0001
0100
0001
,
0202
0000
0000
0303
,
1000
0100
1000
0100
,
0001
0100
0001
0100
,
0001
1000
0001
1000
,
1001
2002
0000
0000
0000
0000
0000
0000
0000
0000
0000
0000
0000
0000
0000
0000
0000
0000
0000
0000
0000
0000
0000
0000
0000
0000
0000
0000
0000
0000
0000
0000
0000
0000
0000
0000
0000
0000
0000
0000
0000
0000
0000
0000
0000
0000
0000
0000
0000
0000
0000
0000
0000
0000
0000
0000
0000
0000
0000
0000
0000
0000
0000
0000
0000
0000
0000
0000
0000
0000
0000
0000
0000
0000
0000
0000
0000
0000
0000
0000
0000
0000
0000
0000
0000
0000
0000
0000
0000
0000
0000
0000
0000
0000
0000
0000
0000
0000
0000
0000
0000
0000
0000
0000
0000
0000
0000
0000
0000
0000
0000
0000
0000
0000
0000
0000
0000
0000
0000
0000
0000
0000
0000
0000
0000
0000
0000
0000
0000
0000
0000
0000
0000
0000
0000
0000
0000
0000
0000
0000
0000
0000
0000
0000
3003
0000
0000
0000
0000
0000
0000
0000
0000
0000
0000
0000
0000
0000
0000
0000
0000
0000
0000
0000
0000
0000
0000
0000
0000
0000
0000
0000
0000
0000
0000
0000
0000
0000
0000
0000
0000
0000
0000
0000
0000
0000
0000
0000
0000
0000
0000
0000
,
0001
0100
0001
0100
,
0010
0100
0010
0100
,
1000
0010
1000
0010
,
1000
1001
0000
0000
,
0001
0100
0001
0100
,
0010
0010
0010
0010
,
1000
0010
1000
0010
,
0100
0100
0100
0100
,
0001
0010
0001
0010
,
0001
0001
0001
0001
,
1001
0000
1001
0000
,
1000
1001
0000
0000
,
0010
0001
0010
0001
,
0100
0100
0100
0100
,
0010
1000
0010
1000
,
0001
0001
0001
0001
,
0100
0010
0100
0010
,
0001
0001
0001
0001
,
1000
0001
1000
0001
,
0100
0100
0100
0100
,
1000
0010
1000
0010
,
0100
0001
0100
0001
,
0010
0001
0010
0001
,
1001
0000
1001
0000
,
1000
1000
1000
1000
,
0010
0010
0010
0010
,
0001
0001
0001
0001
,
0100
0100
0100
0100
,
0010
0010
0010
0010
,
0001
0001
0001
0001
,
1000
1000
1000
1000
,
0001
0001
0001
0001
,
1000
0001
1000
0001
,
0100
0100
0100
0100
,
0010
0001
0010
0001
,
0010
0010
0010
0010
,
1000
0010
1000
0010
,
0100
0100
0100
0100
,
0001
0010
0001
0010
,
0001
0001
0001
0001
,
1000
0001
1000
0001
,
2000
0000
3002
0000
,
1003
0010
1000
0001
,
1000
0000
1000
0000
,
2002
0000
0000
3003
,
0001
0100
0001
0100
,
0010
0100
0010
0100
,
1000
0100
1000
0100
,
1000
1000
0001
0001
,
0100
0010
0100
0010
,
0001
0100
0001
0100
,
0010
1000
0010
1000
,
1000
0001
1000
0001
,
1001
0000
0000
1001
0000
0000
0000
0000
;

//--------------- dance-single - Destrier75 ----------------
#NOTES:
     dance-single:
     Destrier75:
     Medium:
     9:
     0,0,0,0,0:
0000
0000
0000
0000
,
0000
0000
0000
0000
,
0000
0000
0000
0000
,
0000
0000
0000
0000
,
1000
0001
1000
0000
0001
1000
0001
0000
,
0100
0001
0100
0000
0010
1000
0010
0000
,
0100
0010
0100
0000
0001
0100
0001
0000
,
1000
1010
0010
0011
,
1000
0010
1000
0000
0100
0000
0001
0000
,
0100
0001
0100
0000
0010
0000
0100
0000
,
1000
0010
1000
0000
0100
0000
0010
0000
,
0001
0100
0001
0000
1000
0001
1000
0000
,
0001
0100
0001
0000
0010
0000
1000
0000
,
0010
0100
0010
0000
0001
0000
0100
0000
,
0010
1000
0010
0000
0100
0000
0010
0000
,
1001
1001
0010
0010
,
1000
0010
1000
0010
1000
0000
0100
0000
,
0001
0100
0001
0100
0001
0000
0010
0000
,
1000
0010
1000
0010
1000
0000
0100
0000
,
1000
0100
1000
0100
1000
0000
0001
0000
,
0010
0001
0010
0001
0010
0000
0100
0000
,
0010
0100
0010
0100
0010
0000
0100
0000
,
1001
0000
1001
0000
,
1001
1001
0010
0010
,
1000
0010
1000
0010
1000
0000
0100
0000
,
0001
0100
0001
0100
0001
0000
0010
0000
,
0100
0010
0100
0010
0100
0000
0010
0000
,
0100
0001
0100
0001
0100
0000
0010
0000
,
1000
0100
1000
0100
1000
0000
0001
0000
,
0001
0010
0001
0010
0001
0000
0100
0000
,
0001
1001
1000
1010
,
0010
0000
0001
0000
1000
0001
1000
0000
,
0001
0100
0001
0000
0010
0000
0100
0000
,
1000
0001
1000
0000
0100
0000
0010
0000
,
0001
0010
0001
0000
0100
0000
0010
0000
,
0100
0010
0100
0010
,
1000
0001
1000
0000
0010
0000
0010
0000
,
0100
0001
0100
0000
0010
0000
0010
0000
,
1000
0010
1000
0000
0100
0000
0100
0000
,
0001
0100
0001
0000
0100
0000
0100
0000
,
0001
0010
0001
0000
0100
0000
0100
0000
,
0010
0001
0010
0000
1000
0000
1000
0000
,
0100
0010
0100
0000
0010
0000
0010
0000
,
1000
0001
1000
0000
0001
0000
0001
0000
,
0100
0010
0100
0010
0100
0000
0001
0000
,
0100
0001
0100
0001
0100
0000
0010
0000
,
1000
0010
1000
0010
1000
0000
0100
0000
,
0001
0100
0001
0100
0001
0000
0010
0000
,
0100
0010
0100
0010
0100
0000
0010
0000
,
0001
0100
0001
0100
0001
0000
0010
0000
,
1000
0001
1000
0001
1000
0000
0100
0000
,
0001
0100
0001
0100
0001
0000
0001
0000
,
1000
0001
1000
0000
0001
1000
0001
0000
,
2002
0000
0000
3003
0220
0000
0000
0330
,
1000
0001
1000
0000
0010
0000
0100
0000
,
1001
0000
0000
0000
,
2002
0000
0000
3003
,
1000
0010
1000
0000
0100
0000
0010
0000
,
0001
0100
0001
0000
0010
0000
0100
0000
,
0010
1000
0010
0000
0100
0000
0010
0000
,
0001
0100
0001
0000
1000
0001
1000
0000
,
0001
0100
0001
0000
0010
0000
0100
0000
,
1000
0010
1000
0000
0100
0000
0010
0000
,
0001
0100
0001
0000
0010
0000
0100
0000
,
1000
0001
1000
0001
,
1000
0000
0000
1001
0000
0000
0000
0000
;

//--------------- dance-single - Destrier75 ----------------
#NOTES:
     dance-single:
     Destrier75:
     Hard:
     12:
     0.53,0.491,0.31,0.094,0:
0000
0000
0000
0000
,
0000
0000
0000
0000
,
0000
0000
0000
0000
,
0000
0000
0000
0000
,
1000
0001
0100
0010
1000
0010
0001
0010
,
0100
0010
0001
0010
0100
1000
0010
0001
,
1000
0010
1000
0010
1000
0010
1000
0010
,
0220
0000
0330
0000
0110
0000
0000
0000
0100
0010
0100
0000
0010
0100
0010
0000
,
1000
0100
0010
0001
1000
0001
0000
1001
,
0000
1000
0001
1000
0001
1000
0000
1010
,
0000
0100
0010
0001
1000
0001
1000
0002
,
0000
0013
0100
1000
0001
0010
0100
1000
,
0001
0100
0001
1000
0001
0100
0000
0101
,
0000
0010
1000
0010
1000
0001
0000
1001
,
0000
1000
0001
1000
0100
0010
0001
1000
,
0001
0000
1001
0000
1000
0000
0010
0100
,
1000
0001
1000
0001
2000
0000
3002
0000
,
0103
0010
0100
0010
0200
0000
0310
0001
,
1000
0001
1000
0001
2000
0000
3002
0000
,
0103
0001
0100
0010
1000
0010
0000
0020
,
0000
0031
1000
0001
2000
0000
3002
0000
,
0103
0010
1000
0010
2000
0000
3002
0000
,
1003
1000
1001
0001
,
0101
0000
0101
0000
0001
0000
1000
0001
,
0010
0100
0001
0100
0002
0000
0023
0000
,
1030
0010
1000
0010
1000
0010
0000
1000
,
0000
0001
0010
0001
0010
0000
1000
0001
,
0100
1000
0001
1000
0001
0200
0000
0302
,
0000
0000
1003
0001
0000
1000
0001
0000
,
1001
0001
1000
0001
2000
0000
3002
0000
,
2003
0010
3020
0001
,
0032
0000
0000
0000
1000
0000
0000
0000
1003
0001
1000
0000
0001
0100
0001
0000
,
0010
1000
0001
0100
0010
0001
0000
0101
,
0000
1000
0010
1000
0001
0100
0000
0101
,
0000
1000
0100
0010
0001
1000
0001
0100
,
0101
0000
0101
0000
0101
0000
1001
0010
,
1000
0010
1000
0001
1000
0010
0000
1010
,
0000
0001
1000
0001
0100
0010
0000
0110
,
0000
0001
0100
0001
0100
0001
0000
1001
,
1000
0010
1000
0002
0000
0100
0103
0001
,
1000
0001
1000
0010
1000
0010
0000
1010
,
0000
0010
0100
0010
0100
0001
0000
0101
,
0000
0001
1000
0001
2000
0000
3020
0000
,
1030
0100
0010
0001
1000
0001
1000
0001
,
1000
0010
1000
0010
2000
0000
0010
3010
,
0001
0010
0100
1000
0001
1000
0001
0100
,
1000
0001
1000
0001
2000
0000
0010
3010
,
1000
0010
1000
0100
0010
0001
0000
1000
,
0001
0100
0001
0100
0002
0000
1000
1003
,
1000
0010
0001
0010
1000
0010
0000
0100
,
1000
0001
1000
0001
2000
0000
0010
3010
,
0001
0010
0100
1000
0001
0000
0001
1000
,
1000
1000
0001
0001
0100
0100
0010
0010
,
2000
0000
3002
0000
,
1003
0010
1000
0001
1000
0010
1000
0100
,
0020
0000
0230
0000
,
0301
0000
1000
0000
0001
1000
0001
0000
,
1000
0010
1000
0001
1000
0001
0000
1001
,
0000
0001
1000
0001
1000
0010
0000
1010
,
0000
1000
0001
1000
0001
0100
0010
0002
,
0000
1003
0100
0010
0001
1000
0100
0010
,
0001
1000
0010
0001
0100
0010
0000
1010
,
0000
1000
0001
1000
0010
1000
0000
1001
,
0000
0001
0100
0001
0100
0010
0001
1000
,
1010
1001
0101
1001
,
0101
0000
0000
1001
0000
0000
0000
0000
;
