#TITLE:Weekend;
#SUBTITLE:;
#ARTIST:TAEYEON;
#TITLETRANSLIT:;
#SUBTITLETRANSLIT:;
#ARTISTTRANSLIT:;
#GENRE:;
#CREDIT:Destrier75;
#MUSIC:Weekend.ogg;
#BANNER:Weekend.png;
#BACKGROUND:Weekend-bg.png;
#CDTITLE:;
#SAMPLESTART:50.140;
#SAMPLELENGTH:15.014;
#SELECTABLE:YES;
#OFFSET:1.850;
#BPMS:0.000=114.000;
#STOPS:;
#BGCHANGES:3.500=Weekend.avi=1.000=1=0=0=StretchNoLoop==CrossFade==,
99999.000=-nosongbg-=1.000=0=0=0=StretchNoLoop====
;
#FGCHANGES:;

//--------------- dance-single - Destrier75 ----------------
#NOTES:
     dance-single:
     Destrier75:
     Beginner:
     2:
     0,0,0,0,0:
0000
0000
0000
0000
,
0000
0000
0000
0000
,
0000
0000
0000
0000
,
0000
0000
0000
0000
,
0000
0000
0000
0000
,
0100
0000
0100
0000
,
0100
0100
0100
0000
,
0000
0000
0010
0000
,
0010
0010
0010
0000
,
1000
0000
1000
0000
,
1000
1000
1000
0000
,
0001
0000
0001
0000
,
0001
0001
0001
0000
,
0100
0000
0100
0000
,
0100
0100
0100
0000
,
0010
0000
0010
0000
,
0010
0010
0010
0000
,
0100
0100
0100
0000
,
0010
0010
0010
0000
,
1000
1000
1000
0000
,
0001
0001
0001
0000
,
0100
0100
0100
0000
,
0010
0010
0010
0000
,
1000
0000
1000
0000
,
1000
0000
0000
0000
,
0100
0000
0100
0000
,
0100
0100
0100
0000
,
0010
0000
0010
0000
,
0010
0010
0010
0000
,
1000
0000
1000
0000
,
1000
1000
1000
0000
,
0001
0000
0001
0000
,
0001
0001
0001
0000
,
0100
0000
0100
0000
,
0010
0000
0010
0000
,
1000
0000
1000
0000
,
0001
0000
0001
0000
,
0100
0000
0100
0000
,
0010
0000
0010
0000
,
1000
0000
1000
0000
,
0001
0000
0001
0000
,
1000
1000
1000
0000
,
0001
0001
0001
0000
,
0100
0100
0100
0000
,
0010
0010
0010
0000
,
0100
0100
0100
0000
,
1000
1000
1000
0000
,
0001
0000
0001
0000
,
0001
0000
0000
0000
,
0100
0000
0100
0000
,
0100
0100
0100
0000
,
0010
0000
0010
0000
,
0010
0010
0010
0000
,
1000
0000
1000
0000
,
1000
1000
1000
0000
,
0001
0000
0001
0000
,
0001
0001
0001
0000
,
0100
0000
0100
0000
,
0010
0000
0010
0000
,
1000
1000
1000
0000
,
0001
0001
0001
0000
,
0100
0100
0100
0000
,
0010
0010
0010
0000
,
1000
1000
1000
0000
,
0001
0001
0001
0000
;

//--------------- dance-single - Destrier75 ----------------
#NOTES:
     dance-single:
     Destrier75:
     Easy:
     4:
     0,0,0,0,0:
0000
0000
0000
0000
,
0000
0000
0000
0000
,
0000
0000
0000
0000
,
0000
0000
0000
0000
,
0000
0000
0000
0000
,
1000
0001
1000
0001
,
0100
0001
0100
0001
,
1000
0010
1000
0010
,
0100
0001
0100
0001
,
1000
1000
0010
0010
,
0100
0100
0001
0001
,
0100
0100
0010
0010
,
1000
1000
0010
0010
,
0100
0100
0001
0001
,
0100
0100
0010
0010
,
1000
1000
0100
0100
,
0001
0001
0100
0100
,
2000
0000
0000
0000
,
3002
0000
0000
0000
,
2003
0000
0000
0000
,
3002
0000
0000
0000
,
1003
0100
0000
0100
,
0001
0010
0001
0010
,
1000
1000
0000
0001
0000
0100
0000
0010
,
0000
1000
1000
0000
0000
0000
0000
0000
,
0200
0000
0010
0000
,
0310
0100
0010
0100
,
2000
0000
0001
0000
,
3001
1000
0001
1000
,
0002
0000
0100
0000
,
0103
0001
0100
0001
,
2000
0000
0001
0000
,
3001
0100
0001
0100
,
2000
0000
0000
0000
,
3002
0000
0000
0000
,
0203
0000
0000
0000
,
0320
0000
0000
0000
,
2030
0000
0000
0000
,
3002
0000
0000
0000
,
0200
0003
0000
0000
0000
0000
0000
0000
0000
0000
0000
0000
0000
0000
0000
0000
0000
0000
0000
0000
0000
0000
0000
0000
0000
0000
0000
0000
0000
0000
0000
0000
0000
0000
0000
0000
0000
0000
0000
0000
0000
0000
0000
0000
0000
0000
0000
0000
0000
0000
0000
0000
0000
0000
0000
0000
0000
0000
0000
0000
0000
0000
0000
0000
0000
0000
0000
0000
0000
0000
0000
0000
0000
0000
0000
0000
0000
0000
0000
0000
0000
0000
0000
0000
0000
0000
0000
0000
0000
0000
0000
0000
0000
0000
0000
0000
0000
0000
0000
0000
0000
0000
0000
0000
0000
0000
0000
0000
0000
0000
0000
0000
0000
0000
0000
0000
0000
0000
0000
0000
0000
0000
0000
0000
0000
0000
0000
0000
0000
0000
0000
0000
0000
0000
0000
0000
0000
0000
0000
0000
0000
0000
0000
0000
0000
0000
0000
0000
0000
0000
0000
0000
0000
0000
0000
0000
0000
0000
0000
0000
0000
0000
0000
0000
0000
0000
0000
0000
0000
0000
0000
0000
0000
0000
0000
0000
0000
0000
0000
0000
0000
0000
0000
0000
0000
0000
0000
0000
0000
0000
0000
0000
,
0320
0000
0000
0000
,
1030
0001
0100
0010
,
1000
0001
0100
0010
,
1000
1000
0001
0001
,
0100
0100
0010
0010
,
0001
0100
0010
1000
,
0001
0100
0010
1000
,
0001
0001
0000
1000
0000
0010
0000
0100
,
0000
0010
0010
0000
0000
0000
0000
0000
,
0200
0000
0010
0000
,
0301
1000
0001
1000
,
0002
0000
0100
0000
,
1003
0010
1000
0010
,
2000
0000
0001
0000
,
3001
0100
0001
0100
,
0020
0000
0100
0000
,
1030
0001
1000
0001
,
2000
0000
0000
0000
,
3002
0000
0000
0000
,
1003
0001
1000
0001
,
0100
0010
0100
0010
,
1000
0010
1000
0010
,
1000
0001
1000
0001
,
0100
0001
0100
0001
,
1000
0010
1000
0010
;

//--------------- dance-single - Destrier75 ----------------
#NOTES:
     dance-single:
     Destrier75:
     Medium:
     8:
     0,0,0,0,0:
0000
0000
0000
0000
,
0000
0000
0000
0000
,
0000
0000
0000
0000
,
0000
0000
0000
0000
,
0000
0000
0000
0000
,
0100
0010
0100
0000
0001
0000
0100
0000
,
1000
0010
1000
0000
0100
0000
0010
0000
,
0001
0100
0001
0000
1000
0000
0010
0000
,
0100
0010
0100
0000
0010
0100
0010
0000
,
1000
0100
1000
0000
0100
0000
0010
0000
,
0001
0100
0001
0000
0010
0000
0100
0000
,
1000
0001
1000
0000
0100
0000
0010
0000
,
0001
0100
0001
0000
0100
0000
0010
0000
,
1000
0010
1000
0000
0010
0000
0100
0000
,
0001
0100
0001
0000
1000
0000
0010
0000
,
0100
0010
0100
0000
0001
0000
0100
0000
,
1000
0010
1000
0000
0010
0000
0100
0000
,
1000
0010
1000
0010
1000
0000
0100
0000
,
0001
0100
0001
0100
0001
0000
0010
0000
,
2001
0001
0001
3001
,
1000
0010
0001
0010
,
1000
0010
1000
0010
1000
0000
0100
0000
,
0001
0100
0001
0100
0001
0000
0010
0000
,
1000
1000
0000
0001
0000
1000
0000
0001
,
0000
1000
1001
0000
0000
0000
0000
0000
,
2000
0010
0010
3010
,
1000
0010
1000
0000
0100
0000
0010
0000
,
0002
0100
0100
0103
,
0001
0100
0001
0000
0010
0000
0100
0000
,
2000
0010
0010
3010
,
0100
0010
0100
0000
0100
0000
0001
0000
,
0002
0000
1000
0000
1000
0000
1000
0003
,
0100
0010
0100
0000
0010
0000
0100
0000
,
2000
0000
0001
0000
,
3002
0000
0100
0000
,
0203
0000
0010
0000
,
0320
0000
1000
0000
,
2000
0030
0000
0000
0000
0000
0000
0000
0000
0000
0000
0000
0000
0000
0000
0000
0000
0000
0000
0000
0000
0000
0000
0000
0000
0000
0000
0000
0000
0000
0000
0000
0001
0000
0000
0000
0000
0000
0000
0000
0000
0000
0000
0000
0000
0000
0000
0000
0000
0000
0000
0000
0000
0000
0000
0000
0000
0000
0000
0000
0000
0000
0000
0000
,
0002
3000
0000
0000
0000
0000
0000
0000
0000
0000
0000
0000
0000
0000
0000
0000
0000
0000
0000
0000
0000
0000
0000
0000
0000
0000
0000
0000
0000
0000
0000
0000
0000
0000
0000
0000
0000
0000
0000
0000
0000
0000
0000
0000
0000
0000
0000
0000
0100
0000
0000
0000
0000
0000
0000
0000
0000
0000
0000
0000
0000
0000
0000
0000
0000
0000
0000
0000
0000
0000
0000
0000
0000
0000
0000
0000
0000
0000
0000
0000
0000
0000
0000
0000
0000
0000
0000
0000
0000
0000
0000
0000
0000
0000
0000
0000
,
0203
0000
0010
0000
,
0320
0000
1000
0000
,
1030
0001
1000
0000
0010
0000
0100
0000
,
0010
0001
0010
0000
1000
0000
0010
0000
,
0100
0010
0100
0000
1000
0000
0010
0000
,
0100
0001
0100
0000
0010
0000
0100
0000
,
1000
0010
1000
0000
0100
0000
0001
0000
,
0100
0001
0100
0000
0010
0000
1000
0000
,
0001
0001
0000
1000
0000
0001
0000
1001
,
0000
1000
1001
0000
0000
0000
0000
0000
,
2100
0100
0100
3100
,
1000
0001
1000
0000
0100
0000
0010
0000
,
0102
0100
0100
0103
,
0001
0100
0001
0000
0010
0000
0100
0000
,
2000
0010
0010
3010
,
0100
0010
0100
0000
0001
0000
0100
0000
,
2000
0001
0001
3001
,
0100
0010
0100
0000
0001
0000
0100
0000
,
2000
0000
0000
0000
,
3002
0000
0000
0000
,
1003
0010
1000
0000
0100
0000
0010
0000
,
0001
0100
0001
0000
0010
0000
0100
0000
,
1000
0001
1000
0000
0100
0000
0010
0000
,
0100
0010
0100
0000
0001
0000
0100
0000
,
1000
0010
1000
0000
0100
0000
0010
0000
,
0001
0100
0001
0000
0010
0100
1000
0002
,
0003
0000
0000
0000
;

//--------------- dance-single - Destrier75 ----------------
#NOTES:
     dance-single:
     Destrier75:
     Hard:
     12:
     0.515,0.522,0.168,0.431,0.215:
0000
0000
0000
0000
,
0000
0000
0000
0000
,
0000
0000
0000
0000
,
0000
0000
0000
0000
,
0000
0000
0000
0000
,
0000
0000
1000
0000
0000
0001
0000
0000
0200
0000
0000
0310
0000
0000
0100
0010
,
0100
0000
0001
0000
1000
0000
0010
0000
0200
0000
0000
0301
0000
0000
1000
0001
,
1000
0000
0100
0000
1000
0000
0001
0000
0200
0000
0000
0310
0000
0000
1000
0000
,
0010
0000
0001
1000
0000
0000
0001
0100
0001
0000
0100
0001
0000
0000
0100
0000
,
2000
0010
3010
0001
2000
0010
3010
0001
,
0100
0000
0010
0000
1000
0000
0001
0000
2000
0000
0000
3001
0000
0000
0001
0000
,
0200
0010
0310
0001
2000
0010
3010
1000
,
0010
0000
0100
0000
0001
0000
0100
0000
0010
0000
0001
1000
0001
0000
0100
0000
,
0020
0100
0130
0010
2000
0001
3001
0010
,
0100
0000
0001
0000
1000
0000
0010
0000
0200
0000
0000
0301
0000
0000
0001
0000
,
2000
0010
3010
0100
0002
1000
1003
0010
,
0100
0010
1000
0010
0100
0010
0100
0001
,
1001
0010
0100
0001
0100
0010
1000
0001
,
0100
0010
1000
0001
2000
0000
3002
0000
,
2003
0000
0010
0000
0010
0000
3010
1000
,
1000
0000
0010
0000
1000
0000
0001
0000
0010
0000
0100
0000
1000
0000
0010
0000
0100
0000
0001
0000
0000
0100
0000
0000
,
1001
0010
1000
0001
0100
0010
1000
0001
,
0110
0001
0010
1000
0002
0000
2003
0000
,
3001
1001
0000
0110
0000
1001
0000
0200
,
0000
0010
0310
0100
0010
0000
2000
0000
,
3002
0100
0103
0101
,
0100
0001
0100
0001
0100
0010
2000
0000
,
3002
0100
0103
1001
,
0001
0100
0001
0100
0001
0100
2000
0000
,
3020
0100
0130
0110
,
1000
0001
1000
0001
1000
0000
0020
0000
,
1030
0001
1000
0001
2000
0000
3002
0000
,
0203
0000
0000
0000
0320
0000
0000
0000
2030
0000
0000
0000
3001
0000
1000
0001
,
1000
0001
1000
0000
0001
0100
0001
0000
0010
0000
1000
0001
0000
0000
1000
0010
,
1000
0100
0100
0001
1000
0010
0100
0000
,
1000
0010
0100
0001
0100
0010
1000
0010
0100
0001
0100
0010
,
2000
0000
0000
0000
0000
0000
0000
0000
3002
0000
0000
0000
0000
0000
1003
0001
,
1000
0000
0010
0000
1000
0000
0001
0100
0001
0000
0010
0100
0000
0000
1000
0010
,
1000
0001
0001
1000
1000
0010
0100
0000
,
1000
0100
0000
0000
0100
0010
0000
0000
0010
0001
0000
0000
1001
0000
0000
0000
,
1000
0000
0000
0000
0100
0000
0000
0000
0010
0000
0000
0000
0002
0000
0000
0000
0000
0000
0000
0000
0000
0000
0000
0000
0000
0000
0000
0000
0000
0000
1003
0000
0000
0001
0000
0000
1000
0000
0000
0000
0000
0000
0100
0000
0000
0001
0000
0000
,
1000
0000
0010
0000
1000
0000
0010
0000
0100
0000
0001
0100
0000
0000
0010
0000
,
1001
0000
0001
0000
0100
0000
0010
0000
1000
0000
0010
1000
0000
0000
0000
0000
,
2010
0000
0000
0000
3100
0000
0010
0200
0000
0000
0320
0000
0000
0000
0000
0000
,
1030
0000
0010
0000
2000
0000
3001
0200
0000
0000
0302
0000
0000
0000
1000
0000
,
1003
0010
1000
0001
0100
0010
0100
0001
,
1001
0010
0100
0001
0100
0000
0010
0100
,
1000
1001
0000
0101
0000
1010
0000
0200
,
0000
0010
0310
0100
0010
0000
0002
0000
,
0203
0302
0103
0101
,
1000
0001
1000
0001
1000
0100
0002
0000
,
0203
0010
0310
0110
,
1000
0010
1000
0010
1000
0100
0002
0000
,
0203
0001
0301
0101
,
1000
0001
1000
0001
2000
0000
3020
0000
,
1030
0001
1000
0001
2000
0000
3002
0000
,
0103
0000
0000
0000
0101
0000
0000
0000
0010
0000
0000
0000
1000
0010
0000
0000
,
2001
0001
0001
0001
,
3002
0100
0100
0100
,
1003
0000
0010
0000
0100
0000
0001
0000
1000
0001
0000
0200
0000
0000
0310
0000
,
0010
0000
0100
0000
1000
0010
2000
0000
0000
0000
0001
0000
3001
0100
0000
0000
,
1001
0000
0001
1000
0000
0010
2000
0000
0000
0000
0010
0000
3010
0000
0100
0000
,
0001
0000
0100
0001
0000
0100
0002
0000
0000
0000
0100
0000
0103
0000
0010
0000
,
1010
0000
0010
0000
0100
0000
0001
0000
1000
0100
1000
0000
0001
0100
0001
0000
,
0001
0000
0100
0001
0000
0100
0001
0000
1000
0000
0010
0000
0100
0000
0002
0000
,
0003
0000
0000
0000
;
