#TITLE:Violet Perfume;
#SUBTITLE:;
#ARTIST:SHK;
#TITLETRANSLIT:;
#SUBTITLETRANSLIT:;
#ARTISTTRANSLIT:;
#GENRE:;
#CREDIT:Destrier75;
#MUSIC:Violet Perfume.ogg;
#BANNER:Violet Perfume.png;
#BACKGROUND:Violet Perfume-bg.png;
#CDTITLE:;
#SAMPLESTART:65.169;
#SAMPLELENGTH:15.000;
#SELECTABLE:YES;
#OFFSET:1.300;
#BPMS:0.000=139.989
,88.000=69.995
,96.000=139.989
,116.000=69.995
,132.000=139.989
;
#STOPS:;
#BGCHANGES:3.063=Violet Perfume.avi=1.000=1=0=0=StretchNoLoop==CrossFade==,
99999.000=-nosongbg-=1.000=0=0=0=StretchNoLoop====
;
#FGCHANGES:;

//--------------- dance-single - Destrier75 ----------------
#NOTES:
     dance-single:
     Destrier75:
     Beginner:
     2:
     0,0,0,0,0:
0000
0000
0000
0000
,
0000
0000
0000
0000
,
0000
0000
0000
0000
,
0000
0000
0000
0000
,
0000
0000
0000
0000
,
1001
0000
0000
0000
,
0100
0000
0100
0000
,
0100
0100
0100
0000
,
0010
0000
0010
0000
,
0010
0010
0010
0000
,
1000
0000
1000
0000
,
1000
1000
1000
0000
,
0001
0000
0001
0000
,
0001
0001
0001
0000
,
0100
0000
0100
0000
,
0100
0100
0100
0000
,
0010
0000
0010
0000
,
0010
0010
0010
0000
,
1000
0000
1000
0000
,
1000
1000
1000
0000
,
0001
0000
0001
0000
,
0001
0001
0001
0000
,
1000
0001
0100
0010
,
1000
0010
0100
0001
,
1000
1000
1000
0000
,
0001
0001
0001
0000
,
0100
0100
0100
0000
,
0010
0010
0010
0000
,
1001
0000
0000
0000
,
1000
0001
0100
0010
,
1000
0010
0100
0001
,
0100
0010
1000
0001
,
0100
0010
0001
1000
,
0100
0000
0100
0000
,
0100
0100
0100
0000
,
0010
0000
0010
0000
,
0010
0010
0010
0000
,
1000
0000
1000
0000
,
1000
1000
1000
0000
,
0001
0000
0001
0000
,
0001
0001
0001
0000
,
0100
0100
0100
0000
,
0010
0010
0010
0000
,
1000
1000
1000
0000
,
0001
0001
0001
0000
,
1000
1000
1000
0000
,
0010
0010
0010
0000
,
0100
0100
0100
0000
,
0001
0001
0001
0000
,
1000
0000
1000
0000
,
1000
1000
1000
0000
,
0001
0000
0001
0000
,
0001
0001
0001
0000
,
0100
0000
0100
0000
,
0100
0100
0100
0000
,
0010
0000
0010
0000
,
0010
0010
0010
0000
;

//--------------- dance-single - Destrier75 ----------------
#NOTES:
     dance-single:
     Destrier75:
     Easy:
     5:
     0,0,0,0,0:
0000
0000
0000
0000
,
0000
0000
0000
0000
,
0000
0000
0000
0000
,
0000
0000
0000
0000
,
0000
0000
0000
0000
,
2002
0000
0000
3003
,
1000
1000
1000
0000
,
0010
0010
0010
0000
,
0100
0100
0100
0000
,
0001
0001
0001
0000
,
1000
1000
1000
0000
,
0001
0001
0001
0000
,
0100
0100
0100
0000
,
0010
0010
0010
0000
,
1000
0010
1000
0010
,
0100
0001
0100
0001
,
1000
1000
0001
0001
,
0100
0100
0010
0010
,
0001
0100
0001
0100
,
1000
0010
1000
0010
,
0100
0100
0010
0010
,
1000
1000
0001
0001
,
2000
0000
3002
0000
,
0203
0000
0320
0000
,
1030
0010
1000
0010
,
0100
0001
0100
0001
,
1000
1000
0001
0001
,
0100
0100
0010
0010
,
2000
0000
0000
0000
,
3002
0000
2003
0000
,
3020
0000
0230
0000
,
0302
0000
2003
0000
,
3002
0000
0203
0000
,
0301
0001
1000
1000
,
0010
0010
0100
0100
,
1000
0010
1000
0010
,
0100
0001
0100
0001
,
0100
0100
0001
0001
,
1000
1000
0010
0010
,
0100
0001
0100
0001
,
1000
0010
1000
0010
,
1000
0010
1000
0010
,
0100
0100
0001
0001
,
1000
0010
1000
0010
,
0100
0100
0001
0001
,
0100
0010
0100
0010
,
0001
0001
1000
1000
,
0010
0100
0010
0100
,
0001
0001
1000
1000
,
0010
0100
0010
0100
,
0001
0001
1000
1000
,
0001
0100
0001
0100
,
1000
0010
1000
0010
,
1000
1000
0001
0001
,
0100
0010
0100
0001
,
1000
0010
0100
0001
,
1000
0001
1000
1001
;

//--------------- dance-single - Destrier75 ----------------
#NOTES:
     dance-single:
     Destrier75:
     Medium:
     9:
     0,0,0,0,0:
0000
0000
0000
0000
,
0000
0000
0000
0000
,
0000
0000
0000
0000
,
0000
0000
0000
0000
,
0000
0000
0000
0000
,
0220
0000
0000
0330
,
1000
0010
1000
0000
0010
0000
0100
0000
,
0001
0100
0001
0000
0100
0000
0010
0000
,
1000
0100
1000
0000
0001
0010
0001
0000
,
1000
0100
0010
0001
1000
0010
1000
0000
,
0100
0001
0100
0000
0010
0000
0100
0000
,
1000
0010
1000
0000
0010
0000
0100
0000
,
0001
0100
0001
0000
1000
0010
1000
0000
,
1000
0010
1000
0001
0100
0001
1000
0000
,
1000
0001
1000
0000
0010
0000
0100
0000
,
1000
0010
1000
0000
0001
0000
0100
0000
,
0001
0100
0001
0000
1000
0010
1000
0000
,
1000
0001
1000
0100
0010
0001
1000
0000
,
0001
0100
0001
0000
0100
0000
0010
0000
,
1000
0010
1000
0000
0010
0000
0100
0000
,
0001
0100
0001
0000
1000
0010
1000
0000
,
0100
0010
0001
1000
0001
1000
0001
0000
,
2000
0001
3002
0100
,
0203
0010
0320
1000
,
1030
0001
1000
0000
0010
0000
0100
0000
,
1000
0010
1000
0000
0001
0000
0100
0000
,
1000
0010
1000
0000
0001
0100
0001
0000
,
1000
0010
1000
0001
0100
0001
1000
0100
,
0002
0000
0000
0000
,
2003
0001
3002
1000
,
2003
0010
3020
1000
,
2030
0001
3002
0100
,
0203
0001
0302
1000
,
1003
0010
0100
0000
0100
0000
0001
0000
,
1000
0010
1000
0000
0010
0000
0100
0000
,
0001
0100
0001
0000
1000
0010
1000
0000
,
0001
0100
0001
1000
0010
1000
0010
0000
,
1000
0010
1000
0000
0010
0000
0100
0000
,
0001
0100
0001
0000
0100
0000
0010
0000
,
1000
0010
1000
0000
0001
0100
0001
0000
,
0100
0010
1000
0001
1000
0001
1000
0000
,
0100
0010
0100
0000
0001
0000
0001
0000
,
1000
0010
1000
0000
0100
0000
0100
0000
,
0001
0100
0001
0000
0100
0000
0100
0000
,
1000
0010
1000
0000
0010
0000
0010
0000
,
1000
0010
1000
0000
0010
0000
0100
0000
,
0001
0100
0001
0000
0100
0000
0010
0000
,
1000
0010
1000
0000
0001
0100
0001
0000
,
1000
0010
1000
0001
0100
0001
1000
0000
,
1000
0010
0100
0000
0010
0000
0100
0000
,
0001
0100
0001
0000
0100
0000
0010
0000
,
1000
0010
1000
0000
0001
0100
0001
0000
,
1000
0100
0010
0001
1000
0010
1000
0000
,
0001
0100
0001
0000
0100
0000
0010
0000
,
1000
0010
1000
0000
0010
0000
0100
0000
,
0001
0100
0001
0000
1000
0010
1000
0000
,
1000
0010
1000
0001
1000
0001
1001
0000
;

//--------------- dance-single - Destrier75 ----------------
#NOTES:
     dance-single:
     Destrier75:
     Hard:
     14:
     0.693,0.7,0.291,0.218,0.346:
0000
0000
0000
0000
,
0000
0000
0000
0000
,
0000
0000
0000
0000
,
0000
0000
0000
0000
,
0000
0000
0000
0000
,
2002
0000
0000
0000
0000
0000
0000
3003
,
1000
0000
0010
0000
0100
0000
0001
0100
0001
0000
1000
0010
1000
0000
0001
0000
,
0100
0000
0010
0000
1000
0000
0001
0000
0100
0000
0010
0000
1001
0000
1000
0010
,
1000
0000
0001
0000
0100
0000
0001
0100
0001
0000
1000
0000
0010
0000
0100
0010
,
0100
0000
0001
0000
1000
0000
0001
0100
0001
0000
1000
0000
0010
0000
0100
0000
,
1001
0000
0010
0000
0100
0000
0001
0100
0001
0000
1000
0010
1000
0000
0001
0000
,
0100
0000
0010
0000
1000
0000
0010
0000
1000
0000
0001
0000
1001
0000
1000
0010
,
1000
0000
0001
0000
0100
0000
0010
0100
0010
0000
1000
0000
0010
0000
1000
0010
,
1000
0001
0100
1000
1001
0110
1001
1000
,
0010
0000
0001
0000
0100
0000
0010
0100
0010
0000
1000
0001
1000
0000
0010
0000
,
0100
0000
0001
0000
1000
0000
0001
0000
0100
0000
0001
0000
1001
0000
1000
0010
,
1000
0000
0010
0000
0100
0000
0001
0100
0001
0000
1000
0000
0010
0000
0100
0001
,
0100
0000
0010
0000
1000
0000
0001
1000
0001
0000
0100
0000
0010
0000
1000
0000
,
1001
0000
0001
0000
0100
0000
0010
1000
0010
0000
0100
0000
0010
0000
1000
0000
,
0001
0000
0100
0000
0010
0000
1000
0000
0001
0000
0100
0000
0101
0000
0010
0100
,
0010
0000
1000
0000
0010
0000
0100
0001
0100
0000
0010
0000
1000
0000
0001
1000
,
0001
1000
0010
1000
1001
0110
1001
1000
,
2001
0001
3002
0100
0203
0010
0320
1000
,
2030
0001
3002
0100
0203
0010
0320
1000
,
1030
0000
0001
0000
0010
0000
1000
0010
1000
0000
0010
0000
0100
0000
0001
1000
,
0001
0000
0100
0000
0010
0000
1000
0010
1000
0000
0010
0000
0100
0000
0001
0100
,
0001
0100
0010
1000
0001
0100
0010
1000
,
1000
0010
1000
0010
0100
0001
0100
0001
1000
0100
0010
0001
1000
0100
0010
0001
,
2000
0000
0000
0000
,
3002
1000
2003
0010
3020
0100
0230
0001
,
0302
1000
2003
0010
3020
0100
0230
0001
,
0301
1000
1002
1000
1003
0010
2010
0001
,
3001
0000
0100
0000
0102
0000
1000
0000
1003
0000
0001
0000
1000
0001
1001
0000
,
0001
0000
0100
0000
0010
0000
1000
0010
1000
0000
0001
0100
0001
0000
1000
0000
,
0010
0000
0100
0000
0001
0000
0100
0000
0001
0000
1000
0000
1001
0000
1000
0010
,
1000
0000
0010
0000
0100
0000
0001
0100
0001
0000
0100
0000
0010
0000
1000
0001
,
1000
0000
0001
0000
0100
0000
0010
0100
0010
0000
1000
0000
0001
0000
1000
0000
,
1001
0000
0010
0000
1000
0000
0001
0100
0001
0000
0010
1000
0010
0000
0100
0000
,
0001
0000
1000
0000
0010
0000
0100
0000
0001
0000
1000
0000
1010
0000
0001
0100
,
0001
0000
0100
0000
0010
0000
1000
0010
1000
0000
0001
0000
0100
0000
0001
0100
,
0001
0000
1000
0000
0010
0000
0100
0000
1001
0000
0110
0000
1001
0000
1000
0001
,
1000
0010
0100
0001
1000
0010
0001
0010
,
0100
0000
0001
0000
1000
0000
0001
0000
1000
0000
0010
0000
0100
0000
0001
1000
,
0001
0000
1000
0000
0001
0000
0100
0010
0100
0000
1000
0000
0010
0000
0001
0100
,
0001
0000
1000
0000
0010
0000
0100
0000
1001
0000
0110
0000
1001
0000
1000
0001
,
1000
0000
0100
0000
0001
0000
0100
0001
0100
0000
0010
0000
1000
0000
0001
0100
,
0001
0000
0100
0000
0010
0000
1000
0010
1000
0000
0010
0000
0100
0000
0001
0100
,
0001
1000
0100
0010
0001
0100
0010
1000
,
1000
0010
0100
0001
1000
0100
0010
0001
1000
0010
1000
0010
0100
0001
0100
0001
,
1000
0000
0001
0000
0100
0000
0010
0100
0010
0000
1000
0001
1000
0000
0001
0000
,
0100
0000
0010
0000
1000
0000
0001
0000
0100
0000
0001
0000
1001
0000
1000
0001
,
1000
0000
0010
0000
0100
0000
0001
0100
0001
0000
1000
0000
0010
0000
1000
0001
,
1000
0000
0001
0000
0100
0000
0010
0100
0010
0000
1000
0000
0010
0000
0100
0000
,
1001
0000
0001
0000
1000
0000
0010
0100
0010
0000
1000
0000
0010
0000
0100
0000
,
0001
0000
0100
0000
0001
0000
1000
0001
1000
0000
0001
0000
1001
0000
1000
0010
,
1000
0000
0001
0000
0100
0000
0010
1000
0010
0000
0100
0000
0001
0000
0100
0000
,
1000
0010
1000
0000
0001
0100
0001
0000
1001
0000
0110
0000
2002
0000
0000
0000
,
3003
0000
0000
0000
;
