#TITLE:↑↑↓↓←→←→BA;
#SUBTITLE:;
#ARTIST:meiyo;
#TITLETRANSLIT:UUDDLRLRBA;
#SUBTITLETRANSLIT:;
#ARTISTTRANSLIT:;
#GENRE:;
#CREDIT:Destrier75;
#MUSIC:UUDDLRLRBA.ogg;
#BANNER:UUDDLRLRBA.png;
#BACKGROUND:UUDDLRLRBA-bg.png;
#CDTITLE:;
#SAMPLESTART:32.827;
#SAMPLELENGTH:15.000;
#SELECTABLE:YES;
#OFFSET:1.900;
#BPMS:0.000=124.000;
#STOPS:;
#BGCHANGES:3.917=UUDDLRLRBA.avi=1.000=1=0=0=StretchNoLoop==CrossFade==,
99999.000=-nosongbg-=1.000=0=0=0=StretchNoLoop====
;
#FGCHANGES:;

//--------------- dance-single - Destrier75 ----------------
#NOTES:
     dance-single:
     Destrier75:
     Beginner:
     2:
     0.18,0.205,0.008,0,0:
0000
0000
0000
0000
,
0000
0000
0000
0000
,
0000
0000
0000
0000
,
0000
0000
0000
0000
,
0000
0000
0000
0000
,
0000
0000
0000
0000
,
0010
0000
0010
0000
,
0100
0000
0100
0000
,
1000
0000
0001
0000
,
1001
0000
0000
0000
,
0100
0000
0100
0000
,
0010
0000
0010
0000
,
1000
0000
0001
0000
,
1000
0000
0001
0000
,
0010
0000
0010
0000
,
0100
0000
0100
0000
,
1000
0000
0001
0000
,
1000
0000
0001
0000
,
0010
0010
0010
0000
,
0100
0100
0100
0000
,
1000
0001
1000
0000
,
1000
0001
1000
0000
,
0010
0010
0010
0000
,
0100
0100
0100
0000
,
1000
0001
1000
0000
,
1000
0001
1000
0000
,
0010
0010
0010
0000
,
0100
0100
0100
0000
,
0010
0010
0010
0000
,
0100
0100
0100
0000
,
1000
1000
1000
0000
,
0001
0001
0001
0000
,
1000
1000
1000
0000
,
0001
0001
0001
0000
,
0010
0000
0010
0000
,
0100
0000
0100
0000
,
1000
0000
0001
0000
,
1000
0000
0001
0000
,
0010
0000
0010
0000
,
0100
0000
0100
0000
,
1000
0000
0001
0000
,
1000
0000
0001
0000
,
0010
0010
0010
0000
,
0100
0100
0100
0000
,
1000
0001
1000
0000
,
1000
0001
1000
0000
,
0010
0010
0010
0000
,
0100
0100
0100
0000
,
1000
0001
1000
0000
,
1000
0001
1000
0000
,
0010
0010
0010
0000
,
0100
0100
0100
0000
,
0010
0010
0010
0000
,
0100
0100
0100
0000
,
1000
1000
1000
0000
,
0001
0001
0001
0000
,
1000
1000
1000
0000
,
0001
0001
0001
0000
,
0010
0010
0010
0010
,
0100
0100
0100
0000
,
0010
0010
0010
0000
,
0100
0100
0100
0000
,
1000
1000
1000
0000
,
0001
0001
0001
0000
,
1000
1000
1000
0000
,
0001
0001
0001
0000
;

//--------------- dance-single - Destrier75 ----------------
#NOTES:
     dance-single:
     Destrier75:
     Easy:
     5:
     0.302,0.283,0.25,0,0:
0000
0000
0000
0000
,
0000
0000
0000
0000
,
0000
0000
0000
0000
,
0000
0000
0000
0000
,
0000
0000
0000
0000
,
0000
0000
0000
0000
,
0010
0010
0010
0010
,
0100
0100
0100
0100
,
1000
0001
1000
0001
,
1001
0000
0100
0001
,
0010
0010
0100
0100
,
1000
0001
1000
1001
,
0010
0010
0100
0100
,
1000
0001
1000
1001
,
0010
0010
0100
0100
,
1000
0001
1000
1001
,
0010
0010
0100
0100
,
1000
0001
1000
1001
,
0010
0010
0100
0100
,
1000
0001
1000
0001
,
0010
0010
0100
0100
,
1000
0001
1000
0001
,
0010
0010
0100
0100
,
1000
0001
1000
0001
,
0010
0010
0100
0100
,
1000
0001
1000
0001
,
0010
0010
0100
0100
,
0001
1001
1000
1001
,
0100
0100
0010
0010
,
1000
1001
0001
1001
,
0100
0100
0010
0010
,
0001
1001
1000
1010
,
0001
0001
1000
1000
,
0001
0101
0001
1001
,
0010
0010
0100
0100
,
1000
0001
1000
1001
,
0010
0010
0100
0100
,
1000
0001
1000
1001
,
0010
0010
0100
0100
,
1000
0001
1000
1001
,
0010
0010
0100
0100
,
1000
0001
1000
1001
,
0010
0010
0100
0100
,
1000
0001
1000
0001
,
0010
0010
0100
0100
,
1000
0001
1000
0001
,
0010
0010
0100
0100
,
1000
0001
1000
0001
,
0010
0010
0100
0100
,
1000
0001
1000
0001
,
0010
0010
0100
0100
,
1000
1001
0001
1001
,
1000
1000
0001
0001
,
1000
1010
0010
0011
,
0001
0001
0100
0100
,
1000
1010
0010
0011
,
0001
0001
0100
0100
,
1000
1010
0010
0011
,
0001
0001
0100
0100
,
1000
1010
0010
0011
,
0001
0001
1000
1000
,
0001
0101
0100
1100
,
1000
1000
0010
0010
,
0100
0101
0001
1001
,
1000
1000
0001
0001
,
1000
0001
1000
1001
;

//--------------- dance-single - Destrier ----------------
#NOTES:
     dance-single:
     Destrier:
     Medium:
     8:
     0.397,0.413,0.156,0.016,0:
0000
0000
0000
0000
,
0000
0000
0000
0000
,
0000
0000
0000
0000
,
0000
0000
0000
0000
,
0000
0000
0000
0000
,
0000
0000
0000
0000
,
0010
0010
0010
0010
,
0100
0100
0100
0100
,
1000
0001
1000
0000
1000
0001
1000
0000
,
1001
0000
0000
0100
0010
0000
0100
0000
,
0001
0000
1000
0000
0001
1000
0001
0000
,
0100
0000
0010
0000
1000
0010
1000
0000
,
0100
0000
0010
0000
1000
0001
1000
0000
,
0001
0100
0001
0100
0001
0000
0010
0000
,
0100
0000
0001
0000
1000
0001
1000
0000
,
0010
0000
0100
0000
0001
1000
0001
0000
,
0010
0000
0100
0000
1000
0010
1000
0000
,
0001
0100
0001
0100
0001
0000
0010
0000
,
1000
0001
1000
0000
0100
0000
0010
0000
,
0001
0100
0001
0100
0001
0000
0010
0000
,
1000
0010
1000
0000
0100
0000
0010
0000
,
0100
0001
0100
0001
0100
0000
0010
0000
,
1000
0010
1000
0000
0100
0000
0010
0000
,
0100
0001
0100
0001
0100
0000
0010
0000
,
1000
0000
0001
0000
1000
0001
1000
0000
,
0100
0001
0100
0001
0100
0000
0010
0000
,
0010
0010
0100
0100
1000
0001
1000
0000
,
1000
0001
1000
0000
1001
0000
0110
0000
,
0010
0010
0100
0100
1000
0001
1000
0000
,
1000
0001
1000
0000
1001
0000
0010
0000
,
0010
0010
0100
0100
1000
0001
1000
0000
,
1000
0001
1000
0000
1001
0000
0110
0000
,
0010
0010
0100
0100
1000
0001
1000
0000
,
1000
0001
1000
0000
1001
0000
0010
0000
,
1000
0000
0010
0000
1000
0001
1000
0000
,
0100
0000
0010
0000
0001
0100
0001
0000
,
0100
0000
0010
0000
1000
0010
1000
0000
,
0001
0100
0001
0100
0001
0000
0010
0000
,
0100
0000
1000
0000
0001
0100
0001
0000
,
0010
0000
0100
0000
1000
0010
1000
0000
,
0100
0000
0010
0000
0001
0100
0001
0000
,
1000
0010
1000
0010
1000
0000
0010
0000
,
1000
0010
1000
0000
0100
0000
0010
0000
,
0100
0001
0100
0001
0100
0000
0010
0000
,
0100
0000
1000
0000
0001
0100
0001
0000
,
1000
0010
1000
0010
1000
0000
0100
0000
,
0001
1000
0001
0000
0100
0000
0010
0000
,
1000
0010
1000
0010
1000
0000
0100
0000
,
0010
0000
0100
0000
1000
0001
1000
0000
,
0010
0100
0010
0100
0010
0000
0100
0000
,
0010
0010
0100
0100
1000
0001
1000
0000
,
1000
0001
1000
0000
1001
0000
0110
0000
,
0010
0010
0100
0100
1000
0001
1000
0000
,
1000
0001
1000
0000
1001
0000
0010
0000
,
0010
0010
0100
0100
1000
0001
1000
0000
,
1000
0001
1000
0000
1001
0000
0110
0000
,
0010
0010
0100
0100
1000
0001
1000
0000
,
1000
0001
1000
0000
0110
0000
0010
0000
,
0010
0010
0100
0100
1000
0001
1000
0000
,
1000
0001
1000
0000
1001
0000
0110
0000
,
0010
0010
0100
0100
1000
0001
1000
0000
,
1000
0001
1000
0000
0110
0000
0010
0000
,
0010
0010
0100
0100
1000
0001
1000
0000
,
1000
0001
1000
0000
1001
0000
0110
0000
,
0010
0010
0100
0100
1000
0001
1000
0000
,
1000
0001
1000
0000
1001
0000
0220
0000
,
0330
0000
0000
0000
;

//--------------- dance-single - Destrier75 ----------------
#NOTES:
     dance-single:
     Destrier75:
     Hard:
     13:
     0.471,0.464,0.164,0.18,0.172:
0000
0000
0000
0000
,
0000
0000
0000
0000
,
0000
0000
0000
0000
,
0000
0000
0000
0000
,
0000
0000
0000
0000
,
0000
0000
0000
0000
,
0010
0010
0010
0010
,
0100
0100
0100
0100
,
1000
0001
0000
1000
0001
0000
0000
0000
1000
0001
0000
1000
0001
0000
0000
0000
,
1001
0000
0110
0000
0000
0000
1000
0000
0010
0000
0000
0000
1000
0010
1000
0000
,
0000
0002
2003
0001
,
0000
3010
0100
0010
0200
0000
0301
0010
,
0200
0000
0010
0000
1300
0010
1000
0001
,
0100
0001
0010
0100
2000
0000
0001
0000
,
0000
0000
0000
0000
0000
0000
0000
0000
0000
0000
0000
0000
0000
0000
0000
0000
0000
0000
0000
0000
0000
0000
0000
0000
0000
0000
0000
0000
0000
0000
0000
0000
0000
0000
0000
0000
0000
0000
0000
0000
0000
0000
0000
0000
0000
0000
0000
3000
0002
0000
0000
0000
0000
0000
0000
0000
0000
0000
0000
0000
0000
0000
0000
0000
0000
0000
0000
0000
0000
0000
0000
0000
0000
0000
0000
0000
0000
0000
0000
0000
0000
0000
0000
0000
0000
0000
0000
0000
0000
0000
0000
0000
0000
0000
0000
0000
0203
0000
0000
0000
0000
0000
0000
0000
0000
0000
0000
0000
0000
0000
0000
0000
0000
0000
0000
0000
0000
0000
0000
0000
0000
0000
0000
0000
0000
0000
0000
0000
0000
0000
0000
0000
0000
0000
0000
0000
0000
0000
0000
0000
0000
0000
0000
0000
0010
0000
0000
0000
0000
0000
0000
0000
0000
0000
0000
0000
0000
0000
0000
0000
0000
0000
0000
0000
0000
0000
0000
0000
0000
0000
0000
0000
0000
0000
0000
0000
0000
0000
0000
0000
0000
0000
0000
0000
0000
0000
0000
0000
0000
0000
0000
0000
,
0000
0310
1000
0001
0200
0000
0301
1000
,
0002
0000
0100
0000
1003
0010
0100
0001
,
1000
0010
0100
0001
2000
0000
3001
0000
,
1000
0010
1000
0001
0100
0000
0001
0100
,
0001
0001
1000
1000
0010
0000
1000
0010
,
1000
0000
0010
1000
0010
0000
0000
0000
1000
0000
0010
0000
1000
0000
0000
0000
,
0001
0000
0001
0000
0100
0000
0100
0000
0001
0000
0100
0001
0100
0000
0000
0000
,
0001
0100
0001
1000
0010
0000
1000
0010
,
0100
0100
0001
0001
1000
0000
0001
0100
,
0001
0000
0100
0010
0100
0000
0000
0000
1000
0000
0010
0000
1000
0000
0100
0000
,
0001
0000
0000
0001
0000
0000
1000
0000
0000
1000
0000
0000
0010
0000
0100
0000
0010
0000
0100
0000
0000
0000
0000
0000
,
0010
0000
0010
0000
0100
0000
0100
0000
1000
0000
1000
0001
0000
0000
0000
0000
,
1000
0000
1000
0001
0000
0000
0000
0000
1001
0000
0000
0000
0110
0000
0000
0000
,
0010
0000
0010
0000
0100
0000
0100
0000
1000
0000
1000
0001
0000
0000
0000
0000
,
1000
0001
1000
0001
1000
0000
0000
0000
1001
0000
0000
0000
0000
0000
0000
0000
,
0010
0000
0010
0000
0100
0000
0100
0000
1000
0000
1000
0001
0000
0000
0000
0000
,
1000
0000
1000
0001
0000
0000
0000
0000
1001
0000
0000
0000
0110
0000
0000
0000
,
0010
0000
0010
0000
0100
0000
0100
0000
1000
0000
1000
0001
0000
0000
0000
0000
,
1000
0001
1000
0001
1000
0000
0000
0000
1001
0000
0000
0000
2000
0000
0000
0000
,
0000
3002
0203
0010
,
0000
0301
0100
0001
0200
0000
0301
0010
,
0200
0000
0010
0000
0301
0100
0010
1000
,
0001
0010
0100
0001
0200
0000
0010
0000
,
0000
0302
2003
0010
,
0000
3001
0100
0001
0200
0000
0301
0010
,
0200
0000
0001
0000
0301
0010
0100
1000
,
0001
0100
0001
1000
0020
0000
1030
0000
,
1000
0010
1000
0001
0100
0000
1000
0100
,
0010
0100
0010
0001
1000
0000
0001
0010
,
0100
0000
0001
0100
0001
0000
0000
0000
1000
0000
0010
0000
1000
0000
0000
0000
,
0001
0000
0001
0000
0100
0000
0100
0000
0010
0000
1000
0001
1000
0000
0000
0000
,
1000
0010
1000
0010
0100
0000
0001
0100
,
0001
0001
0100
0100
0010
0000
1000
0010
,
1000
0000
0001
0100
0001
0000
0000
0000
1000
0000
0001
0000
1000
0000
0000
0000
,
0001
0000
0001
0000
0100
0000
0100
0000
0001
0000
1000
0001
1000
0000
0000
0000
,
0010
0000
0010
0000
0100
0000
0100
0000
1000
0000
1000
0001
0000
0000
0000
0000
,
1000
0000
1000
0001
0000
0000
0000
0000
1001
0000
0000
0000
0110
0000
0000
0000
,
0010
0000
0010
0000
0100
0000
0100
0000
1000
0000
1000
0001
0000
0000
0000
0000
,
1000
0001
1000
0001
1000
0000
0000
0000
0110
0000
0000
0000
0100
0000
0000
0000
,
0010
0000
0010
0000
0100
0000
0100
0000
1000
0000
1000
0001
0000
0000
0000
0000
,
1000
0000
1000
0001
0000
0000
0000
0000
1001
0000
0000
0000
0110
0000
0000
0000
,
0010
0000
0010
0000
0100
0000
0100
0000
1000
0000
1000
0001
0000
0000
0000
0000
,
1000
0001
1000
0001
1000
0000
0000
0000
0110
0000
0000
0000
0000
0000
0000
0000
,
0010
0000
0010
0000
0100
0000
0100
0000
1000
0000
1000
0001
0000
0000
0000
0000
,
1000
0000
1000
0001
0000
0000
0000
0000
1001
0000
0000
0000
0110
0000
0000
0000
,
0010
0000
0010
0000
0100
0000
0100
0000
1000
0000
1000
0001
0000
0000
0000
0000
,
1000
0001
1000
0001
1000
0000
0000
0000
0110
0000
0000
0000
0100
0000
0000
0000
,
0010
0000
0010
0000
0100
0000
0100
0000
1000
0000
1000
0001
0000
0000
0000
0000
,
1000
0000
1000
0001
0000
0000
0000
0000
1001
0000
0000
0000
0110
0000
0000
0000
,
0010
0000
0010
0000
0100
0000
0100
0000
1000
0000
1000
0001
0000
0000
0000
0000
,
1000
0001
1000
0001
1000
0000
0000
0000
0110
0000
0000
0000
2002
0000
0000
0000
,
3003
0000
0000
0000
;
