#TITLE:Stefania;
#SUBTITLE:;
#ARTIST:Kalush Orchestra;
#TITLETRANSLIT:;
#SUBTITLETRANSLIT:;
#ARTISTTRANSLIT:;
#CREDIT:;
#BANNER:Stefania.png;
#BACKGROUND:Stefania-bg.png;
#LYRICSPATH:;
#CDTITLE:;
#MUSIC:Stefania.ogg;
#OFFSET:2.130;
#SAMPLESTART:42.373;
#SAMPLELENGTH:15.000;
#SELECTABLE:YES;
#BPMS:0.000=105.000;
#STOPS:;
#BGCHANGES:3.750=Stefania.avi=1.000=1=1=0,
99999=-nosongbg-=1.000=0=0=0 // don't automatically add -songbackground-
;

//---------------dance-single - ----------------
#NOTES:
     dance-single:
     :
     Beginner:
     2:
     0.149,0.215,0.080,0.040,0.000:
0000
0000
0000
0000
,
0000
0000
0000
0000
,
0000
0000
0000
0000
,
0000
0000
0000
0000
,
0000
0000
0000
0000
,
2000
0000
0000
0000
,
0000
0000
0000
0000
,
3002
0000
0000
0000
,
0000
0000
0000
0003
,
0100
0000
0100
0000
,
0010
0000
0010
0000
,
1000
0000
1000
0000
,
0001
0000
0001
0000
,
0100
0000
0100
0000
,
0010
0000
0010
0000
,
1000
0000
1000
0000
,
0001
0000
0001
0000
,
2000
0000
0000
3000
,
0002
0000
0000
0003
,
0000
0000
0100
0100
,
0100
0000
0010
0010
,
0010
0000
1000
1000
,
1000
0000
0001
0001
,
0001
0000
0100
0100
,
0100
0000
0010
0010
,
0010
0000
1000
1000
,
1000
0000
0001
0001
,
0001
0000
0100
0100
,
0100
0000
1000
1000
,
1000
0000
0001
0001
,
0001
0000
0100
0100
,
0100
0000
0010
0010
,
0010
0000
1000
1000
,
1000
0000
0001
0001
,
0001
0000
0100
0100
,
0100
0000
1000
1000
,
1001
0000
0001
0001
,
1001
0000
0100
0100
,
0110
0000
0010
0010
,
0110
0000
1000
1000
,
1001
0000
0001
0001
,
1001
0000
0100
0100
,
0110
0000
1000
1000
,
1001
0000
0000
0000
;

//---------------dance-single - ----------------
#NOTES:
     dance-single:
     :
     Easy:
     4:
     0.237,0.235,0.080,0.160,0.000:
0000
0000
0000
0000
,
0000
0000
0000
0000
,
0000
0000
0000
0000
,
0000
0000
0000
0000
,
0000
0000
0000
0000
,
2000
0000
0000
0000
,
3002
0000
0000
0000
,
2003
0000
0000
0000
,
3002
0000
0000
0003
,
0100
0000
0010
0000
0100
0010
0100
0000
,
1000
0000
0001
0000
1000
0001
1000
0000
,
0100
0000
0010
0000
0100
0010
0100
0000
,
1000
0000
0010
0000
1000
0010
1000
0000
,
0001
0000
0100
0000
0001
0100
0001
0000
,
0100
0000
0010
0000
0100
0010
0100
0000
,
1000
0000
0010
0000
1000
0010
1000
0000
,
0001
0000
0100
0000
0001
0100
0001
0000
,
0200
0000
0320
0000
,
0230
0000
0320
0000
,
0030
0000
1000
1000
,
0001
0001
2000
0000
,
3002
0003
0100
0100
,
0010
0010
0200
0000
,
0320
0030
1000
0010
,
1000
0010
2000
0000
,
3020
0030
0100
0001
,
0100
0001
0200
0000
,
0302
0003
1000
1000
,
0001
0001
0001
0000
0100
0000
0100
0000
,
0010
0010
0010
0000
1000
0000
1000
0000
,
0001
0001
0001
0000
0100
0000
0100
0000
,
0010
0010
0010
0000
1000
0000
1000
0000
,
0001
0001
0001
0000
0100
0000
0100
0000
,
0010
0010
0010
0000
0100
0000
0100
0000
,
0010
0010
0010
0000
1000
0000
1000
0000
,
0001
0001
0001
0000
0100
0000
1000
0000
,
0001
1001
0100
0001
,
1000
1001
0100
0010
,
1000
1001
0100
0010
,
1000
1001
0100
0001
,
1000
1010
0100
0010
,
0100
0101
1000
0100
,
0010
1001
0100
1001
;

//---------------dance-single - ----------------
#NOTES:
     dance-single:
     :
     Medium:
     8:
     0.334,0.321,0.160,0.260,0.000:
0000
0000
0000
0000
,
0000
0000
0000
0000
,
0000
0000
0000
0000
,
0000
0000
0000
0000
,
0000
0000
0000
0000
,
2000
0000
3002
0000
,
2003
3002
2003
3001
,
0200
0000
0320
0000
,
0230
0320
0230
0310
,
1000
0010
0100
0001
1000
0000
1010
0000
,
1000
0010
1000
0001
0100
0000
1001
0000
,
1000
0100
0010
0001
1000
0000
1001
0000
,
1000
0010
0100
0001
1000
0000
1001
0000
,
1000
0010
0100
0001
0100
0000
1001
0000
,
1000
0010
0100
0001
0100
0000
1001
0000
,
1000
0010
0100
0001
0100
0000
1001
0000
,
1000
0010
1000
0001
0100
0000
1001
0000
,
2000
0000
3002
0000
,
2003
0000
3002
0000
,
0003
0000
0000
0000
1000
0010
0100
0000
,
0010
0100
0002
2003
,
3002
0000
1003
0000
1000
0010
0100
0000
,
0010
1000
0002
0203
,
0302
0000
0103
0000
1000
0010
0100
0000
,
0010
0100
2000
3002
,
2003
0000
3001
0000
0100
0001
0100
0000
,
0010
0100
2000
3002
,
2003
0000
3001
0000
1000
0010
1000
0010
,
1000
0000
0010
0000
0100
0010
0100
0010
,
0100
0000
0001
0000
1000
0001
1000
0001
,
1000
0000
0010
0000
1000
0100
0010
0001
,
1000
0000
0010
0000
1000
0010
1000
0010
,
1000
0000
0010
0000
0100
0001
0100
0001
,
0100
0000
0010
0000
1000
0010
1000
0010
,
1000
0000
0010
0000
1000
0100
0010
0001
,
1000
0000
0010
0000
1000
0010
1000
0010
,
1000
0000
1010
0000
0001
0100
0001
0100
,
0001
0000
0101
0000
0100
0010
0100
0010
,
0100
0000
0110
0000
1000
0001
1000
0001
,
1000
0000
1001
0000
1000
0100
0010
0001
,
1000
0000
1001
0000
0001
0100
0001
0100
,
0001
0000
0101
0000
1000
0010
0100
0001
,
1000
1001
0010
1001
;

//---------------dance-single - ----------------
#NOTES:
     dance-single:
     :
     Hard:
     11:
     0.437,0.449,0.150,0.260,0.130:
0000
0000
0000
0000
,
0000
0000
0000
0000
,
0000
0000
0000
0000
,
0000
0000
0000
0000
,
0000
0000
0000
0000
,
2001
0000
3002
0000
,
2003
3002
2003
3001
,
0210
0000
0320
0000
,
0230
0320
0230
0310
,
1000
0100
0010
0001
1000
0001
1001
0000
,
1000
0010
0010
0100
0001
1000
1010
0000
,
1000
0010
0100
0001
1000
0001
1001
0000
,
1000
0010
0100
0001
1000
0001
1001
0000
,
1000
0010
0100
0001
0100
0001
1001
0000
,
1000
0010
0100
0001
0100
0001
1001
0000
,
1000
0010
0100
0001
1000
0001
1001
0000
,
1000
0100
0010
0001
0100
0010
1001
0000
,
2000
0000
3002
0000
,
2003
0000
3002
0000
,
0003
0000
0000
0000
1000
0100
0010
0001
,
1000
0001
1000
0001
2000
0000
3002
0000
,
2003
0000
3001
0000
1000
0010
0100
0001
,
1000
0001
0100
0001
0200
0000
0320
0000
,
0230
0000
0310
0000
1000
0010
1000
0001
,
0100
0001
1000
0001
0200
0000
0302
0000
,
2003
0000
3001
0000
1000
0010
0100
0001
,
1000
0001
0100
0010
0002
0000
2003
0000
,
3002
0000
0103
0000
1001
0010
0100
0001
,
1000
0001
1000
0001
1000
0000
0010
0000
1000
0000
0010
0000
0100
0000
0001
0000
,
1000
0010
1000
0010
1000
0000
0010
0000
0100
0000
0001
0000
1000
0000
0001
0000
,
0100
0001
0100
0001
0100
0000
0010
0000
1000
0000
0010
0000
0100
0000
0001
0000
,
1000
0001
1000
0001
1001
0010
1000
0001
,
0100
0010
0100
0010
0100
0000
0001
0000
1000
0000
0001
0000
0100
0000
0010
0000
,
0100
0001
0100
0001
0100
0000
0010
0000
1000
0000
0001
0000
0100
0000
0001
0000
,
1000
0001
1000
0001
1000
0000
0010
0000
1000
0000
0001
0000
1000
0000
0001
0000
,
1000
0010
0100
0001
1001
0010
0100
0001
,
1000
0001
1000
0001
1000
0000
0010
0000
0100
0000
1000
0000
0001
0000
0100
0000
,
0001
0100
0001
0100
0001
0000
1000
0000
0010
0000
1000
0000
0010
0000
0100
0000
,
1000
0010
1000
0010
1000
0000
0010
0000
1000
0000
0000
0001
0000
0000
1000
0000
,
0000
0001
0000
0000
1000
0000
0001
0000
1001
0000
0100
0000
0010
0000
0100
0000
,
1000
0001
1000
0001
1000
0000
0010
0000
0100
0000
0001
0000
1000
0000
0001
0000
,
1000
0010
1000
0010
1000
0000
0010
0000
0100
0000
0010
0000
1000
0000
0001
0000
,
0100
0001
0100
0001
0100
0000
0010
0000
1000
0000
0001
0000
1001
0000
0000
0000
;

//---------------dance-single - ----------------
#NOTES:
     dance-single:
     :
     Challenge:
     13:
     0.560,0.620,0.290,0.260,0.430: // measure 1
0000
0000
0000
0000
,  // measure 2
0000
0000
0000
0000
,  // measure 3
0000
0000
0000
0000
,  // measure 4
0000
0000
0000
0000
,  // measure 5
0000
0000
0000
0000
,  // measure 6
2001
0001
3002
1000
,  // measure 7
2003
3020
0230
0301
,  // measure 8
0210
0010
0320
0100
,  // measure 9
0230
0302
2003
3001
,  // measure 10
1000
0010
1000
0001
0100
0001
1000
0100
0010
0001
1000
0001
0100
0000
0001
0000
,  // measure 11
1000
0010
1000
0001
0100
0001
1000
0100
0010
0001
1000
0100
0010
0000
0100
0000
,  // measure 12
1000
0100
1000
0100
0001
0010
0001
0010
1000
0100
0010
0001
1000
0000
0001
0000
,  // measure 13
1000
0010
0001
0010
1000
0100
0010
0001
1000
0010
1000
0010
1000
0000
0001
0000
,  // measure 14
1000
0000
0010
0100
0010
0000
0100
0000
0001
0000
1000
0001
1000
0000
0010
0000
,  // measure 15
1000
0000
0001
0100
0001
0000
0100
0000
0010
0000
1000
0010
1000
0000
0010
0000
,  // measure 16
1000
0010
0001
0010
1000
0100
0010
0001
1000
0010
1000
0010
1000
0000
0010
0000
,  // measure 17
1000
0001
1000
0001
0100
0010
0100
0010
0100
0010
0001
1000
0001
0000
0010
0000
,  // measure 18
2000
0000
0000
0000
0000
0000
0000
0000
0002
3000
0000
0000
0000
0000
0000
0000
,  // measure 19
0203
0000
0320
0000
,  // measure 20
0030
0000
0000
0000
0000
0000
0000
0000
1001
0000
0010
1000
0010
0000
0100
0000
,  // measure 21
0001
0000
1000
0001
1000
0000
0010
0000
2001
0000
0000
0000
3020
0000
0000
0000
,  // measure 22
0230
0000
0000
0000
0301
0000
0000
0000
1010
0000
0001
0100
0001
0000
0100
0000
,  // measure 23
0010
0000
1000
0001
1000
0000
0010
0000
2010
0000
0000
0000
3002
0000
0000
0000
,  // measure 24
0203
0000
0000
0000
0310
0000
0000
0000
1010
0000
1000
0001
1000
0000
0010
0000
,  // measure 25
0100
0000
0001
0100
0001
0000
0100
0000
0102
0000
0000
0000
2003
0000
0000
0000
,  // measure 26
3020
0000
0000
0000
0130
0000
0000
0000
1010
0000
0100
0010
0100
0000
0001
0000
,  // measure 27
1000
0000
0001
0100
0001
0000
0100
0000
2010
0000
0000
0000
3002
0000
0000
0000
,  // measure 28
0203
0000
0000
0000
0310
0000
0000
0000
1001
0000
0100
0000
0010
0000
0001
1000
,  // measure 29
0100
0010
0001
1000
0001
0000
1000
0000
1001
0000
0001
0000
1000
0000
1000
0010
,  // measure 30
1000
0001
0100
0001
1000
0000
0001
0000
0110
0000
0010
0000
1000
0000
1000
0100
,  // measure 31
0010
0001
1000
0010
1000
0000
0001
0000
1001
0000
0001
0000
0100
0000
1000
0010
,  // measure 32
0100
0001
1000
0001
1000
0000
0001
0000
1001
0000
0100
0000
0010
0000
0001
1000
,  // measure 33
0100
0010
0001
1000
0010
0000
0001
0000
1001
0000
0010
0000
1000
0000
0001
1000
,  // measure 34
0010
0100
0001
1000
0001
0000
1000
0000
1001
0000
0010
0000
1000
0000
1000
0010
,  // measure 35
1000
0001
0100
0001
1000
0000
0001
0000
1001
0000
1000
0000
0010
0000
1000
0010
,  // measure 36
1000
0001
0100
0001
1000
0000
0001
0000
1001
0000
1000
0010
1000
0000
0001
0000
,  // measure 37
0100
0000
1000
0001
1000
0000
0010
0000
1001
0000
1000
0010
1000
0000
0010
0000
,  // measure 38
0100
0000
0001
0100
0001
0000
0100
0000
1001
0000
1000
0001
1000
0000
0010
0000
,  // measure 39
0100
0000
0001
0100
0001
0000
0100
0000
1001
0000
0000
0110
0000
0000
1010
0000
,  // measure 40
0000
0101
0000
0000
1000
0000
0001
0000
1001
0000
1000
0010
1000
0000
0010
0000
,  // measure 41
0100
0000
0001
0100
0001
0000
0100
0000
1001
0000
1000
0010
1000
0000
0010
0000
,  // measure 42
0100
0000
0001
0100
0001
0000
1000
0000
1001
0000
0100
0010
0100
0000
0001
0000
,  // measure 43
1000
0000
0001
0100
0001
0000
1000
0000
0010
0000
1000
0000
1001
0000
0000
0000
;
