#TITLE:Samakhom Kom Na;
#SUBTITLE:;
#ARTIST:Aof Dokfha R-Siam;
#TITLETRANSLIT:;
#SUBTITLETRANSLIT:;
#ARTISTTRANSLIT:;
#GENRE:;
#CREDIT:Destrier75;
#MUSIC:Samakhom Kom Na.ogg;
#BANNER:Samakhom Kom Na.png;
#BACKGROUND:Samakhom Kom Na-bg.png;
#CDTITLE:;
#SAMPLESTART:45.675;
#SAMPLELENGTH:15.000;
#SELECTABLE:YES;
#OFFSET:0.090;
#BPMS:0.000=110.000;
#STOPS:;
#BGCHANGES:0.167=Samakhom Kom Na.avi=1.000=1=0=0=StretchNoLoop==CrossFade==,
99999.000=-nosongbg-=1.000=0=0=0=StretchNoLoop====
;
#FGCHANGES:;

//--------------- dance-single - Destrier75 ----------------
#NOTES:
     dance-single:
     Destrier75:
     Beginner:
     2:
     0,0,0,0,0:
0000
0000
0000
0000
,
0000
0000
0000
0000
,
0000
0000
0000
0000
,
0000
0000
0000
0000
,
0000
0000
1000
0000
,
1000
0000
1001
0000
,
0000
0000
1000
1000
,
1000
0000
0001
0001
,
0001
0000
0100
0100
,
0100
0000
0010
0010
,
0010
0000
0100
0000
,
0100
0000
0100
0100
,
0100
0000
1000
1000
,
1000
0000
0001
0001
,
0001
0000
1000
0000
,
1000
0000
1000
1000
,
1000
0000
0001
0000
,
0001
0000
0001
0001
,
0001
0000
1000
1000
,
1000
0000
0001
0001
,
0001
0000
0000
0000
,
0100
0100
0100
0000
,
0010
0010
0010
0000
,
1000
1000
1000
0000
,
0001
0001
0001
0000
,
1000
0000
1000
0000
,
1000
1000
1000
0000
,
0001
0001
0001
0000
,
1000
1000
1000
0000
,
0010
0000
0010
0000
,
0010
0010
0010
0000
,
0100
0000
0100
0000
,
0100
0100
0100
0000
,
1000
1000
1000
0000
,
0001
0001
0001
0000
,
0000
0000
1000
1000
,
1000
0000
0001
0001
,
0001
0000
0100
0100
,
0100
0000
0010
0010
,
0010
0000
1000
1000
,
1000
0000
0001
0001
,
0001
0000
0100
0100
,
0100
0000
0010
0010
,
0010
0000
0100
0000
,
0100
0000
0100
0100
,
0100
0000
1000
0000
,
1000
0000
1000
1000
,
1000
0000
0001
0000
,
0001
0000
2002
0000
,
0000
0000
3003
0000
,
1001
0000
0000
1001
0000
0000
0000
0000
;

//--------------- dance-single - Destrier75 ----------------
#NOTES:
     dance-single:
     Destrier75:
     Easy:
     5:
     0,0,0,0,0:
0000
0000
0000
0000
,
0000
0000
0000
0000
,
0000
0000
0000
0000
,
0000
0000
0000
0000
,
0000
0000
0100
0010
,
0100
0010
0110
0000
,
0000
0000
1000
0001
,
1000
0001
0000
1001
0001
0000
0100
0000
,
0001
0100
0000
0101
1000
0000
0010
0000
,
1000
0001
0100
0010
,
1000
0001
2000
0000
,
3002
0000
0203
0000
,
0320
0000
1030
1000
,
0001
0001
0100
0100
,
0010
0010
1000
0100
,
0010
0001
1000
0010
,
0100
0001
1000
1000
,
0010
0010
0100
0100
,
0001
0001
1000
0010
,
0100
0001
1000
0001
,
1000
0001
2000
0000
,
3001
0000
0100
0000
0001
0100
0000
0101
,
1000
0000
0010
0000
1000
0010
0000
1010
,
1000
0001
1000
0010
,
0100
0001
1000
0001
,
2000
0000
3002
0000
,
0203
0000
0320
0000
,
1030
0001
0100
0010
,
1000
1000
0001
0001
,
0100
0010
0100
0001
,
1000
0001
0100
0010
,
1000
0010
1000
0010
,
0100
0001
1000
0001
,
0100
0010
1000
0001
,
0100
0010
1000
0001
,
0002
0000
1003
0010
,
0100
0001
0000
1001
1000
0000
0010
0000
,
1000
0010
0000
1010
0010
0000
0100
0000
,
0010
1000
0001
0100
,
0010
1000
0001
0100
,
0001
0000
1000
0010
,
0100
0000
0001
0100
,
0010
1000
0001
0100
,
0010
1000
0002
0000
,
2003
0000
3020
0000
,
0230
0000
0301
1000
,
0001
0100
0010
1000
,
0001
1000
0010
0100
,
1000
0001
2002
0000
,
0000
0000
0000
0000
3003
1000
0000
0000
,
0001
0000
0000
1001
0000
0000
0000
0000
;

//--------------- dance-single - Destrier75 ----------------
#NOTES:
     dance-single:
     Destrier75:
     Medium:
     8:
     0,0,0,0,0:
0000
0000
0000
0000
,
0000
0000
0000
0000
,
0000
0000
0000
0000
,
0000
0000
0000
0000
,
0000
0000
1000
0010
,
0100
0001
2002
0000
,
0000
0000
3003
0000
1000
0001
1000
0001
,
1000
0001
0000
1001
1000
0010
1000
0010
,
1000
0001
0000
0101
1000
0010
1000
0010
,
1000
0000
0001
1000
0001
0000
1000
0010
,
1000
0000
0001
0000
0100
0010
0100
0000
,
1000
0010
1000
0000
0002
0000
2003
0000
,
3020
0000
0230
0000
0301
1000
0001
0000
,
0100
0010
0100
0000
1000
0001
1000
0001
,
1000
0010
1000
0010
,
0100
0000
0001
0000
1000
0001
1000
0001
,
1000
0010
1000
0010
,
0100
0000
0001
0000
1000
0010
1000
0010
,
1000
0000
0010
0000
0001
0100
0001
0000
,
1000
0010
1000
0000
0001
1000
0001
0000
,
1000
0010
1000
0000
2002
0000
0000
3003
,
1000
0010
1000
0010
1000
0010
0000
1010
,
0001
0100
0001
0100
0001
0010
0000
1010
,
1000
0001
1000
0001
1000
0000
0010
0100
,
0010
0000
1000
0001
1000
0000
0001
0000
,
0100
0001
0100
0000
1000
0010
1000
0000
,
0002
2003
3002
1003
,
0001
1000
0001
0000
0100
0010
0100
0000
,
1000
0001
1000
0001
1000
0000
0010
0000
,
1000
0010
1000
0010
1000
0000
0010
0000
,
0100
0001
0100
0001
0100
0000
0010
0000
,
1000
0001
1000
0001
1000
0000
0010
0000
,
0100
0010
0100
0010
0100
0000
0001
0000
,
1000
0010
1000
0000
0001
0100
0001
0000
,
1000
0001
1000
0000
0001
1000
0001
0000
,
2002
0000
0000
3003
1000
0010
1000
0010
,
1000
0010
0000
1010
0001
0100
0001
0100
,
0001
0100
0000
0101
1000
0001
1000
0001
,
1000
0000
0010
0100
0010
0000
1000
0001
,
1000
0000
0001
0000
1000
0010
1000
0010
,
1000
0000
0010
0000
0100
0001
0100
0001
,
0100
0000
0010
0000
1000
0010
1000
0010
,
1000
0000
0010
0100
0010
0000
1000
0001
,
1000
0000
0001
0000
0100
0001
0100
0000
,
1000
0010
1000
0000
0002
0000
2003
0000
,
3002
0000
0203
0000
0301
1000
0001
0000
,
0100
0010
0100
0000
1000
0001
1000
0001
,
1000
0000
0010
0000
1000
0010
1000
0000
,
0001
0100
2002
0000
,
0000
0000
0000
0000
3003
1000
0001
1000
,
0001
0000
0000
1000
0000
0000
1001
0000
0000
0000
0000
0000
0000
0000
0000
0000
;

//--------------- dance-single - Destrier75 ----------------
#NOTES:
     dance-single:
     Destrier75:
     Hard:
     11:
     0,0,0,0,0:
0000
0000
0000
0000
,
0000
0000
0000
0000
,
0000
0000
0000
0000
,
0000
0000
0000
0000
,
0000
0000
0000
0000
1000
0010
0100
0001
,
1000
0000
0001
0000
0000
1000
0000
0000
2002
0000
0000
0000
0000
0000
0000
0000
,
0000
0000
0000
0000
0000
0000
3003
0000
0001
0000
1000
0001
1000
0000
0000
0001
,
0100
0000
1010
0000
0000
0000
0101
0000
0001
0000
1000
0010
1000
0000
0000
0010
,
1000
0000
1010
0000
0000
0000
0110
0000
0001
0000
0100
0001
0100
0000
0000
0010
,
1000
0000
0000
1000
0010
0000
0000
0010
0001
0000
0000
1000
0001
0000
0100
0000
,
0010
1000
0001
0100
0002
1000
1003
0010
,
2000
0001
3001
0100
0002
0000
2003
0000
,
3020
0000
2030
0000
3001
0100
0010
1000
,
0100
0010
0001
1000
0002
0000
1003
0010
,
0100
0000
0000
0010
0000
0000
1000
0000
0001
0000
0100
0000
0010
0000
1000
0000
,
0001
1000
0010
0100
0001
0010
1000
0010
,
0200
0001
0301
0010
1000
0010
0100
0001
,
1000
0010
0100
0001
1000
0010
1000
0001
,
0200
0010
0310
0100
0001
0100
0001
1000
,
0010
1000
0100
0010
0001
0100
0001
1000
,
0010
0100
0001
1000
0010
0100
0001
0100
,
0001
0000
0100
0001
0100
0000
0000
0010
1000
0000
1001
0000
0000
0000
0110
0000
,
1000
0000
0001
1000
0001
0000
0000
1000
0001
0000
1001
0000
0000
0000
0101
0000
,
0001
0000
1000
0010
1000
0000
0000
1000
0010
0000
0000
0010
1000
0000
0000
1000
,
0001
0000
0000
1000
0010
0000
0100
0000
0001
0000
0010
0000
0100
0000
1000
0000
,
0002
0100
0103
0010
2000
0100
3100
0010
,
2000
3002
0203
0320
,
1030
0100
0010
0001
1000
0010
1000
0001
,
0200
0000
0000
0000
0301
0000
1000
0000
0001
0000
0000
1000
0000
0000
0010
0000
,
1000
0010
1000
0001
0100
0001
1000
0100
,
0010
0001
1000
0010
1000
0001
0100
0001
,
1000
0010
0100
0001
0100
0001
1000
0010
,
1000
0100
0010
0001
1000
0010
1000
0001
,
0100
0010
1000
0001
1000
0010
0100
0001
,
1000
0100
0010
0001
1000
0010
1000
0001
,
1000
0000
0010
0000
1000
0000
0001
0000
1000
0000
0010
1000
0010
0000
0000
0001
,
1000
0000
1001
0000
0000
0000
1010
0000
1000
0000
0001
0100
0001
0000
0000
0100
,
0001
0000
1001
0000
0000
0000
1010
0000
0001
0000
1000
0010
1000
0000
0000
1000
,
0010
0000
0000
0010
1000
0000
0000
1000
0001
0000
0000
1000
0010
0000
0100
0000
,
1000
0001
1000
0001
1000
0010
0100
0001
,
1000
0001
0000
1000
0010
0100
0001
0100
,
0010
1000
0000
0001
1000
0001
1000
0001
,
0100
0000
0000
0100
0010
0000
0000
0010
1000
0000
0000
0001
1000
0000
0010
0000
,
1000
0001
1000
0010
2000
0010
3010
0100
,
0002
1000
1003
0010
2000
0000
3002
0000
,
0203
0000
0320
0000
1030
0001
2000
0000
,
3001
0000
0100
0000
0002
0000
0000
0000
1003
0000
0010
0000
1000
0000
0001
1000
,
0000
0001
1000
0000
0010
0000
0100
0000
0001
0000
1000
0000
0010
0000
0100
0000
,
1000
0000
0001
0000
0000
1000
0000
0000
2002
0000
0000
0000
0000
0000
0000
0000
,
0000
0000
0000
0000
3003
1000
0010
1000
,
0001
0000
0000
1000
0000
0000
1001
0000
0000
0000
0000
0000
0000
0000
0000
0000
;

//--------------- dance-single - Destrier75 ----------------
#NOTES:
     dance-single:
     Destrier75:
     Challenge:
     13:
     0.566,0.56,0.24,0.133,0.409:
0000
0000
0000
0000
,
0000
0000
0000
0000
,
0000
0000
0000
0000
,
0000
0000
0000
0000
,
0000
0000
0000
0000
1000
0001
0100
0001
,
1000
0000
1001
0000
0000
0110
0000
0000
2002
0000
0000
0000
0000
0000
0000
0000
,
0000
0000
0000
0000
0000
0000
3003
0000
1000
0000
0001
1000
0001
0000
0100
0010
,
0100
0000
1001
0000
0000
0000
1010
0000
1000
0000
0010
0100
0010
0000
0001
1000
,
0001
0000
1010
0000
0000
0000
1001
0000
0001
0000
0100
0001
0100
0000
1000
0010
,
1000
0000
0000
1000
0010
0000
0000
0010
1000
0000
0000
0001
1000
0000
0010
0000
,
0100
0010
0100
0010
0100
0000
0001
0000
1000
0000
0010
1000
0010
0000
0100
0000
,
0001
0000
0100
0001
0100
0000
0010
0000
1000
0000
0000
0001
1000
0000
0000
1000
,
0010
0000
0100
0000
0001
0000
0010
0000
1000
0000
0010
0000
0100
0001
0100
0001
,
0100
0000
0010
0000
1000
0010
1000
0010
2000
0000
0000
0000
3001
0100
0001
0100
,
0001
0000
1000
0010
0000
0010
1000
0000
0010
0000
1000
0000
0001
0000
0100
0000
,
0010
1000
0100
0010
0001
1000
0001
0100
,
1000
0001
1000
0001
1000
0000
0001
0000
0100
0000
0010
0000
1000
0000
0001
0000
,
0100
0001
1000
0010
1000
0100
0010
0001
,
0100
0001
0100
0001
0100
0000
0001
0000
1000
0000
0100
0001
0100
0000
0010
0000
,
0100
0000
1000
0010
1000
0000
0010
0000
0100
0000
0001
0100
0001
0000
0100
0000
,
0010
0000
1000
0001
1000
0000
0010
0000
1000
0100
0010
0001
1000
0010
1000
0010
,
1000
0000
0001
0100
0001
0000
0100
0010
0100
0000
1010
0000
0000
0000
1001
0000
,
0100
0000
1000
0010
1000
0000
0001
0100
0001
0000
0101
0000
0000
0000
1001
0000
,
1000
0000
0001
0100
0001
0000
1000
0010
1000
0000
0000
1000
0010
0000
0000
0010
,
0001
0000
0000
0001
1000
0000
0001
0000
1000
0001
1000
0001
1000
0000
0010
0000
,
1000
0000
0010
1000
0010
0000
0100
0000
0010
0000
0100
0001
0100
0000
0010
0000
,
2000
0000
3002
0000
0203
0000
0301
1000
,
0001
0000
0100
0000
0001
0100
0001
0100
0001
0000
0100
0000
1000
0010
1000
0010
,
2000
0000
0000
0000
3001
1000
0001
1000
0001
0000
0100
0001
0000
0001
0100
0000
,
1001
1000
0010
0100
0001
1000
0010
0100
,
0001
0000
1000
0000
0100
0000
0010
0000
1000
0010
1000
0010
1000
0000
0001
0000
,
0100
0010
1000
0001
0100
0010
1000
0100
,
0010
0000
0001
0000
1000
0000
0001
0000
1000
0001
1000
0001
1000
0000
0010
0000
,
1000
0000
0010
0100
0010
0000
0001
0000
1000
0000
0001
0100
0001
0000
1000
0000
,
0010
0000
0100
0010
0100
0000
0001
0000
1000
0000
0001
1000
0001
0000
0100
0000
,
1000
0010
1000
0010
0100
0001
0100
0001
1000
0000
0001
1000
0001
0000
0100
0010
,
0100
0000
1001
0000
0000
0000
0101
0000
1000
0000
0010
0100
0010
0000
1000
0010
,
1000
0000
0101
0000
0000
0000
1001
0000
1000
0000
0010
0100
0010
0000
1000
0001
,
1000
0000
0000
0100
0001
0000
0000
0001
1000
0000
0000
1000
0010
0000
0100
0000
,
1000
0001
1000
0001
1000
0000
0001
0000
1000
0000
0010
0000
0100
0000
0001
0000
,
1001
0110
0000
1001
1000
0010
0100
0001
,
1000
1001
0000
0101
1000
0010
0100
0001
,
1000
0000
0000
0001
0100
0000
0000
0100
0001
0000
0000
1000
0001
0000
0100
0000
,
0010
0000
1000
0000
0001
0000
0100
0000
0001
0000
1000
0001
1000
0000
0010
0000
,
0100
0000
0001
0100
0001
0000
1000
0000
0020
0000
0000
0000
2030
0000
0000
0000
,
3002
0000
0203
0000
0301
1000
0002
0000
,
1003
0000
0010
0000
2000
0000
0000
0000
3001
0000
0100
0000
0001
0000
1000
0001
,
0000
1000
0100
0010
0001
1000
0010
1000
0010
0000
0100
0000
0010
0000
1000
0000
,
0001
0000
1001
0000
0000
0110
0000
0000
2002
0000
0000
0000
0000
0000
0000
0000
,
0000
0000
0000
0000
0000
0000
0000
3003
0000
0000
1000
0000
0001
0000
0100
0000
,
1001
0000
0000
0110
0000
0000
1001
0000
0000
0000
0000
0000
0000
0000
0000
0000
;
