#TITLE:One Way Ticket (To The Blues);
#SUBTITLE:;
#ARTIST:Tanja Thomas;
#TITLETRANSLIT:;
#SUBTITLETRANSLIT:;
#ARTISTTRANSLIT:;
#GENRE:;
#CREDIT:Destrier75;
#MUSIC:One Way Ticket (To The Blues).ogg;
#BANNER:One Way Ticket (To The Blues).png;
#BACKGROUND:One Way Ticket (To The Blues)-bg.png;
#CDTITLE:;
#SAMPLESTART:62.247;
#SAMPLELENGTH:15.001;
#SELECTABLE:YES;
#OFFSET:-0.029;
#BPMS:0.000=123.000;
#STOPS:;
#BGCHANGES:;
#FGCHANGES:;

//--------------- dance-single - Destrier75 ----------------
#NOTES:
     dance-single:
     Destrier75:
     Beginner:
     2:
     0,0,0,0,0:
0000
0000
0000
0000
,
0000
0000
0000
0000
,
0000
0000
0000
0000
,
0000
0000
0000
0000
,
0100
0000
0100
0000
,
0010
0000
0010
0000
,
1000
1000
1000
0000
,
0001
0001
0001
0000
,
0100
0000
0100
0000
,
0100
0100
0100
0000
,
0010
0000
0010
0000
,
0010
0010
0010
0000
,
1000
1000
1000
0000
,
0001
0001
0001
0000
,
0100
0000
0100
0000
,
0010
0000
0010
0000
,
0010
0000
0010
0000
,
0010
0010
0010
0000
,
0100
0000
0100
0000
,
0100
0100
0100
0000
,
1000
1000
1000
0000
,
0001
0001
0001
0000
,
0100
0100
0100
0000
,
0010
0010
0010
0000
,
1000
0000
1000
0000
,
1000
1000
1000
0000
,
0001
0000
0001
0000
,
0001
0001
0001
0000
,
0100
0000
0100
0000
,
0100
0100
0100
0000
,
0000
0110
0000
0110
,
1000
0000
1000
0000
,
0001
0000
0001
0000
,
0100
0000
0100
0000
,
0010
0000
0010
0000
,
1000
0000
1000
0000
,
0001
0001
0001
0000
,
0100
0100
0100
0000
,
0010
0010
0010
0000
,
1000
1000
1000
0000
,
0100
0000
0100
0000
,
0100
0100
0100
0000
,
0010
0000
0010
0000
,
0010
0010
0010
0000
,
1000
1000
1000
0000
,
0001
0001
0001
0000
,
0100
0100
0100
0000
,
0010
0010
0010
0000
,
1000
0000
1000
0000
,
1000
1000
1000
0000
,
0001
0000
0001
0000
,
0001
0001
0001
0000
,
0100
0000
0100
0000
,
0100
0100
0100
0000
,
0010
0000
0010
0000
,
0010
0010
0010
0000
,
1000
0000
1000
0000
,
1000
1000
1000
0000
,
0001
0000
0001
0000
,
0001
0001
0001
0000
,
0100
0000
0100
0000
,
0100
0100
0100
0000
,
0010
0000
0010
0000
,
0010
0010
0010
0000
,
0100
0000
0100
0000
,
0100
0100
0100
0000
,
0010
0000
0000
0000
;

//--------------- dance-single - Destrier75 ----------------
#NOTES:
     dance-single:
     Destrier75:
     Easy:
     5:
     0,0,0,0,0:
0000
0000
0000
0000
,
0000
0000
0000
0000
,
0000
0000
0000
0000
,
0000
0000
0000
0000
,
1000
0010
1000
0010
,
0100
0001
0100
0001
,
2000
0000
0000
0000
,
3002
0000
0000
0000
,
1003
0010
1000
0010
,
0100
0001
0100
0001
,
1000
0010
1000
0010
,
0100
0001
0100
0001
,
0100
0100
0010
0010
,
1000
1000
0001
0001
,
0200
0000
0000
0000
,
0320
0000
0000
0000
,
1030
0010
1000
0010
,
0100
0001
0100
0001
,
1000
0100
1000
0100
,
0001
0010
0001
0010
,
1000
1000
0010
0010
,
0100
0100
0001
0001
,
2000
0000
0000
0000
,
3002
0000
0000
0000
,
1003
0010
1000
0010
,
0100
0001
0100
0001
,
1000
1010
0010
0011
,
1000
1000
0010
0010
,
0100
0001
0100
0001
,
1000
1010
0010
0011
,
0000
1000
1000
0000
0000
0001
0001
0000
,
1000
0001
1000
0001
,
1000
0010
1000
0010
,
0100
0001
0100
0001
,
1000
0010
1000
0010
,
0100
0010
0100
0010
,
0001
0100
0001
0100
,
1000
0010
1000
0010
,
1000
1000
0001
0001
,
0100
0100
0010
0010
,
1000
0010
1000
0010
,
0100
0001
0100
0001
,
0100
0010
0100
0010
,
1000
0001
1000
0001
,
1000
1000
0010
0010
,
0100
0100
0001
0001
,
1000
0010
1000
0010
,
0100
0001
0100
0001
,
1000
1000
0010
0010
,
0100
0100
0001
0001
,
1000
0010
1000
0010
,
0100
0001
0100
0001
,
1000
1000
0010
0010
,
0100
0100
0001
0001
,
0100
0010
0100
0010
,
1000
0001
1000
0001
,
0100
0100
0001
0001
,
1000
1000
0010
0010
,
1000
0010
1000
0010
,
0100
0001
0100
0001
,
0100
0010
0100
0010
,
1000
0010
1000
0010
,
0100
0001
0100
0001
,
0100
0001
1000
0001
,
1000
0001
1000
0001
,
0100
0001
0100
0001
,
1000
0000
0000
0000
;

//--------------- dance-single - Destrier75 ----------------
#NOTES:
     dance-single:
     Destrier75:
     Medium:
     8:
     0,0,0,0,0:
0000
0000
0000
0000
,
0000
0000
0000
0000
,
0000
0000
0000
0000
,
0000
0000
0000
0000
,
0100
0000
0010
0000
0100
0010
0100
0000
,
1000
0000
0001
0000
1000
0001
1000
0000
,
2000
0000
0000
0000
0000
0000
0000
0000
0000
0000
0000
0000
0000
0000
0000
0000
0000
0000
0000
0000
0000
0000
0000
0000
0000
0000
0000
0000
0000
0000
0000
0000
0000
0000
0000
0000
0000
0000
0000
0000
0000
0000
0000
0000
0000
0000
0000
0000
0000
0000
0000
0000
0000
0000
0000
0000
0000
0000
0000
0000
0000
0000
0000
0000
0000
0000
0000
0000
0000
0000
0000
0000
0000
0000
0000
0000
0000
0000
0000
0000
0000
0000
0000
0000
0000
0000
0000
0000
0000
0000
0000
0000
0000
0000
0000
0000
0002
0000
0000
0000
0000
3000
0000
0000
0000
0000
0000
0000
0000
0000
0000
0000
0000
0000
0000
0000
0000
0000
0000
0000
0000
0000
0000
0000
0000
0000
0000
0000
0000
0000
0000
0000
0000
0000
0000
0000
0000
0000
0000
0000
0000
0000
0000
0000
0000
0000
0000
0000
0000
0000
0000
0000
0000
0000
0000
0000
0000
0000
0000
0000
0000
0000
0000
0000
0000
0000
0000
0000
0000
0000
0000
0000
0000
0000
0000
0000
0000
0000
0000
0000
0000
0000
0000
0000
0000
0000
0000
0000
0000
0000
0000
0000
,
0203
0000
0320
0000
,
1030
0001
1000
0000
0100
0000
0010
0000
,
0001
0100
0001
0000
0100
0000
0010
0000
,
1000
0010
1000
0000
0100
0000
0010
0000
,
0001
0100
0001
0000
0010
0000
0100
0000
,
1000
1010
0100
0110
,
0001
0101
1000
1010
,
2000
0000
3002
0000
,
0203
0000
0320
0000
,
1030
0001
1000
0000
0100
0000
0010
0000
,
0001
0100
0001
0000
0010
0000
0100
0000
,
1000
0010
1000
0000
0100
0000
0010
0000
,
0100
0001
0100
0000
0010
0000
0100
0000
,
1000
1010
0100
0110
,
0100
0101
0010
0110
,
2000
0000
3002
0000
,
0203
0000
0320
0000
,
1030
0010
1000
0010
1000
0000
0010
0000
,
0001
0100
0001
0100
0001
0000
0100
0000
,
1000
0010
1000
0010
1000
0000
0100
0000
,
0001
0100
0001
0100
0001
0000
0010
0000
,
1000
0010
1000
0010
1000
0000
0100
0000
,
0001
0100
0001
0100
0001
0000
0010
0000
,
0000
1000
1010
0000
0000
0001
0101
0000
,
2000
3002
2003
3002
,
1003
0000
0001
0000
1000
0001
1000
0000
,
0100
0000
0010
0000
0100
0010
0100
0000
,
0010
0000
0001
0000
0010
0001
0010
0000
,
1000
0000
0100
0000
1000
0100
1000
0000
,
0010
0000
0100
0000
0010
0100
0010
0000
,
0001
0000
0100
0000
0001
0100
0001
0000
,
2000
0000
0000
0000
0000
0000
0000
0000
0000
0000
0000
0000
0000
0000
0000
0000
0000
0000
0000
0000
0000
0000
0000
0000
0000
0000
0000
0000
0000
0000
0000
0000
0000
0000
0000
0000
0000
0000
0000
0000
0000
0000
0000
0000
0000
0000
0000
0000
3002
0000
0000
0000
0000
0000
0000
0000
0000
0000
0000
0000
0000
0000
0000
0000
0000
0000
0000
0000
0000
0000
0000
0000
0000
0000
0000
0000
0000
0000
0000
0000
0000
0000
0000
0000
0000
0000
0000
0000
0000
0000
0000
0000
0000
0000
0000
0003
,
0200
0000
0320
0000
,
1030
0001
1000
0000
0100
0000
0010
0000
,
0001
0100
0001
0000
0010
0000
0100
0000
,
1000
0010
1000
0000
0100
0000
0010
0000
,
0100
0001
0100
0000
0010
0000
0100
0000
,
1000
1100
0010
0011
,
0001
1001
1000
1010
,
2000
0000
3020
0000
,
0230
0000
0302
0000
,
1003
1010
0010
0011
,
0001
1001
1000
1010
,
2000
0000
3020
0000
,
0230
0000
0302
0000
,
1003
0010
1000
0000
0100
0000
0010
0000
,
0001
0100
0001
0000
0010
0000
0100
0000
,
2000
0000
3020
0000
,
0230
0000
0302
0000
,
1003
1010
0010
0011
,
0001
1001
1000
1010
,
2000
0000
3020
0000
,
0230
0000
0302
0000
,
1003
0010
1000
0000
0100
0000
0010
0000
,
0100
0001
0100
0000
0010
0000
0100
0000
,
2000
0000
3020
0000
,
0230
0000
0302
0000
,
1003
1010
0010
0011
,
0001
0101
0100
0101
,
0001
0000
0000
0000
;

//--------------- dance-single - Destrier75 ----------------
#NOTES:
     dance-single:
     Destrier75:
     Hard:
     11:
     0.434,0.432,0.023,0.331,0:
0000
0000
0000
0000
,
0000
0000
0000
0000
,
0000
0000
0000
0000
,
0000
0000
0000
0000
,
2000
0000
3002
0000
1003
0010
1000
0000
,
0002
0000
2003
0000
3001
0100
0001
0100
,
2000
0001
3002
0100
,
0203
0010
0320
1000
,
1030
0001
1000
0001
2000
0000
3010
0000
,
0100
0001
0100
0001
0200
0000
0301
0000
,
1000
0100
1000
0100
2000
0000
3001
0000
,
0100
0001
0100
0001
0200
0000
0301
0010
,
2000
0010
3020
0100
,
0230
0001
0302
1000
,
1003
0001
1000
0000
0001
1000
0001
0000
,
0100
0001
0100
0000
0100
0010
0100
0000
,
1000
0100
1000
0100
2000
0000
3010
0000
,
0100
0001
0100
0001
0200
0000
0301
0000
,
1000
0010
1000
0010
2000
0000
3010
0000
,
0010
0001
0010
0001
0020
0000
1030
0000
,
2000
0010
3020
0001
,
0032
1000
2003
0010
,
3010
1000
0010
0000
0100
0001
0100
0000
,
1000
0001
1000
0000
0001
0100
0001
0000
,
1000
0010
1000
0010
1000
0010
1000
0000
,
0001
0100
0001
0100
0001
0100
0001
0000
,
1000
0001
1000
0001
1000
0001
1000
0000
,
0100
0001
0100
0001
0100
0001
0100
0000
,
0010
1000
0010
1000
0010
1000
0010
0000
,
1000
0001
1000
0001
1000
0001
1000
0000
,
1000
0010
1010
0000
0001
0010
0011
0000
,
2000
3002
0203
0320
,
2030
0000
3002
0000
0103
0001
0100
0000
,
0020
0000
2030
0000
3010
0100
0010
0000
,
0002
0000
2003
0000
3010
0001
0010
0000
,
2000
0000
3020
0000
0130
0001
0100
0000
,
0002
0000
2003
0000
3001
0100
0001
0000
,
2000
0000
3020
0000
0130
0001
0100
0000
,
2000
0010
3020
0001
,
0032
1000
2003
0010
,
3020
0032
2003
3010
,
1000
0010
1000
0010
1000
0000
0100
0000
,
0001
0100
0001
0100
0001
0000
1000
0000
,
0001
0100
0001
0100
0001
0000
0010
0100
,
2000
0001
3002
0100
,
0203
0010
0320
1000
,
1030
0001
1000
0000
0001
0100
0001
0000
,
1000
0010
1000
0000
0001
0100
0001
0000
,
1000
0010
1000
0010
1000
0000
0010
0000
,
0100
0001
0100
0001
0100
0000
0010
0000
,
1000
0010
1000
0000
0100
0001
0100
0000
,
0010
0100
0010
0000
1000
0001
1000
0000
,
1000
0010
1000
0010
1000
0000
0100
0000
,
0001
0100
0001
0100
0001
0000
0010
0000
,
1000
0010
1000
0010
1000
0000
0100
0000
,
0010
0001
0010
0001
0010
0000
0100
0000
,
1000
0010
1000
0010
1000
0000
0100
0000
,
0001
0100
0001
0100
0001
0000
0010
0000
,
1000
0001
1000
0001
1000
0000
0010
0000
,
1000
0010
1000
0010
1000
0000
0100
0000
,
0001
0100
0001
0100
0001
0000
0010
0000
,
1000
0010
1000
0010
1000
0000
0100
0000
,
0001
0100
0001
0100
0001
0000
0010
0000
,
1000
0001
1000
0001
1000
0000
0010
0000
,
1000
0010
1000
0010
1000
0000
0100
0000
,
0001
0100
0001
0100
0001
0000
0010
0000
,
1001
0000
0000
0000
;
