#TITLE:Melonaid;
#SUBTITLE:;
#ARTIST:KATOMORI;
#TITLETRANSLIT:;
#SUBTITLETRANSLIT:;
#ARTISTTRANSLIT:;
#GENRE:;
#CREDIT:Destrier75;
#MUSIC:Melonaid.ogg;
#BANNER:Melonaid.png;
#BACKGROUND:Melonaid-bg.png;
#CDTITLE:;
#SAMPLESTART:67.689;
#SAMPLELENGTH:15.000;
#SELECTABLE:YES;
#OFFSET:1.650;
#BPMS:0.000=145.000;
#STOPS:;
#BGCHANGES:4.000=Melonaid.avi=1.000=1=0=0=StretchNoLoop==CrossFade==,
99999.000=-nosongbg-=1.000=0=0=0=StretchNoLoop====
;
#FGCHANGES:;

//--------------- dance-single - Destrier75 ----------------
#NOTES:
     dance-single:
     Destrier75:
     Beginner:
     4:
     0,0,0,0,0:
0000
0000
0000
0000
,
0000
0000
0000
0000
,
0000
0000
0000
0000
,
0000
0000
0000
0000
,
0000
0000
0000
0000
,
0000
0000
0000
0000
,
0100
0000
0100
0000
,
0010
0000
0010
0000
,
1000
0000
1000
0000
,
0001
0000
0001
0000
,
1000
0000
1000
0000
,
0010
0000
0010
0000
,
0001
0000
0001
0000
,
1000
0000
1000
0000
,
0010
0000
0010
0000
,
0100
0000
0100
0000
,
0001
0000
0001
0000
,
0100
0000
0100
0000
,
0010
0010
0010
0000
,
1000
1000
1000
0000
,
0001
0001
0001
0000
,
0100
0100
0100
0000
,
0010
0010
0010
0000
,
1000
1000
1000
0000
,
0001
0001
0001
0000
,
0100
0100
0100
0000
,
0010
0000
0010
0000
,
1000
0000
1000
0000
,
0001
0000
0001
0000
,
0100
0000
0100
0000
,
0010
0000
0010
0000
,
0100
0000
0100
0000
,
0001
0000
0001
0000
,
1000
0000
1000
0000
,
0001
0001
0001
0000
,
1000
1000
1000
0000
,
0010
0010
0010
0000
,
0100
0100
0100
0000
,
0001
0001
0001
0000
,
1000
1000
1000
0000
,
0010
0010
0010
0000
,
0100
0100
0100
0000
,
1000
0000
0010
0000
,
1000
1000
1000
0000
,
0001
0000
0100
0000
,
0001
0001
0001
0000
,
0100
0000
0010
0000
,
0100
0100
0100
0000
,
1000
0000
0010
0000
,
1000
1000
1000
0000
,
0001
0000
0100
0000
,
0001
0001
0001
0000
,
1000
0000
0010
0000
,
1000
1000
1000
0000
,
0100
0000
0010
0000
,
0100
0100
0100
0000
,
0001
0000
0100
0000
,
0001
0001
0001
0000
,
1000
0000
1000
0000
,
0001
0000
0001
0000
,
0100
0000
0100
0000
,
1001
0000
0000
0000
,
1000
0000
1000
0000
,
0001
0001
0001
0000
,
0100
0000
0100
0000
,
0010
0010
0010
0000
,
1000
0000
1000
0000
,
0001
0001
0001
0000
,
0100
0000
0100
0000
,
0010
0010
0010
0000
,
1000
1000
1000
0000
,
0001
0001
0001
0000
,
0100
0100
0100
0000
,
0010
0010
0010
0000
,
1001
0000
1001
0000
,
1001
0000
1001
0000
,
1001
0000
1001
0000
,
1000
1000
1000
0000
;

//--------------- dance-single - Destrier75 ----------------
#NOTES:
     dance-single:
     Destrier75:
     Easy:
     8:
     0,0,0,0,0:
0000
0000
0000
0000
,
0000
0000
0000
0000
,
0000
0000
0000
0000
,
0000
0000
0000
0000
,
0000
0000
0000
0000
,
0000
0000
0000
0000
,
0100
0100
0000
0000
1000
1000
0000
0000
,
0001
0001
0000
0000
1000
1000
0000
0000
,
0100
0100
0000
0000
0001
0001
0000
0000
,
1000
0001
1000
0001
,
1001
0000
0100
0000
,
1001
0000
0010
0000
,
1010
0000
0100
0000
,
0101
0000
0010
0000
,
1010
0000
1000
0000
,
1001
0000
0001
0000
,
0101
0000
0001
0000
,
0001
1000
0001
1000
,
1000
0100
0010
0001
,
1000
0010
0100
0001
,
0001
0010
0100
1000
,
0001
0100
0010
1000
,
1000
0100
0010
0001
,
1000
0010
0100
0001
,
0001
0010
0100
1000
,
1001
0000
1001
0000
,
1000
0001
1000
0001
,
0100
0000
0100
0000
,
0001
0100
0010
1000
,
0100
0000
0100
0000
,
1000
0010
0100
0001
,
0100
0000
0100
0000
,
0001
0100
0010
1000
,
0001
0000
1000
0000
,
1000
0010
0100
0001
,
0100
0100
0010
0010
,
0001
0100
0010
1000
,
1000
1000
0010
0010
,
1000
0100
0010
0001
,
0100
0001
0100
0001
,
1000
0010
0100
0001
,
2002
0000
0000
3003
,
1000
0010
1000
0010
,
1000
0010
0100
0001
,
0100
0001
0100
0001
,
0001
0100
0010
1000
,
1000
0010
1000
0010
,
1000
0010
0100
0001
,
0001
0100
0001
0100
,
0001
0100
0010
1000
,
2000
0000
3002
0000
,
1003
0010
0100
0001
,
0001
0010
0100
1000
,
1000
0010
0100
0001
,
1000
0001
1000
0001
,
0100
0100
0010
0010
,
1000
0001
1000
0001
,
1001
0000
1001
0000
,
1000
0100
0010
0001
,
1000
0010
0100
0001
,
0001
0010
0100
0100
,
2002
0000
0000
3003
,
1000
0010
1000
0010
,
1000
0010
0100
0001
,
0001
0010
0100
1000
,
0001
0100
0010
1000
,
0001
0010
0100
1000
,
1000
0010
0100
0001
,
1000
0001
1000
0001
,
2002
0000
0000
3003
,
1000
0010
1000
0010
,
1000
0010
0100
0001
,
1000
1010
0001
0011
,
1000
1001
1000
1010
,
1000
0010
1000
0001
,
1001
0000
1001
0000
,
0110
0000
1001
0000
,
1001
1001
1001
2002
,
3003
0000
0000
0000
;

//--------------- dance-single - Destrier75 ----------------
#NOTES:
     dance-single:
     Destrier75:
     Medium:
     13:
     0,0,0,0,0:
0000
0000
0000
0000
,
0000
0000
0000
0000
,
0000
0000
0000
0000
,
0000
0000
0000
0000
,
0000
0000
0000
0000
,
0000
0000
0000
0000
,
0100
0110
0000
0000
0001
1001
0000
0000
,
1000
1010
0000
0000
0010
0110
0000
0000
,
1000
1001
0000
0000
0001
0101
0000
0000
,
1001
0110
1001
0110
,
0100
0000
0000
0000
1000
0000
0010
1000
0010
0000
0100
0000
0010
0000
0001
0000
,
1000
0000
0000
0000
0001
0000
0100
0001
0100
0000
0010
0000
1000
0000
0001
0000
,
0100
0000
0000
0000
0001
0000
1000
0001
1000
0000
0010
0000
0100
0000
0001
0000
,
1000
0000
0000
0000
0001
0000
0100
0001
0100
0000
0010
0000
1000
0000
0001
0000
,
0100
0000
0000
0000
1000
0000
0010
1000
0010
0000
0100
0000
0001
0000
1000
0000
,
0001
0000
0000
0000
1000
0000
0010
0100
0010
0000
0001
0000
1000
0000
0010
0000
,
0100
0000
0000
0000
0001
0000
0100
0001
0100
0000
0010
0000
1000
0000
0001
0000
,
2000
0000
3002
0000
2003
0000
3001
1000
,
0001
0000
0100
0000
0010
0000
1000
0000
0001
0000
0100
0001
0100
0000
0010
0000
,
1000
0000
0010
0000
0100
0000
0001
0000
1000
0000
0001
0100
0001
0000
0100
0000
,
1000
0000
0010
0000
0100
0000
0001
0000
1000
0000
0001
0100
0001
0000
0100
0000
,
1000
0000
0010
0000
1000
0000
0001
0000
0100
0000
0010
0100
0010
0000
0100
0000
,
1000
0000
0001
0000
1000
0000
0010
0000
0100
0000
0010
1000
0010
0000
0100
0000
,
0001
0000
0100
0000
1000
0000
0001
0000
0100
0000
0001
0100
0001
0000
0010
0000
,
1000
0000
0001
0000
0100
0000
0010
0000
1000
0000
0100
0001
0100
0000
0010
0000
,
2000
0000
3002
0000
2003
0000
3001
0010
,
0200
0000
1300
0001
2000
0000
3001
0100
,
0002
0103
1000
0010
0200
0000
0301
0010
,
2000
0000
0000
3001
0100
0010
1000
0001
,
0200
0000
0000
0000
,
0301
0010
1000
0001
0200
0000
0302
0000
,
1003
0010
1000
0001
0100
0001
1000
0010
,
2000
0000
0000
3001
0100
0010
1000
0001
,
0200
0000
0320
0000
,
1030
0010
1000
0010
1000
0000
0100
0000
,
0001
0100
0001
0100
0001
0000
0010
0000
,
1000
0001
1000
0001
1000
0000
0100
0000
,
0010
0100
0010
0100
0010
0000
0001
0000
,
1000
0010
1000
0010
1000
0000
0100
0000
,
0001
0100
0001
0100
0001
0000
0010
0000
,
1000
0001
1000
0001
1000
0001
1000
0001
,
2002
0000
0000
3003
,
1000
0000
0010
0000
1000
0000
0000
0000
0001
0000
0000
0100
0001
0000
0100
0000
,
1000
0000
0010
0000
1000
0000
0001
0000
0000
0100
0000
0010
1000
0000
0010
0000
,
1000
0000
0010
0000
0100
0000
0001
0000
1000
0000
0000
0100
0001
0000
0100
0000
,
1000
0000
0001
0000
0100
0000
0010
0000
1000
0000
0000
0100
0010
0000
0001
0000
,
1000
0000
0001
0000
0100
0000
0010
0000
0000
0100
0000
0001
1000
0000
0001
0000
,
1001
0000
0001
0000
1000
0000
0010
0000
0000
0100
0000
0001
1000
0000
0010
0000
,
1001
0000
1000
0000
0001
0000
0100
0000
0000
0100
0000
0001
1000
0000
0001
0000
,
2000
3002
0203
0320
,
1030
0000
0000
0000
0001
0000
0000
0000
1000
0000
0000
0001
1000
0000
0010
0000
,
1000
0000
0001
0000
0100
0000
0001
0000
0000
1000
0000
0000
0001
0000
0100
0000
,
1000
0000
0001
0000
1000
0000
0001
0000
0100
0000
0000
0001
1000
0000
0010
0000
,
2000
3002
0203
0320
,
1030
0001
1000
0001
1000
0000
0010
0000
,
1000
0010
1000
0010
1000
0000
0100
0000
,
0001
0100
0001
0100
0001
0000
0100
0000
,
1001
0110
1001
0110
,
1000
0010
1000
0010
1000
0000
0100
0000
,
0001
0100
0001
0100
0001
0000
0010
0000
,
1000
1001
0001
1001
,
2002
0000
0000
3003
,
1001
0000
0000
0000
0010
0000
1000
0010
1000
0000
0100
0000
0010
0000
0001
0000
,
1000
0000
0000
0000
0001
0000
0100
0010
0100
0000
0010
0000
1000
0000
0001
0000
,
0100
0000
0000
0000
0001
0000
0100
0010
0100
0000
0010
0000
1000
0000
0001
0000
,
0100
0000
0000
0000
0100
0000
0010
1000
0010
0000
0100
0000
0001
0000
0100
0000
,
1000
0000
0000
0000
0100
0000
0001
1000
0001
0000
0100
0000
0010
0000
0100
0000
,
1000
0000
0000
0000
0001
0000
0100
0001
0100
0000
0010
0000
1000
0000
0001
0000
,
0100
0000
0000
0000
1000
0000
0010
1000
0010
0000
0100
0000
0001
0000
0100
0000
,
0001
0000
0000
0000
1000
0000
0000
0000
0001
0000
0100
0000
0001
1000
0001
0000
,
0100
0000
0010
0000
0100
0000
0100
0010
0100
0000
0001
0000
1000
0000
0001
0000
,
0100
0000
0001
1000
0001
0000
0100
0000
0010
0000
1000
0010
1000
0000
0100
0000
,
1000
0010
1000
0000
0100
0000
0010
0000
1000
0001
1000
0000
0001
0000
0100
0000
,
0001
0100
0001
0000
1000
0000
0010
0000
0100
0010
0100
0000
0001
0000
0100
0000
,
1000
0001
1000
0000
0010
0000
0100
0000
1000
0000
0001
1000
0001
0000
0100
0000
,
0010
0000
1000
0010
0000
0100
0000
0001
0000
1000
0010
0000
1000
0000
0010
0000
,
1000
0001
0000
0100
0000
0001
1000
0001
1000
0000
0010
0000
1000
0000
0010
0000
,
1000
0010
1000
0000
0001
0100
0001
0000
1000
0001
1000
0000
0002
0000
0000
0000
,
1003
0000
0000
0000
;

//--------------- dance-single - Destrier75 ----------------
#NOTES:
     dance-single:
     Destrier75:
     Hard:
     16:
     0.787,0.798,0.076,0.189,0.902:
0000
0000
0000
0000
,
0000
0000
0000
0000
,
0000
0000
0000
0000
,
0000
0000
0000
0000
,
0000
0000
0000
0000
,
0000
0000
0000
0000
,
1000
2001
0000
0000
3001
0201
0000
0000
,
0301
0201
0000
0000
0301
2001
0000
0000
,
3001
0102
0000
0000
0103
0210
0000
0000
,
1300
0000
0001
0000
1000
0001
1000
0001
1000
0000
1000
0000
0010
0100
0010
0000
,
1001
0000
0000
0000
1000
0010
1000
0010
0100
0001
0100
0001
1000
0100
0010
0001
,
1000
0000
0000
0000
1000
0010
1000
0010
0100
0001
0100
0001
0000
0100
0010
0001
,
1000
0000
0000
0000
0100
0001
0100
0001
1000
0010
1000
0010
0000
0100
0010
0001
,
1000
0000
0000
0000
1000
0100
1000
0100
0001
0010
0001
0010
0000
1000
0100
0010
,
1000
0000
0000
0000
1000
0010
1000
0010
0100
0001
0100
0001
0000
0100
0010
0001
,
1000
0000
0000
0000
1000
0010
1000
0010
0100
0001
0100
0001
0000
0100
0010
0001
,
1000
0000
0000
0000
0001
0010
0001
0010
1000
0100
1000
0100
0000
0010
0100
1000
,
0001
0000
0100
0000
0010
0000
0010
0000
0100
0000
0100
0000
0100
0010
0100
0000
,
1000
0000
0001
0000
1000
0010
1000
0010
0100
0001
0100
0001
1000
0100
0010
0001
,
1000
0000
0010
0000
1000
0001
1000
0001
1000
0100
0010
0001
1000
0010
1000
0010
,
1000
0000
0010
0000
1000
0010
1000
0010
0100
0001
0100
0001
0000
0100
0010
0001
,
1000
0000
0001
0000
1000
0010
1000
0010
0100
0001
0100
0001
0100
0001
0010
0100
,
1000
0000
0010
0000
0100
0001
0100
0001
1000
0010
1000
0010
0000
0100
0010
0001
,
1000
0000
0100
0000
0100
0001
0100
0001
1000
0010
1000
0010
0000
0100
0010
0001
,
1000
0000
0100
0000
1000
0010
1000
0010
0100
0001
0100
0001
1000
0100
0010
0001
,
1000
0001
1000
0001
1000
0010
1000
0010
1000
0100
0010
0001
1000
0001
1000
0001
,
2000
0000
3001
0010
2000
0000
3001
0010
,
2000
0000
3001
0100
0020
0000
1030
0001
,
0200
0000
0000
0000
0300
0000
0001
0100
0001
0000
0010
0000
1000
0000
0010
1000
,
0010
0000
1000
0010
1000
0001
0100
0001
0100
0001
1000
0001
1000
0010
1000
0010
,
1000
0010
1000
0001
2000
0000
3100
0010
,
1000
0010
1000
0010
0100
0001
0100
0001
1000
0010
1000
0010
0100
0001
0100
0001
,
0200
0000
0000
0000
0000
0000
0301
0100
0001
0100
0010
1000
0010
1000
0100
0001
,
0200
0000
0302
0000
,
1003
0000
0010
0000
1000
0000
0001
0100
0000
0001
0100
0000
0001
0000
0010
0000
,
1000
0000
0010
0000
0100
0000
1000
0010
0000
1000
0010
0000
1000
0000
0010
0000
,
0100
0000
0001
0000
0010
0000
1000
0001
0000
1000
0001
0000
0100
0000
0010
0000
,
0001
0000
1000
0000
0010
0000
0100
0010
0000
0100
0010
0000
1000
0000
0010
0000
,
1000
1000
0001
0001
0100
0100
0010
0010
,
0100
0100
0010
0010
0100
0100
0010
0010
,
1000
0010
1000
0010
0001
0100
0001
0100
0010
1000
0010
1000
0010
0001
0010
0001
,
0020
0000
0000
0000
1030
0010
1000
0010
0100
0001
0100
0001
1000
0000
0000
0000
,
1000
0000
0000
0000
2000
0000
0000
0000
3100
0001
0000
0001
0100
0000
0010
0000
,
1000
0000
0001
0000
0100
0001
0100
0001
0000
0100
0000
0010
1000
0000
0010
0000
,
1000
0000
0001
0000
0100
0001
0100
0000
0001
0000
1000
0010
1000
0000
0010
0000
,
0110
0000
0001
0000
1000
0001
1000
0000
0010
0000
0100
0000
1000
0000
0001
0000
,
1001
0000
0001
0000
1000
0000
0010
0000
1000
0010
0000
1000
0010
0000
0001
0000
,
1000
0000
0010
0000
0100
0000
0000
0001
0000
0010
0000
1000
0010
0100
0010
0000
,
0010
0000
0010
0000
0001
1000
0001
1000
0001
0000
0010
0000
1000
0000
0010
0000
,
2001
3002
2003
3002
,
1003
0000
0001
0000
1000
0000
0010
0000
1000
0010
0000
0100
0000
0001
1000
0000
,
0010
0000
0010
0000
1000
0001
0000
0100
0000
0001
0000
1000
0001
0000
0001
0000
,
1000
0010
0100
0001
1000
0010
0100
0010
,
2000
0010
3020
0100
0230
0001
0302
0000
,
1003
0000
0010
0000
1000
0000
0001
0000
0100
0001
0100
0001
0100
0000
0001
0000
,
1000
0000
0010
0000
1000
0000
0001
0000
0100
0010
0100
0010
0100
0000
0010
0000
,
1000
0000
0001
0000
0100
0000
0010
0000
1000
0001
1000
0001
1000
0000
0010
0000
,
1000
0010
0000
0000
0010
1000
0000
0000
1000
0001
0000
0000
0001
0100
0000
0000
,
0001
0010
1000
0001
0100
0010
1000
0001
,
0100
0010
1000
0001
0100
0010
0100
0010
,
1000
0000
1000
0000
1000
0010
1000
0010
0100
0001
0100
0001
1000
0100
0010
0001
,
2000
0000
0000
0000
0000
0000
0000
0000
3010
0000
0010
0000
1000
0010
1000
0000
,
1001
0000
0000
0000
1000
0010
1000
0010
0100
0001
0100
0001
1000
0100
0010
0001
,
1000
0000
0100
0000
1000
0010
1000
0010
0100
0001
0100
0001
1000
0100
0010
0001
,
1000
0000
0100
0000
1000
0010
1000
0010
0100
0001
0100
0001
1000
0100
0010
0001
,
1000
0000
0100
0000
0001
0100
0001
0100
1000
0010
1000
0010
0001
0010
0100
1000
,
0001
0000
0010
0000
1000
0010
1000
0010
0001
0100
0001
0100
0001
0010
0100
1000
,
0001
0000
0100
0000
1000
0010
1000
0010
0100
0001
0100
0001
1000
0100
0010
0001
,
1000
0000
0001
0000
1000
0010
1000
0010
0100
0001
0100
0001
0100
0010
1000
0010
,
2000
0000
0000
0000
3001
1000
0001
1000
0001
0000
1000
0000
0010
0100
0010
0000
,
0100
0000
1000
0001
1000
0000
0100
0001
0100
0001
0100
0001
1000
0100
0010
0001
,
1000
0010
1000
0010
0100
0001
0100
0001
1000
0100
0010
0001
1000
0010
1000
0010
,
0100
0001
0100
0001
1000
0100
0010
0001
1000
0010
1000
0010
0100
0001
0100
0001
,
1000
0100
0010
0001
1000
0010
1000
0010
0100
0001
0100
0001
1000
0100
0010
0001
,
1000
0010
1000
0010
0100
0001
0100
0001
1000
0100
0010
0001
1000
0010
1000
0010
,
1000
0000
1000
0001
0000
0001
0000
0100
0000
0001
0100
0000
0001
0000
0100
0000
,
1000
0010
0000
0100
0000
0001
1000
0001
1000
0000
1000
0001
1000
0000
0010
0000
,
1000
0010
1000
0010
0100
0001
0100
0001
1000
0100
0010
0001
2002
0000
0000
0000
,
3003
0000
0000
0000
;
