#TITLE:きっと僕らは;
#SUBTITLE:;
#ARTIST:Argonavis;
#TITLETRANSLIT:Kitto Bokura Wa;
#SUBTITLETRANSLIT:;
#ARTISTTRANSLIT:;
#GENRE:;
#CREDIT:Destrier75;
#MUSIC:Kitto Bokura Wa.ogg;
#BANNER:Kitto Bokura wa.png;
#BACKGROUND:Kitto Bokura wa-bg.png;
#CDTITLE:;
#SAMPLESTART:54.809;
#SAMPLELENGTH:15.000;
#SELECTABLE:YES;
#OFFSET:0.450;
#BPMS:0.000=200.010;
#STOPS:;
#BGCHANGES:1.500=Kitto Bokura Wa.avi=1.000=1=0=0=StretchNoLoop==CrossFade==,
99999.000=-nosongbg-=1.000=0=0=0=StretchNoLoop====
;
#FGCHANGES:;

//--------------- dance-single - Destrier75 ----------------
#NOTES:
     dance-single:
     Destrier75:
     Beginner:
     3:
     0,0,0,0,0:
0000
0000
0000
0000
,
0000
0000
0000
0000
,
0000
0000
0000
0000
,
0000
0000
0000
0000
,
0000
0000
0000
0000
,
1000
0000
1000
0000
,
0001
0000
0001
0000
,
1000
0000
0000
0000
0001
0000
0000
1000
,
0000
0000
0000
0000
0000
0000
0000
0100
,
0000
0000
0100
0000
0100
0000
0000
0010
,
0000
0000
0001
0000
0001
0000
0000
1000
,
0000
0000
0010
0000
0010
0000
0000
0100
,
0000
0000
0000
0100
0000
0000
0000
0100
,
0000
0000
0000
0100
0000
0000
0000
0100
,
0000
0000
0110
0000
,
1000
0000
0000
0000
0001
0000
0000
1000
,
0000
0000
1001
0000
,
1000
0000
0000
0000
,
1000
0000
0000
0000
,
0001
0000
0000
0000
,
0001
0000
0000
0000
,
0100
0100
0100
0000
,
0010
0010
0010
0000
,
1000
1000
1000
0000
,
0001
0001
0001
0000
,
1000
0000
1000
0000
,
0001
0000
0001
0000
,
0100
0000
0100
0000
,
0010
0000
0010
0000
,
1000
1000
1000
0000
,
0010
0010
0010
0000
,
1000
0000
1000
0000
,
0001
0000
0001
0000
,
0100
0000
0100
0000
,
0010
0000
0010
0000
,
1000
0000
1000
0000
,
0001
0000
0001
0000
,
0100
0000
0100
0000
,
2002
0000
0000
0000
,
3003
1000
1000
1000
,
0000
0001
0001
0001
,
0000
0100
0100
0100
,
0000
0010
0010
0010
,
1000
0000
1000
0000
,
0001
0000
0001
0000
,
0100
0000
0100
0000
,
0110
0000
0000
0000
,
1000
1000
1000
0000
,
0001
0001
0001
0000
,
0100
0100
0100
0000
,
0010
0010
0010
0000
,
1000
1000
1000
0000
,
0001
0001
0001
0000
,
1000
1000
1000
0000
,
0010
0010
0010
0000
,
1000
0000
1000
0000
,
0001
0001
0001
0000
,
0100
0000
0100
0000
,
0010
0010
0010
0000
,
1000
0000
0001
0000
,
0100
0000
0010
0000
,
1000
0000
0001
0000
,
1001
0000
0000
0000
,
0001
0001
0001
0000
,
0100
0100
0100
0000
,
1000
1000
1000
0000
,
0010
0010
0010
0000
,
0100
0100
0100
0000
,
0001
0001
0001
0000
,
1000
1000
1000
0000
,
0001
0001
0001
0000
,
0100
0000
0100
0000
,
0100
0100
0100
0000
,
0010
0000
0010
0000
,
0010
0010
0010
0000
,
1000
0000
0001
0000
,
1000
0000
0000
0000
1001
0000
0000
1000
,
0000
0000
1000
0000
1000
0000
0000
0001
,
0000
0000
0100
0000
0100
0000
0000
0010
,
0000
0000
0100
0000
0100
0000
0000
0001
,
0000
0000
1000
0000
1000
0000
0000
1000
,
0000
0000
0000
0001
0000
0000
0000
1000
,
0000
0000
1001
0000
,
0000
0000
0000
0000
0000
0000
0000
1000
,
0000
0000
0000
0000
0000
0000
0000
0001
,
0000
1001
0000
0000
;

//--------------- dance-single - Destrier75 ----------------
#NOTES:
     dance-single:
     Destrier75:
     Easy:
     6:
     0,0,0,0,0:
0000
0000
0000
0000
,
0000
0000
0000
0000
,
0000
0000
0000
0000
,
0000
0000
0000
0000
,
0000
0000
0000
0000
,
1000
0001
0100
0010
,
1000
0100
0010
1000
,
0001
0000
1000
0000
0001
0000
1000
1001
,
0000
0000
0000
0000
0000
0000
0000
1000
,
0000
1000
0000
0000
0001
0000
0001
0000
,
1000
0000
0001
0000
0100
0000
0000
1001
,
0000
1000
1000
1000
,
0000
0100
0000
0100
0000
0100
0000
0010
,
0000
0010
0000
1000
0000
1000
0000
0001
,
0000
0001
0000
0000
1001
0000
0000
0000
,
1000
0000
0010
0000
1000
0000
0000
1001
,
0000
0000
0220
0330
,
1000
0000
1000
0000
,
0001
0000
0001
0000
,
0100
0000
0100
0000
,
1001
0000
0000
0000
,
1000
1000
0001
0001
,
0100
0100
0010
0010
,
1000
0001
1000
0001
,
0100
0010
1000
0001
,
1000
1000
0001
0001
,
0100
0100
0010
0010
,
1000
1000
0001
0001
,
0100
0100
0010
0010
,
1000
1000
0001
0001
,
0100
0100
1001
0000
,
2000
0000
0000
0000
,
3002
0000
0000
0000
,
0203
0000
0000
0000
,
0320
0000
0000
0000
,
2030
0000
0000
0000
,
3002
0000
0000
0000
,
2003
0000
0000
0000
,
3001
0000
0000
0000
1001
0000
0000
1001
,
0000
1000
1000
1000
,
1000
0010
0010
0010
,
0010
0100
0100
0100
,
0100
0001
0001
0001
,
1000
0010
1000
0001
,
0100
0001
1000
0010
,
1001
0000
0000
1001
0000
0000
1001
0000
,
1001
0000
0000
0000
,
1000
1000
0010
0010
,
0100
0100
0001
0001
,
2000
0000
3002
0000
,
0203
0000
0320
0000
,
1030
1000
0010
0010
,
0100
0100
0001
0001
,
2000
0000
3020
0000
,
0230
0000
0302
0000
,
1003
0010
1000
0010
,
1000
1000
1010
0000
,
1000
0001
1000
0001
,
0001
0000
0001
0000
1001
0000
0000
1000
,
0000
0010
0100
1000
,
0001
0000
0100
0000
0010
0000
0000
1001
,
0000
0001
1000
0010
,
0100
0001
0000
0000
,
1000
1000
0001
0001
,
0100
0100
0010
0010
,
2000
0000
3002
0000
,
0203
0000
0320
0000
,
1030
0010
1000
0001
,
0100
0001
1000
0010
,
2000
0000
3002
0000
,
0203
0000
0320
0000
,
1030
0010
1000
1000
,
0001
0000
0001
0000
0100
0000
0000
1001
,
0000
1000
0001
1000
,
0010
0000
0100
0000
0001
0000
0000
1001
,
0000
0000
0000
0110
0000
0000
0000
1001
,
0000
0000
1001
0000
,
1000
0000
0001
0000
1000
0000
0000
1001
,
0000
1000
0000
0001
0000
0000
0000
1001
,
0000
1000
1000
1000
,
0010
0000
0100
0000
0010
0000
0000
0100
,
0000
0100
0000
0010
0000
0010
0000
1000
,
0000
1000
0000
0000
1001
0000
0000
0000
,
0000
0000
0000
0000
0000
0000
0000
1001
,
0000
0000
0000
0000
0000
0000
0000
0110
,
0000
1001
0000
0000
;

//--------------- dance-single - Destrier75 ----------------
#NOTES:
     dance-single:
     Destrier75:
     Medium:
     9:
     0,0,0,0,0:
0000
0000
0000
0000
,
0000
0000
0000
0000
,
0000
0000
0000
0000
,
0000
0000
0000
0000
,
0000
0000
0000
0000
,
1000
0000
0010
0000
0100
0010
0100
0010
,
0000
1000
0001
0100
,
1000
0000
0001
0000
0100
0010
0100
0010
,
0000
0000
0000
0000
0000
0000
0000
1000
,
0010
1000
0010
1000
0001
0000
0010
0000
,
0001
0100
0001
0000
0001
1000
0000
1001
,
0000
1000
0001
0000
1000
0010
1000
0010
,
0000
0001
0000
0100
0000
0010
0000
1000
,
0000
1010
0000
0001
0000
0101
0000
1000
,
0000
1010
0000
0000
0001
0101
0000
1000
,
0000
0000
0001
0000
1000
0001
1000
0001
,
0000
0000
0000
0002
0000
0000
0000
0000
,
2003
0000
0000
0000
,
0002
3000
0000
0000
0000
0000
0000
0000
0000
0000
0000
0000
0000
0000
0000
0000
0000
0000
0000
0000
0000
0000
0000
0000
0000
0000
0000
0000
0000
0000
0000
0000
0000
0000
0000
0000
0000
0000
0000
0000
0000
0000
0000
0000
0000
0000
0000
0000
0000
0000
0000
0000
0000
0000
0000
0000
0000
0000
0000
0000
0000
0000
0000
0000
0000
0000
0000
0000
0000
0000
0000
0000
0000
0000
0000
0000
0000
0000
0000
0000
0000
0000
0000
0000
0000
0000
0000
0000
0000
0000
0000
0000
0000
0000
0000
0000
,
0203
0000
0000
0000
,
0310
0000
1000
0001
0000
1000
0000
1000
,
0001
1000
0001
0000
0100
0000
1000
0010
,
1000
0010
1000
0000
0010
0000
0100
0000
,
2000
3002
0203
0320
,
2030
3002
0103
0101
,
0001
0100
0001
0100
0001
0000
1000
0000
,
0010
0100
0010
0100
0010
0000
1000
0000
,
0001
0100
0001
0100
0001
0000
1000
0000
,
0002
0000
2003
0000
3020
0000
0130
2002
,
0000
3003
0000
0220
0000
0330
0000
2020
,
0000
3030
0000
0000
0001
1000
0000
0002
,
0000
0000
2003
0000
,
3002
0000
0000
1003
0000
0010
0000
2000
,
0000
3002
0000
0203
,
0000
0000
0000
0301
0000
1000
0000
0002
,
0000
2003
3020
0230
,
0302
0000
0000
1003
0000
0001
0000
2000
,
0000
3002
0000
1003
,
0001
0000
1000
0000
0001
0000
0001
0000
0100
0000
0100
0000
,
0000
0000
1000
0010
1000
0000
0010
0000
,
0100
0000
0001
0100
0001
0000
0100
0000
,
0010
0000
1000
0001
1000
0000
0001
0000
,
0100
0000
1000
0010
1000
0000
0001
0000
,
1000
0010
1000
0000
0001
0010
0100
0000
,
1000
0100
1000
0000
0001
0100
0001
0000
,
1001
0000
0000
0110
0000
0000
1001
0000
,
1000
2002
0000
0000
0000
0000
3003
1000
,
0010
1000
0010
1000
0010
0000
2000
0000
,
3002
0203
0302
1000
,
1003
0010
1000
0000
0100
0000
0010
0000
,
0001
0100
0001
0000
1000
0000
0001
0000
,
1000
0001
1000
0001
1000
0000
0002
0000
,
2003
3020
0230
0302
,
1003
0001
1000
0000
0010
0000
0100
0000
,
1000
0010
1000
0000
0000
1000
0001
1000
,
0002
0000
1003
0010
1000
0000
0001
0100
,
0001
0000
1000
0000
1001
0000
0001
0100
,
0001
0000
1000
0010
1000
0000
0001
0100
,
0001
0000
1000
0001
1000
0001
1000
0002
,
0000
0000
2003
0000
3010
0000
0001
2000
,
0000
0000
3001
0200
0000
0000
0310
2000
,
0000
3002
1003
0010
,
0001
0000
0100
0001
0000
1000
0000
0010
,
1000
0010
1000
0010
1000
0000
0002
0000
,
2003
3020
0230
0302
,
1003
0010
1000
0000
0010
0000
0100
0000
,
0001
0100
0001
0000
1000
0000
0010
0000
,
1000
0001
1000
0001
1000
0000
0002
0000
,
2003
3020
0230
0302
,
1003
0010
1000
0000
0001
0000
0100
0000
,
1000
0001
1000
0000
0100
0000
0001
0000
,
1000
0001
1000
0001
,
0100
0000
1000
0001
0000
1000
0000
0001
,
0000
1000
0001
0000
1000
0000
0002
0000
,
2003
0000
3002
0000
0203
0000
0300
1001
,
0000
1000
0000
1001
0000
0001
0000
0101
,
0000
0100
0000
1000
1010
0000
0000
1000
,
0001
0100
0010
1000
0001
0000
1000
0100
,
0010
0000
1000
0000
0001
1000
0000
1001
,
0000
0001
1000
0000
1000
0001
1000
0001
,
0000
0110
0000
1010
0000
0101
0000
1000
,
0000
1001
0000
0001
0000
0101
0000
1000
,
0000
1010
0000
0000
0010
0110
0000
0000
,
0000
1000
0010
1000
0010
1000
0000
0001
,
0000
0000
0000
0000
0000
0000
0000
1000
,
0000
1001
0000
0000
;

//--------------- dance-single - Destrier75 ----------------
#NOTES:
     dance-single:
     Destrier75:
     Hard:
     13:
     0.548,0.697,0.337,0.366,0.019:
0000
0000
0000
0000
,
0000
0000
0000
0000
,
0000
0000
0000
0000
,
0000
0000
0000
0000
,
0000
0000
0000
0000
,
0100
0000
1001
0000
1000
0010
0100
0002
,
0000
2003
3002
0203
,
0301
0100
0100
0010
1000
0100
0010
0001
,
0000
0100
0010
1000
0001
0100
0010
1000
,
0100
0010
0001
1000
0010
0010
0100
0002
,
0000
1000
1003
0000
1000
0010
0000
1010
,
0000
0010
0100
0001
1000
0100
0010
1001
,
0000
0110
0000
1010
0000
0101
0000
1000
,
0010
1000
0001
0100
0001
1000
0100
0010
,
0001
1000
0001
1000
0001
1001
0000
2000
,
0000
3001
0100
0010
1000
0100
0010
2000
,
0000
0000
0000
0000
0000
0000
0000
0000
0000
0000
0000
0000
0000
0000
0000
0000
0000
0000
0000
0000
0000
0000
0000
0000
0000
0000
0000
0000
0000
0000
0000
0000
0000
0000
0000
0000
0000
0000
0000
0000
0000
0000
0000
0000
0000
0000
0000
0000
0000
0000
0000
0000
0000
0000
0000
0000
0000
0000
0000
0000
0000
0000
0000
0000
0000
0000
0000
0000
0000
0000
0000
0000
0000
0000
0000
0000
0000
0000
0000
0000
0000
0000
0000
0000
0000
0000
0000
0000
0000
0000
0000
0000
0000
0000
0000
0000
3002
0000
0000
0000
0000
0000
0000
0000
0000
0000
0000
0000
0000
0000
0000
0000
0000
0000
0000
0000
0000
0000
0000
0000
0000
0000
0000
0000
0000
0000
0000
0000
0000
0000
0000
0000
0000
0000
0000
0000
0000
0000
0000
0000
0000
0000
0000
0000
0000
0000
0000
0000
0000
0000
0000
0000
0000
0000
0000
0000
0000
0000
0000
0000
0000
0000
0000
0000
0000
0000
0000
0000
0000
0000
0000
0000
0000
0000
0000
0000
0000
0000
0000
0000
0000
0000
0000
0000
0000
0000
0000
0000
0000
0000
0000
0003
,
2000
0000
3010
0200
0000
0000
0301
2000
,
0000
0000
3001
0200
0000
0000
0310
2000
,
0000
0000
0001
0000
,
3001
0000
1000
0001
0000
1001
0000
1000
,
0100
0010
0001
0000
0101
0000
1000
0010
,
0010
0100
0001
0000
1001
0000
1001
0000
,
0110
1010
0101
1010
,
2001
0000
0000
0010
3010
0000
0010
0000
,
2000
0000
3010
0200
0000
0300
0001
2000
,
0000
0000
3001
0200
0000
0300
0010
2000
,
0000
0001
3001
1001
,
1010
0000
0101
0000
1010
0000
1000
0010
,
1000
0001
0100
0001
1000
0100
0010
0001
,
1000
0100
0010
0001
1000
1001
0000
2000
,
0000
0001
0100
0001
,
0100
0000
3001
0101
0000
1001
0000
0102
,
0000
1000
0010
1000
,
0010
0000
1003
1010
0000
0110
0000
0102
,
0000
1000
0010
1000
,
0010
0000
0103
0101
0000
0110
0000
2010
,
0000
0100
0001
0100
,
3001
0000
0010
0000
0100
0000
0001
0000
1000
0000
0100
0000
,
0000
0000
1000
0010
1000
0010
1000
0020
,
0000
0000
0130
0001
0100
0001
0100
0002
,
0000
0000
1003
0001
1000
0001
1000
0002
,
0000
0000
1003
0010
1000
0010
1000
0010
,
1000
0100
0010
0001
1000
0010
0100
0001
,
1000
0010
1000
0001
0100
0001
1000
0001
,
1001
0000
0000
0110
0000
0000
1001
0000
,
1000
1000
0010
0100
0001
0100
0001
1000
,
0100
0010
0001
1000
0010
0010
0200
0000
,
0302
0000
2003
0000
3020
0000
1030
0100
,
0010
0001
1000
0010
0100
0001
1000
0010
,
0010
0100
0001
0100
0010
1000
0001
0100
,
0100
0010
1000
0010
0100
0001
2000
0000
,
3020
0000
0230
0000
0302
0000
1003
0100
,
0010
0001
1000
0010
0100
0001
0100
0100
,
0010
1000
0100
0010
0001
1000
0010
1000
,
0001
0100
0001
1000
0100
0010
0001
1000
,
0010
1000
0001
0100
0001
1000
0010
0100
,
0001
0100
0100
0010
1000
0100
0010
0001
,
1000
0010
0010
0100
0001
1000
0010
0200
,
0000
0000
0000
0000
0000
0000
0000
0000
0000
0000
0000
0000
0000
0300
0000
0000
0002
0000
0000
0000
0000
0000
0000
0000
0000
0000
0000
0000
0000
0000
0000
0000
2003
0000
0000
0000
0000
0000
0000
0000
0000
0000
0000
0000
0000
0000
0000
0000
3010
0000
0000
0000
0000
0000
0000
0000
0200
0000
0000
0000
0000
0000
0000
0000
,
0000
0000
0301
2000
0000
0000
3001
0200
,
0000
0301
0100
0010
1000
0010
0010
1001
,
0000
0110
0000
1001
0000
2000
0000
3001
,
0100
0010
1000
0001
0010
0010
2000
0000
,
3020
0000
0230
0000
0302
0000
1003
0010
,
0010
0100
0001
1000
0100
0010
0001
1000
,
0010
1000
0001
0100
0001
1000
0100
0020
,
0000
1030
0001
0100
0010
1000
0002
0000
,
0203
0000
0320
0000
2030
0000
3001
0100
,
0100
0010
1000
0100
0010
0001
1000
0010
,
1000
0001
0100
0001
1000
0100
0010
0001
,
1000
0010
0100
0001
1010
0000
0110
0000
,
0101
0000
1000
0010
0000
1010
0000
0101
,
0000
1000
0001
1000
0001
0000
1010
0000
,
0110
0000
0101
0000
0110
0000
1000
0010
,
1000
0001
0100
0001
0100
0100
0010
1000
,
0010
0010
1000
0001
1001
1001
0000
1000
,
0010
0010
0100
0001
0010
0100
1000
0002
,
0000
1000
1003
0100
0010
1000
0000
2000
,
0000
0001
3001
0100
0001
0010
0100
2000
,
0000
3001
0000
0101
0000
0110
0000
1000
,
0001
1000
0001
1000
0010
1000
0010
0100
,
0001
0100
0001
1000
0010
2010
0000
3000
,
0000
1000
0100
0010
0001
0100
0010
2000
,
0000
0000
3001
0100
0010
1000
0001
1001
,
0000
0110
0000
0000
;
