#TITLE:Kensei;
#SUBTITLE:;
#ARTIST:Pure 100%;
#TITLETRANSLIT:;
#SUBTITLETRANSLIT:;
#ARTISTTRANSLIT:;
#GENRE:;
#CREDIT:Destrier75;
#MUSIC:Kensei.ogg;
#BANNER:Kensei.png;
#BACKGROUND:Kensei-bg.png;
#CDTITLE:;
#SAMPLESTART:32.474;
#SAMPLELENGTH:15.000;
#SELECTABLE:YES;
#OFFSET:1.400;
#BPMS:0.000=170.000;
#STOPS:;
#BGCHANGES:4.000=Kensei.avi=1.000=1=0=0=StretchNoLoop==CrossFade==,
99999.000=-nosongbg-=1.000=0=0=0=StretchNoLoop====
;
#FGCHANGES:;

//--------------- dance-single - Destrier75 ----------------
#NOTES:
     dance-single:
     Destrier75:
     Beginner:
     4:
     0,0,0,0,0:
0000
0000
0000
0000
,
0000
0000
0000
0000
,
0000
0000
0000
0000
,
0000
0000
0000
0000
,
0000
0000
0000
0000
,
0000
0000
0000
0000
,
0100
0000
0100
0000
,
0100
0100
0100
0000
,
0010
0000
0010
0000
,
0010
0000
0000
0000
,
1000
0000
1000
0000
,
1000
1000
1000
0000
,
0001
0000
0001
0000
,
0001
0001
0001
0000
,
0100
0000
0100
0000
,
0100
0100
0100
0000
,
0010
0000
0010
0000
,
0010
0010
0010
0000
,
1000
0000
1000
0000
,
1000
1000
1000
0000
,
0001
0000
0001
0000
,
0001
0001
0001
0000
,
0100
0000
0100
0000
,
0100
0100
0100
0000
,
1001
0000
1001
0000
,
1001
0000
0000
0000
,
1000
1000
1000
0000
,
0001
0001
0001
0000
,
0100
0100
0100
0000
,
0010
0010
0010
0000
,
1000
1000
1000
0000
,
0001
0001
0001
0000
,
0100
0100
0100
0000
,
0010
0010
0010
0000
,
1000
0000
1000
0000
,
0001
0000
0001
0000
,
0100
0000
0100
0000
,
0010
0000
0010
0000
,
1000
1000
1000
0000
,
0001
0001
0001
0000
,
0100
0100
0100
0000
,
0010
0010
0010
0000
,
1000
0000
1000
0000
,
0001
0000
0001
0000
,
0100
0000
0100
0000
,
0001
0000
0000
0000
,
1000
0000
1000
0000
,
1000
1000
1000
0000
,
0001
0000
0001
0000
,
0001
0001
0001
0000
,
0100
0000
0100
0000
,
0100
0100
0100
0000
,
0010
0000
0010
0000
,
0010
0010
0010
0000
,
1000
1000
1000
0000
,
0001
0001
0001
0000
,
0100
0100
0100
0000
,
0010
0010
0010
0000
,
1000
0000
1000
0000
,
0010
0000
0010
0000
,
0100
0000
0100
0000
,
0001
0000
0001
0000
,
1000
0000
1000
0000
,
0001
0000
0001
0000
,
0100
0000
0100
0000
,
0010
0000
0010
0000
,
0110
0000
0110
0000
,
0110
0000
0110
0000
,
0110
0000
0110
0000
,
0110
0000
0000
0000
,
1000
1000
1000
0000
,
0001
0001
0001
0000
,
0100
0100
0100
0000
,
0010
0010
0010
0000
,
1001
0000
1001
0000
,
1001
0000
1001
0000
,
1000
1000
1000
0000
,
0001
0001
0001
0000
,
0100
0100
0100
0000
,
0010
0010
0010
0000
,
1000
1000
1000
0000
,
0001
0001
0001
0000
,
0110
0000
0110
0000
,
0110
0000
0110
0000
,
1000
1000
1000
0000
,
0001
0001
0001
0000
,
1001
0000
0000
0000
;

//--------------- dance-single - Destrier75 ----------------
#NOTES:
     dance-single:
     Destrier75:
     Easy:
     7:
     0,0,0,0,0:
0000
0000
0000
0000
,
0000
0000
0000
0000
,
0000
0000
0000
0000
,
0000
0000
0000
0000
,
0000
0000
0000
0000
,
0000
0000
0000
0000
,
0100
0100
0100
0000
,
0010
0000
0010
0000
,
1000
1000
1000
0000
,
2002
0000
0000
3003
,
1000
1000
1000
0000
,
0001
0000
0001
0000
,
0100
0100
0100
0000
,
0010
0000
0010
0000
,
0100
0100
0100
0000
,
0001
0000
0001
0000
,
1000
1000
1000
0000
,
0010
0000
0010
0000
,
1000
0010
1000
0010
,
0100
0001
0100
0001
,
1000
1000
0001
0001
,
0100
0100
0010
0010
,
1000
0010
1000
0010
,
0100
0001
0100
0001
,
1001
0000
0110
0000
,
1001
0000
0000
0000
,
1000
1000
0001
0001
,
0100
0100
0010
0010
,
1000
0010
1000
0010
,
0100
0001
0100
0001
,
1000
1000
0001
0001
,
0100
0100
0010
0010
,
1000
0010
1000
0010
,
0100
0001
0100
0001
,
2000
0000
0000
0000
0000
0000
0000
0000
0000
0000
0000
0000
0000
0000
0000
0000
0000
0000
0000
0000
0000
0000
0000
0000
0000
0000
0000
0000
0000
0000
0000
0000
0000
0000
0000
0000
0000
0000
0000
0000
0000
0000
0000
0000
0000
0000
0000
0000
0000
0000
0000
0000
0000
0000
0000
0000
0000
0000
0000
0000
0000
0000
0000
0000
0000
0000
0000
0000
0000
0000
0000
0000
0000
0000
0000
0000
0000
0000
0000
0000
0000
0000
0000
0000
0000
0000
0000
0000
0000
0000
0000
0000
0000
0000
0000
3000
,
0002
0000
0000
0000
,
0203
0000
0000
0000
,
0320
0000
0000
0030
,
1000
1000
0001
0001
,
0100
0100
0010
0010
,
1000
0010
1000
0010
,
0100
0001
0100
0000
,
1000
1000
1000
1000
,
0001
0001
0001
0001
,
0100
0100
0100
0100
,
1000
0000
0001
0000
,
1000
1000
0001
0001
,
0100
0100
0010
0010
,
1000
1000
0001
0001
,
0100
0100
0010
0010
,
1000
0010
1000
0010
,
0100
0001
0100
0001
,
1000
1000
0001
0001
,
0100
0100
0010
0010
,
1000
1000
0001
0001
,
0100
0100
0010
0010
,
1000
1000
0001
0001
,
0100
0100
0010
0010
,
1000
0010
1000
0010
,
0100
0001
0100
0001
,
1000
1000
0001
0001
,
0100
0100
0010
0010
,
1000
0000
0001
0001
,
0001
0000
0100
0000
,
0010
0010
0010
0000
,
0100
0000
1000
1000
,
2002
3003
0220
0330
,
2002
3003
0220
0330
,
1000
0001
1000
0001
,
1000
0000
0000
0000
,
1000
1000
0001
0001
,
0100
0100
0010
0010
,
1000
1000
0001
0001
,
0100
0100
0010
0010
,
1001
0000
0110
0000
,
1001
0000
0110
0000
,
1000
1000
0001
0001
,
0100
0100
0010
0010
,
1000
0100
0010
0001
,
1000
0010
0100
0001
,
0010
0100
1000
0010
,
0100
0001
1000
0001
,
1001
0000
0110
0000
,
1001
0000
0110
0000
,
1000
0001
1000
0001
,
0100
0010
0100
0010
,
1001
0000
0000
0000
;

//--------------- dance-single - Destrier75 ----------------
#NOTES:
     dance-single:
     Destrier75:
     Medium:
     11:
     0,0,0,0,0:
0000
0000
0000
0000
,
0000
0000
0000
0000
,
0000
0000
0000
0000
,
0000
0000
0000
0000
,
0000
0000
0000
0000
,
0000
0000
0000
0000
,
1000
0010
0100
0001
,
1000
1000
0001
0001
,
0100
0000
0010
0000
1000
0000
0001
2002
,
0000
0000
0000
0000
0000
0000
0000
3003
,
1000
0010
0100
0001
,
1000
1000
0001
0001
,
0100
0100
0010
0010
,
1000
0010
1000
0001
,
0100
0100
0010
0010
,
1000
0010
1000
0001
,
0100
0100
0010
1000
,
0001
0000
0100
0000
0001
0100
0001
0000
,
1000
0000
0010
0000
2000
0000
0000
0000
3001
0000
0000
0001
0000
0000
0001
0000
,
1000
0100
0010
0001
1000
0010
1000
0001
,
0100
0000
0001
0000
0200
0000
0000
0000
0310
0000
0000
0010
0000
0000
0010
0000
,
1000
0100
0010
0001
1000
0010
0100
0001
,
1000
0000
0001
0000
2000
0000
0000
0000
0001
0000
0000
0001
0000
0000
3001
0000
,
1000
0010
0100
0001
1000
0100
0000
0010
,
0001
0000
1000
0000
0001
0000
0000
0000
0100
0000
0000
0010
0000
0000
0100
0000
,
0000
0010
0100
0010
,
1000
0010
0100
0001
1000
0100
0010
0001
,
1000
0010
1000
0001
0100
0001
1000
0001
,
0100
0010
1000
0001
0100
0010
1000
0010
,
0100
0001
0100
0001
1000
0010
0100
0001
,
1000
0010
0100
0001
1000
0100
0010
0001
,
1000
0010
1000
0001
0100
0001
1000
0010
,
1000
0100
0010
0001
1000
0010
0100
0001
,
1000
0010
0100
0001
2000
0000
0000
0000
,
3002
0000
0203
0000
,
0320
0000
2030
0000
,
3002
0000
2003
0000
,
3020
0230
0000
0300
,
1000
0100
0010
0001
0100
0100
0010
1000
,
0100
0010
0001
0100
1000
0010
1000
0010
,
0001
0100
0001
0100
0001
0000
0010
0000
,
1000
0010
1000
0000
1001
0000
0000
0000
,
0001
1000
0001
1000
,
0010
0100
0010
0100
,
1000
0010
1000
0000
0001
0100
0001
0000
,
2000
0000
0000
0000
0000
0000
0000
0000
0000
0000
0000
0000
0000
0000
0000
0000
0000
0000
0000
0000
0000
0000
0000
0000
0000
0000
0000
0000
0000
0000
0000
0000
0000
0000
0000
0000
0000
0000
0000
0000
0000
0000
0000
0000
0000
0000
0000
0000
0000
0000
0000
0000
0000
0000
0000
0000
0000
0000
0000
0000
0000
0000
0000
0000
0000
0000
0000
0000
0000
0000
0000
0000
0000
0000
0000
0000
0000
0000
0000
0000
0000
0000
0000
0000
0000
0000
0000
0000
0000
0000
0000
0000
0000
0000
0000
0000
0002
3000
0000
0000
0000
0000
0000
0000
0000
0000
0000
0000
0000
0000
0000
0000
0000
0000
0000
0000
0000
0000
0000
0000
0000
0000
0000
0000
0000
0000
0000
0000
0000
0000
0000
0000
0000
0000
0000
0000
0000
0000
0000
0000
0000
0000
0000
0000
0000
0000
0000
0000
0000
0000
0000
0000
0000
0000
0000
0000
0000
0000
0000
0000
0000
0000
0000
0000
0000
0000
0000
0000
0000
0000
0000
0000
0000
0000
0000
0000
0000
0000
0000
0000
0000
0000
0000
0000
0000
0000
0000
0000
0000
0000
0000
0000
,
1003
0000
0001
1000
0001
1000
0001
0000
,
0100
0000
0100
0010
0100
0010
0100
0000
,
1001
0000
0001
1000
0001
1000
0001
0000
,
1000
0000
0010
0000
1000
0000
0010
0000
1000
0000
0000
1010
0000
0000
1001
0000
,
0001
0000
1000
0001
1000
0001
1000
0000
,
0010
0000
1000
0010
1000
0010
1000
0000
,
1000
0010
1000
0001
0100
0010
1000
0001
,
0100
0010
1000
0001
1000
0001
1000
0001
,
1000
0010
1000
0001
0100
0001
1000
0100
,
0010
0000
0001
0000
1000
0000
0010
0000
0100
0010
0100
0000
0001
0000
1000
0000
,
0010
1000
0001
0100
0001
1000
0001
0100
,
0001
0000
0010
0000
0100
0000
1000
0000
0001
1000
0001
0000
0100
0000
0000
0000
,
1000
0000
0001
0100
0010
1000
0001
0100
,
0001
0000
1000
0000
0010
0000
1000
0000
0001
0100
0001
0000
1000
0000
0001
0000
,
0100
0010
0100
0001
0100
0001
1000
0010
,
1000
0000
0010
0000
1000
0000
0001
0000
0100
0001
0100
0000
0010
0000
1000
0000
,
0001
0000
0100
0000
0010
0000
0001
0000
1000
0000
0000
0010
0000
0000
2000
0000
,
0000
3001
0100
0001
0100
0001
0100
0001
,
0000
1000
0010
1000
0010
1000
0010
1000
,
0000
0100
0010
0100
0010
0100
0010
0100
,
0001
0100
0102
0000
1003
0010
2010
0000
,
3001
0100
0102
0000
1003
0010
2010
0000
,
3001
0010
0100
1000
0010
0100
0001
1000
,
0002
0000
2003
3001
,
1000
0010
1000
0010
1000
0000
0100
0000
,
0001
0100
0001
0100
0001
0000
0010
0000
,
1000
0010
1000
0010
1000
0000
0001
0000
,
1000
0001
1000
0001
1000
0000
0010
0000
,
1000
0000
0010
0000
1010
0000
0001
0000
0100
0000
0101
0000
,
1000
0000
0001
0000
1001
0000
0100
0000
0010
0000
0110
0000
,
1000
0010
1000
0001
0100
0001
1000
0100
,
0010
0001
1000
0001
1000
0001
2000
0000
,
3001
0100
0001
1000
0010
1000
0002
0000
,
1003
0010
1000
0001
0100
0001
2000
0000
,
3001
0100
0001
1000
0010
1000
0002
0000
,
1003
0010
1000
0001
0100
0001
2000
0000
,
3002
0000
0000
1003
0000
0001
0000
1000
0000
0001
0000
0100
,
0000
0001
0000
1000
0000
0010
0000
1000
0000
1002
0000
0000
,
1003
0010
1000
0001
0100
0001
1000
0010
,
1000
0100
0010
0001
1000
0100
0010
0001
,
2002
0000
0000
0000
,
0000
0000
0000
0000
,
3003
0000
0000
0000
;

//--------------- dance-single - Destrier75 ----------------
#NOTES:
     dance-single:
     Destrier75:
     Hard:
     15:
     0,0,0,0,0:
0000
0000
0000
0000
,
0000
0000
0000
0000
,
0000
0000
0000
0000
,
0000
0000
0000
0000
,
0000
0000
0000
0000
,
0000
0000
0000
0000
,
0100
0000
0000
0000
0010
0000
0000
0000
0100
0000
0000
0100
0000
0000
0100
0000
,
0000
0001
0000
0000
0001
0000
0000
0001
0000
0000
1000
0000
0000
1000
0000
0000
,
1000
0000
0000
0000
1001
0000
0000
0000
0001
0000
0000
1000
0000
0000
2002
0000
,
0000
0000
0000
0000
0000
0000
0000
3003
,
1000
0000
0000
0000
1000
0000
0000
0000
1000
0000
0000
0001
0000
0000
1000
0000
,
0000
0001
0000
0000
0010
0000
0000
0100
0000
0000
1000
0000
0000
0001
0000
0000
,
0100
0000
0000
0000
1001
0000
0000
0000
1000
0000
0000
0001
0000
0000
1000
0000
,
0000
0001
0000
0000
1000
0000
0000
0000
1000
0000
0001
0000
0100
0000
0001
0000
,
1000
0000
0000
0000
0001
0000
0000
0000
1000
0000
0000
0010
0000
0000
1000
0000
,
0000
0001
0000
0000
0100
0000
0000
0001
0000
0000
1000
0000
0010
0000
0000
0000
,
1000
0000
0000
0010
0000
0000
0000
0000
1000
0000
0000
0001
0000
0000
1001
0000
,
1000
0000
0010
0000
0100
0000
0001
0000
1000
0000
0001
0000
0100
0010
0100
0000
,
1000
0000
0001
0000
1000
0000
0000
0000
0001
0000
0000
1000
0000
0000
0010
0000
,
0001
0100
0001
0100
0010
1000
0010
0100
,
1000
0000
0010
0000
1000
0000
0000
0000
0001
0000
0000
1000
0000
0000
1000
0000
,
0001
0100
0010
1000
0010
0100
0001
0100
,
1000
0000
0001
0000
1000
0000
0000
0000
0001
0000
0000
1000
0000
0000
1001
0000
,
0100
0000
0100
0000
0010
0000
0010
0000
1000
0001
1000
0000
0001
1000
0001
0000
,
1000
0000
0001
0000
1000
0000
0000
0000
1001
0000
0000
0110
0000
0000
1001
0000
,
0000
0000
0000
0000
1000
0000
0000
0000
0001
1000
0001
0000
1000
0000
0010
0000
,
1000
0000
0001
1000
0001
0000
0100
0000
0010
0000
1000
0000
0001
0000
0100
0000
,
0001
0000
0100
0000
1000
0000
0001
0000
1000
0001
1000
0000
0100
0000
0010
0000
,
1000
0000
0001
1000
0001
0000
0100
0000
0010
0000
1000
0000
0001
0000
0100
0000
,
0010
0000
1000
0000
0001
0000
0100
0000
0001
0100
0001
0000
1000
0000
0010
0000
,
0100
0000
1000
0001
1000
0000
0100
0000
0010
0000
1000
0000
0001
0000
0100
0000
,
0010
0000
1000
0000
0001
0000
0100
0000
1000
0010
1000
0000
0010
0000
0100
0000
,
1000
0000
0001
1000
0001
0000
0100
0000
1000
0000
0010
0000
0100
0000
0001
0000
,
1000
0000
0010
0000
0100
0000
0001
0000
1000
0001
1000
0000
0100
0000
0010
0000
,
2000
0001
3002
0100
,
0203
0010
0320
1000
,
2030
0001
3002
1000
,
2003
0001
3002
1003
,
1000
0000
0001
1000
0001
0000
0100
0000
1000
0000
0010
0000
0100
0000
0001
0000
,
1000
0000
0001
0000
0100
0000
0001
0000
0100
0001
0100
0000
0010
0000
0100
0000
,
1000
0000
0001
1000
0001
0000
0100
0000
1000
0000
0010
0000
0100
0000
0001
0000
,
1000
0001
1000
0001
2002
0000
0000
3003
,
1001
0000
0000
0000
0001
0000
0000
0100
0000
0000
0010
0000
0000
1000
0000
0000
,
1001
0000
0000
0000
1000
0000
0000
0010
0000
0000
0100
0000
0000
0001
0000
0000
,
1000
0000
0010
0000
1000
0000
0010
0000
1000
0100
1000
0000
0001
0100
0001
0000
,
2000
0000
3002
1000
,
1003
0000
0010
0000
1000
0010
1000
0000
0100
0000
0010
0000
1000
0000
0001
0000
,
0100
0000
0001
0000
1000
0001
1000
0000
0100
0000
0010
0000
1000
0000
0001
0000
,
0100
0000
0001
0000
0100
0010
0100
0000
1000
0000
0010
0000
0100
0000
0001
0000
,
1000
0010
1000
0000
0001
0100
0001
0000
1001
0000
0000
0110
0000
0000
1001
0000
,
1000
0000
0010
0000
0100
0010
0100
0000
0001
0000
0100
0000
0010
0000
1000
0000
,
0001
0000
0100
0000
1000
0001
1000
0000
0001
0000
0100
0000
0010
0000
1000
0000
,
0100
0000
0010
1000
0010
0000
1000
0000
0100
0000
0010
0000
0001
0000
1000
0000
,
0001
0000
0100
0000
0010
0000
1000
0000
0001
0100
0001
0000
0010
0000
0100
0000
,
1000
0000
0010
1000
0010
0000
0100
0000
0001
0000
0100
0000
1000
0000
0010
0000
,
1000
0000
0001
0000
1000
0000
0010
0000
1000
0001
1000
0000
0010
0000
0100
0000
,
1000
0000
0001
0100
0001
0000
1000
0000
0010
0000
0100
0000
0001
0000
1000
0000
,
0001
0000
0100
0000
1000
0000
0001
0000
0100
0001
0100
0000
0001
0000
0000
0000
,
1000
0000
0001
1000
0001
0000
0100
0000
1000
0000
0001
0000
0100
0000
0010
0000
,
1000
0000
0001
0000
0100
0000
0010
0000
1000
0001
1000
0000
0001
0000
0100
0000
,
1000
0000
1000
0000
0001
0000
0001
0000
1000
0010
1000
0000
0001
0100
0001
0000
,
1000
0000
0010
0000
0100
0000
0001
0000
1000
0001
1000
0000
0100
0000
0010
0000
,
0001
0000
0100
0000
0002
0000
0000
0000
1003
0000
0000
0010
0000
0000
1010
0000
,
0000
1000
0001
1000
0010
1000
0001
1000
,
0000
0001
1000
0001
0100
0001
1000
0001
,
0000
1000
0010
1000
0001
1000
0010
1000
,
1000
0001
1000
0000
0100
0000
0010
0000
1000
0001
1000
0000
0001
0000
0100
0000
,
1000
0010
1000
0000
0100
0000
0010
0000
1000
0001
1000
0000
0001
0000
0100
0000
,
1000
0010
1000
0000
0001
0100
0001
0000
1000
0010
1000
0000
0001
0100
0001
0000
,
2002
0000
0000
3003
,
1000
0001
1000
0000
0100
0000
0010
0000
1000
0000
0001
0000
0100
0000
0001
0000
,
0100
0001
0100
0000
0010
0000
0100
0000
1000
0000
0001
0000
0100
0000
0001
0000
,
0100
0010
0100
0000
1000
0000
0010
0000
0100
0000
0001
0000
1000
0000
0010
0000
,
1000
0010
1000
0000
0001
0000
0100
0000
0010
0000
0100
0000
0001
0000
1000
0000
,
0001
0100
0001
0000
0100
0000
1000
0010
1000
0000
0010
0000
,
0100
0010
0100
0000
0010
0000
1000
0001
1000
0001
0000
0000
,
1000
0100
0010
0000
0001
0010
0100
0000
1000
0010
1000
0000
0001
0100
0001
0000
,
1000
0010
1000
0000
0001
0100
0001
0000
1000
0100
0010
0000
0001
0010
0100
0000
,
1000
0010
1000
0000
0100
0000
0010
0000
1000
0000
0001
0000
0100
0000
0010
0000
,
0001
0100
0001
0000
0100
0000
0010
0000
1000
0000
0010
0000
0100
0000
0001
0000
,
1000
0010
1000
0000
0100
0000
0010
0000
1000
0000
0001
0000
0100
0000
0010
0000
,
1000
0001
1000
0000
0001
0000
0100
0000
0010
0000
1000
0000
0001
0000
0100
0000
,
1001
0000
0000
1000
0001
1000
0001
0000
0000
0001
0100
0001
,
0100
0000
0000
1000
0010
1000
0010
0000
0000
1001
0000
0000
,
0001
0100
0001
0000
1000
0010
1000
0000
0001
0010
0100
0000
1000
0100
0010
0000
,
0001
0100
0001
0000
1000
0010
1000
0000
0001
0010
0100
0000
1000
0100
0010
0000
,
2002
0000
0000
0000
,
0000
0000
0000
0000
,
3003
0000
0000
0000
;

//--------------- dance-single - Destrier75 ----------------
#NOTES:
     dance-single:
     Destrier75:
     Challenge:
     17:
     0.903,1,0.259,0.154,0.903:
0000
0000
0000
0000
,
0000
0000
0000
0000
,
0000
0000
0000
0000
,
0000
0000
0000
0000
,
0000
0000
0000
0000
,
0000
0000
0000
0000
,
0010
0000
0000
0000
1000
0000
0000
0000
0001
0000
0000
1000
0000
0000
1001
0000
,
0000
0001
0000
0000
0001
0000
0000
0100
0000
0000
0100
0000
0000
0010
0000
0000
,
0010
0000
0000
0000
0100
0000
0000
0000
0010
0000
0000
0100
0000
0000
0220
0000
,
0000
0000
0000
0000
0000
0000
0000
0330
,
1000
0000
0000
0000
0100
0000
0000
0000
0001
0000
0000
1000
0000
0000
1001
0000
,
0000
0001
0000
0000
0001
0000
0000
0100
0000
0000
0100
0000
0000
0010
0000
0000
,
0010
0000
0000
0000
1010
0000
0000
0000
1000
0000
0000
1000
0000
0000
1001
0000
,
0000
0001
0000
0000
1000
0000
0000
0000
0001
0000
0000
0000
0100
0000
0000
0000
,
1000
0000
0000
0000
1010
0000
0000
0000
0001
0000
0000
0001
0000
0000
1001
0000
,
0000
1000
0000
0000
0010
0000
0000
0010
0000
0000
0100
0000
0000
0100
0000
0000
,
0001
0000
0000
0000
1001
0000
0000
0000
1000
0000
0000
1000
0000
0000
0001
0000
,
1000
0000
0000
0001
0000
0000
1000
0000
0001
0000
0010
0000
0100
0010
0100
0000
,
1000
0000
0010
0000
1000
0000
0000
0000
1000
0000
0000
0001
0000
0000
1001
0000
,
0000
0010
0000
0000
1000
0000
0010
0000
1000
0000
0001
0000
0100
0000
0001
0000
,
1000
0000
0001
0000
1000
0000
0000
0000
0001
0000
0000
1000
0000
0000
0001
0000
,
1000
0000
1000
0010
1000
0010
0100
0010
,
0001
0000
1000
0000
0001
0000
0000
0000
1000
0000
0000
0001
0000
0000
1001
0000
,
1000
0000
1000
0000
0001
0000
0001
0000
1000
0010
1000
0010
0100
0001
0100
0001
,
1001
0000
0110
0000
1001
0000
0000
0000
1010
0000
0000
0101
0000
0000
2001
0000
,
0000
0001
0001
3001
,
1000
0000
0001
1000
0001
0000
0100
0000
1000
0000
0001
0000
0100
0000
0001
0000
,
1000
0000
0010
1000
0010
0000
0001
0000
0100
0010
0100
0010
0100
0000
0001
0000
,
1000
0000
0001
1000
0001
0000
0100
0000
1000
0000
0001
0000
0100
0000
0010
0000
,
1000
0000
0001
1000
0001
0000
0100
0000
1000
0001
1000
0001
1000
0000
0010
0000
,
1000
0000
0010
0100
0010
0000
1000
0000
0001
0000
0100
0000
0001
0000
0100
0000
,
0001
0000
1000
0001
1000
0000
0010
0000
0001
0100
0001
0100
0001
0000
0100
0000
,
1000
0000
0010
1000
0010
0000
0100
0000
0010
0000
1000
0000
0001
0000
0100
0000
,
0001
0000
0100
0000
0010
0000
0100
0000
1000
0010
1000
0010
0100
0001
0100
0001
,
0100
0000
0010
1000
0010
0000
0100
0000
0000
0000
0001
0000
1000
0000
0010
0000
,
0100
0000
0010
0100
0010
0000
1000
0000
0100
0001
0100
0001
0100
0000
0001
0000
,
1000
0000
0001
0100
0001
0000
0010
0000
1000
0000
0010
0000
0100
0000
0010
0000
,
1000
0000
0001
1000
0001
0000
0100
0000
1000
0010
1000
0010
1000
0000
0000
0000
,
0010
0000
0001
0100
0001
0000
1000
0000
0010
0000
0100
0000
0001
0000
0100
0000
,
1000
0000
0010
1000
0010
0000
0001
0000
0100
0010
0100
0010
0100
0000
0001
0000
,
1000
0000
0001
0100
0001
0000
0100
0000
0010
0000
1000
0000
0001
0000
0010
0000
,
1000
0000
0001
0000
1000
0001
1000
0001
2000
0000
0000
0000
3002
0000
0000
0000
,
1003
0000
0000
0000
1010
0000
0000
1010
0000
0000
0110
0000
0000
0101
0000
0000
,
0101
0000
0000
0000
1001
0000
0000
0110
0000
0000
1000
0000
0001
0000
0010
0000
,
1000
0000
1000
0000
0001
0000
0001
0000
1000
0010
1000
0010
0100
0001
0100
0001
,
0200
0000
0302
1000
,
1003
0000
0010
0000
0100
0010
0100
0010
0100
0000
0001
0000
1000
0000
0010
0000
,
0100
0000
0001
0000
1000
0010
1000
0010
1000
0000
0100
0000
0001
0000
1000
0000
,
0010
0000
0001
0000
1000
0001
1000
0001
1000
0000
0010
0000
0100
0000
0001
0000
,
1000
0010
1000
0010
0100
0001
0100
0001
1001
0000
0000
0110
0000
0000
1001
0000
,
1000
0000
0010
0000
0100
0001
0100
0001
0100
0000
0010
0000
1000
0000
0001
0000
,
1000
0000
0010
0000
0100
0010
0100
0010
0100
0000
0001
0000
1000
0000
0010
0000
,
1000
0000
0010
0100
0010
0000
1000
0000
0001
0000
0100
0000
1000
0000
0001
0000
,
0100
0000
0001
0100
0001
0000
0100
0000
1000
0001
1000
0001
1000
0000
0010
0000
,
1000
0000
0001
1000
0001
0000
0100
0000
0010
0000
1000
0000
0010
0000
0100
0000
,
0001
0000
0100
0001
0100
0000
0010
0000
1000
0001
1000
0001
1000
0000
0010
0000
,
0100
0000
0001
0100
0001
0000
0100
0000
0010
0000
1000
0000
0010
0000
0100
0000
,
1000
0000
0001
0100
0001
0000
0100
0000
1000
0001
1000
0001
2000
0000
0000
0000
,
3001
0000
0100
0001
0100
0000
0010
0000
1000
0000
0001
0000
1000
0000
0010
0000
,
0100
0000
0001
0000
0100
0000
0010
0000
1000
0001
1000
0001
1000
0000
0010
0000
,
1000
0000
1000
0000
0001
0000
0001
0000
1000
0100
0010
0001
1000
0100
0010
0001
,
1000
0000
0010
0000
0100
0000
0001
0000
1000
0001
1000
0001
1000
0000
0001
0000
,
1000
0000
0010
0000
1000
0000
0010
0000
1010
0000
0000
1001
0000
0000
1001
0000
,
0000
0001
0100
0010
1000
0010
0100
0010
,
0000
1000
0010
0100
0001
1000
0010
1000
,
0000
0001
0100
0010
1000
0001
0100
0010
,
1000
0001
1000
0001
1000
0000
0000
0000
0001
0100
0001
0100
0001
0000
0000
0000
,
1000
0010
1000
0010
1000
0000
0000
0000
0100
0010
0100
0010
0100
0000
0000
0000
,
1000
0100
0010
0001
1000
0100
0010
0001
1000
0100
0010
0001
1000
0100
0010
0001
,
2000
0000
3002
1003
,
1000
0010
1000
0010
0100
0001
0100
0001
1000
0100
0010
0001
1000
0010
1000
0010
,
0100
0001
0100
0001
1000
0100
0010
0001
1000
0010
1000
0010
0100
0001
0100
0001
,
1000
0010
1000
0010
0100
0001
0100
0001
1000
0100
0010
0001
1000
0010
1000
0010
,
0100
0001
0100
0001
1000
0100
0010
0001
1000
0010
1000
0010
1000
0000
0010
0000
,
1000
0010
1000
0000
1001
0000
0001
0100
0001
0000
1001
0000
,
1000
0010
1000
0000
1010
0000
0100
0001
0100
0002
0000
0000
,
1003
0010
1000
0010
0100
0001
0100
0001
1000
0010
1000
0010
0100
0001
0100
0001
,
1000
0100
0010
0001
1000
0100
0010
0001
1000
0100
0010
0001
2000
0000
0000
0000
,
3001
0010
0001
0010
1000
0100
1000
0100
1000
0010
0100
0001
1000
0100
0010
0001
,
1000
0010
1000
0010
0100
0001
0100
0001
1000
0100
0010
0001
1000
0100
0010
0001
,
1000
0010
1000
0010
0100
0001
0100
0001
1000
0100
0010
0001
1000
0100
0010
0001
,
1000
0010
1000
0010
0100
0001
0100
0001
1000
0100
0010
0001
1000
0100
0010
0001
,
2000
0000
0000
3001
0100
0001
0200
0000
0000
0301
1000
0001
,
2000
0000
0000
3001
0100
0001
0200
0000
0000
0302
0000
0000
,
1003
0010
1000
0010
0100
0001
0100
0001
1000
0010
1000
0010
1000
0100
0010
0001
,
1000
0010
1000
0010
0100
0001
0100
0001
1000
0100
0010
0001
2000
0000
0000
0000
,
0002
0000
0000
0000
,
0000
0000
0000
0000
,
3003
0000
0000
0000
;
