#TITLE:Jomblo;
#SUBTITLE:;
#ARTIST:Saykoji;
#TITLETRANSLIT:;
#SUBTITLETRANSLIT:;
#ARTISTTRANSLIT:;
#GENRE:;
#CREDIT:Destrier75;
#MUSIC:Jomblo.ogg;
#BANNER:Jomblo.png;
#BACKGROUND:Jomblo-bg.png;
#CDTITLE:;
#SAMPLESTART:48.626;
#SAMPLELENGTH:15.000;
#SELECTABLE:YES;
#OFFSET:1.583;
#BPMS:0.000=120.000;
#STOPS:;
#BGCHANGES:3.188=Jomblo.avi=1.000=1=0=0=StretchNoLoop==CrossFade==,
99999.000=-nosongbg-=1.000=0=0=0=StretchNoLoop====
;
#FGCHANGES:;

//--------------- dance-single - Destrier75 ----------------
#NOTES:
     dance-single:
     Destrier75:
     Beginner:
     2:
     0,0,0,0,0:
0000
0000
0000
0000
,
0000
0000
0000
0000
,
0000
0000
0000
0000
,
0000
0000
0000
0000
,
0000
0000
0000
0000
,
0100
0000
0100
0000
,
0010
0000
0010
0000
,
1000
0000
1000
0000
,
0001
0000
0001
0000
,
1000
1000
1000
0000
,
0001
0001
0001
0000
,
0100
0100
0100
0000
,
0010
0010
0010
0000
,
0001
0001
0001
0000
,
1000
1000
1000
0000
,
0010
0010
0010
0000
,
0100
0100
0100
0000
,
0001
0001
0001
0000
,
1000
1000
1000
0000
,
0010
0010
0010
0000
,
0100
0100
0100
0000
,
0001
0001
0001
0000
,
1000
1000
1000
0000
,
0001
0001
0001
0000
,
0100
0100
0100
0000
,
0010
0010
0010
0000
,
1000
1000
1000
0000
,
0001
0001
0001
0000
,
0100
0000
0010
0000
,
0100
0100
0100
0000
,
0001
0001
0001
0000
,
1000
1000
1000
0000
,
0001
0000
1000
0000
,
0001
0001
0001
0000
,
0100
0100
0100
0000
,
0010
0010
0010
0000
,
1000
1000
1000
0000
,
0100
0100
0100
0000
,
0001
0001
0001
0000
,
0010
0010
0010
0000
,
0100
0100
0100
0000
,
1000
1000
1000
0000
,
0001
0001
0001
0000
,
0100
0100
0100
0000
,
0010
0010
0010
0000
,
1000
1000
1000
0000
,
0001
0001
0001
0000
,
0100
0100
0100
0000
,
0010
0010
0010
0000
,
1000
1000
1000
0000
,
0001
0001
0001
0000
,
0100
0100
0100
0000
,
0010
0000
0100
0000
,
0001
0001
0001
0000
,
1000
1000
1000
0000
,
0010
0010
0010
0000
,
0100
0000
0010
0000
,
0001
0001
0001
0000
,
1000
1000
1000
0000
,
0010
0010
0010
0000
,
0100
0000
0010
0000
,
0001
0001
0001
0000
,
1000
1000
1000
0000
,
0010
0010
0010
0000
,
0001
0001
0001
0000
;

//--------------- dance-single - Destrier75 ----------------
#NOTES:
     dance-single:
     Destrier75:
     Easy:
     5:
     0,0,0,0,0:
0000
0000
0000
0000
,
0000
0000
0000
0000
,
0000
0000
0000
0000
,
0000
0000
0000
0000
,
0000
0000
0000
0000
,
1000
1000
1000
0100
,
0001
0001
0001
0010
,
0100
0100
0100
0010
,
0010
0010
0010
0010
,
0100
0010
0100
0010
,
1000
0001
1000
0001
,
0100
0001
0100
0001
,
0010
1000
0010
1000
,
0010
0001
0010
0001
,
1000
0001
1000
0001
,
0100
0001
0100
0001
,
0010
1000
0010
1000
,
0010
0001
0010
0001
,
1000
0001
1000
0001
,
1000
0010
1000
0010
,
1000
0100
1000
0100
,
1000
0001
1000
0001
,
1000
0001
0100
0001
,
0100
0010
0001
0010
,
0001
1000
0001
1000
,
0001
0001
0001
1000
,
0001
0001
0001
0100
,
0010
0010
0010
1000
,
0100
0100
0100
0001
,
0010
0010
0010
0001
,
0100
0100
0100
1000
,
0001
0001
0001
0100
,
0010
0010
0010
0001
,
1000
0001
1000
0001
,
0001
0100
0001
0100
,
0010
0001
0010
0001
,
1000
0100
1000
0100
,
0010
0100
0010
0100
,
0001
0100
0001
0100
,
0010
1000
0010
1000
,
0001
0100
0001
0100
,
0010
0001
0010
0001
,
1000
0001
1000
0001
,
0100
0001
0100
0001
,
0100
0010
0100
0110
,
0010
1000
0010
1000
,
0001
0100
0010
0100
,
0001
1000
0001
0100
,
0001
0100
0010
0110
,
1000
0001
1000
0001
,
0100
0001
0100
0001
,
0100
0001
0010
0100
,
1000
0001
0100
0001
,
0010
1000
0010
0100
,
0001
0100
0010
0100
,
0010
1000
0100
0001
,
1000
0001
0100
0001
,
0010
0010
0100
0100
,
1000
1000
0001
0001
,
0100
0100
0010
0010
,
0001
0001
1000
1000
,
0001
0001
0001
0001
,
1000
1000
1000
1000
,
0010
0010
0010
0010
,
0100
0100
0100
0100
,
0010
0000
0000
0000
;

//--------------- dance-single - Destrier75 ----------------
#NOTES:
     dance-single:
     Destrier75:
     Medium:
     9:
     0,0,0,0,0:
0000
0000
0000
0000
,
0000
0000
0000
0000
,
0000
0000
0000
0000
,
0000
0000
0000
0000
,
0000
0000
0000
0000
,
0000
1000
0001
0000
0001
0000
0100
0001
,
0100
0001
0100
0000
0010
0000
1000
0010
,
1000
0010
1000
0000
0100
0000
0010
0001
,
0010
0001
0010
0000
1000
0001
1000
0001
,
1000
0010
1000
0000
0010
0000
0100
0010
,
0100
0010
0100
0000
0001
0000
0010
0001
,
0010
0001
0010
0000
0100
0000
1000
0001
,
1000
0001
1000
0000
0001
0010
0100
1000
,
0100
0010
0100
0000
0010
0000
0001
0100
,
0001
0100
0001
0000
0010
0000
1000
0010
,
1000
0010
1000
0000
0100
0000
0010
0001
,
0010
0001
0010
0000
1000
0001
1000
0001
,
1000
0010
1000
0000
0010
0000
0100
0010
,
0100
0001
0100
0000
1000
0000
0010
1000
,
0010
1000
0010
0000
0100
0000
0001
0100
,
0001
0100
0010
0000
1000
0001
1000
0001
,
1000
0010
0100
0000
0010
0000
0100
0001
,
0100
0001
0100
0000
0010
0000
1000
0010
,
1000
0010
1000
0000
0001
0000
0100
0010
,
0100
0001
0100
0000
0001
0010
0100
1000
,
0001
0100
0010
0100
0020
0000
1000
1030
,
1000
0001
0100
0010
0200
0000
0001
0301
,
0001
0100
0010
0100
2000
0000
0001
3001
,
0010
0100
1000
0010
0100
0010
1000
0001
,
0010
0100
1000
0001
0200
0000
0010
0310
,
0001
0100
0001
0100
0020
0000
1000
1030
,
1000
0001
0100
0010
0200
0000
0001
0301
,
1000
0001
1000
0001
1000
0010
1000
0010
,
0000
1000
0010
0000
0010
0000
0100
0010
,
0100
0010
0100
0000
0001
0000
0100
0001
,
0100
0001
0010
0000
1000
0000
0010
1000
,
0010
0100
0010
0000
0001
0010
0100
1000
,
0001
0100
0010
0000
0100
0000
0010
1000
,
0001
0100
0010
0000
1000
0000
0001
0100
,
0010
1000
0001
0000
0100
0000
0010
1000
,
0001
0100
0001
0000
0001
0010
0100
1000
,
0010
1000
0001
0000
0001
0000
1000
0001
,
1000
0001
0100
0000
0010
0000
0100
0010
,
0100
0010
1000
0000
0010
0000
1000
0001
,
1000
0010
1000
0000
0100
0010
0100
0010
,
0100
0001
0100
0000
0001
0000
1000
0001
,
1000
0010
1000
0000
0010
0000
0100
0010
,
0100
0001
0100
0000
0010
0000
1000
0001
,
1000
0001
0100
0000
0010
0100
0010
0100
,
0010
1000
0001
1000
0002
0000
0100
0103
,
0001
0100
0001
0100
0020
0000
0001
0031
,
1000
0001
0100
0010
0002
0000
0100
0103
,
1000
0010
1000
0010
0100
1000
0001
1000
,
0001
0100
0010
0100
0020
0000
0100
0130
,
0001
0010
0100
1000
0020
0000
1000
1030
,
1000
0010
1000
0010
0002
0000
0100
0103
,
1000
0010
0100
0010
0001
0010
0100
1000
,
0010
1000
0010
0100
0002
0000
0100
0103
,
1000
0001
0100
0001
0020
0000
1000
1030
,
1000
0001
0010
0100
2000
0000
0001
3001
,
0010
0100
1000
0001
0001
0010
0100
1000
,
0010
0001
1000
0000
1000
0000
0010
1000
,
0010
1000
0010
0000
0100
0000
0001
0100
,
0001
0100
0010
0000
0010
0000
1000
0001
,
1000
0100
0010
0000
0001
0010
0100
1000
,
0001
0000
0000
0000
;

//--------------- dance-single - Destrier75 ----------------
#NOTES:
     dance-single:
     Destrier75:
     Hard:
     12:
     0.515,0.443,0.235,0.114,0.133:
0000
0000
0000
0000
,
0000
0000
0000
0000
,
0000
0000
0000
0000
,
0000
0000
0000
0000
,
0000
0000
0000
0000
,
0000
0000
1000
0000
0010
0000
0000
0000
1010
0000
0000
0000
0001
0000
1000
0001
,
1000
0000
0100
0000
0001
0000
0000
0000
0101
0000
0000
0000
0001
0000
0100
0001
,
0100
0000
1000
0000
1001
0000
0000
0000
0010
0000
0000
0000
0100
0000
0010
0001
,
0010
1000
0101
0000
0010
0100
0010
0001
,
1000
0000
0010
0000
0001
0000
0000
0000
0101
0000
0000
0000
1000
0000
0001
1000
,
0001
0000
0001
0000
1000
0000
0000
0000
1010
0000
0000
0000
1000
0000
0100
0010
,
0100
0000
0010
0000
1000
0000
0000
0000
1001
0000
0000
0000
0100
0000
0001
1000
,
0001
0001
1000
0000
0001
0010
0100
1000
,
0100
0000
0001
0000
0100
0000
0000
0000
1001
0000
0000
0000
0100
0000
0001
1000
,
0001
0000
0010
0000
0100
0000
0000
0000
0110
0000
0000
0000
1000
0000
0001
0100
,
0001
0000
0010
0000
1000
0000
0000
0000
0101
0000
0000
0000
1000
0000
0100
1000
,
0100
0100
1000
0000
1000
0010
0100
0010
,
0001
0000
1000
0000
0001
0000
0000
0000
0101
0000
0000
0000
1000
0000
0001
1000
,
0001
0000
0100
0000
1000
0000
0000
0000
0101
0000
0000
0000
0010
0000
0001
0010
,
0001
0000
1000
0000
0001
0000
0000
0000
1001
0000
0000
0000
0010
0000
1000
0010
,
1000
0001
1000
0000
1000
0100
0010
0001
,
0100
0000
0001
0000
0100
0000
0000
0000
1001
0000
0000
0000
0100
0000
0001
0100
,
0001
0000
1000
0000
0100
0000
0000
0000
0110
0000
0000
0000
1000
0000
0001
1000
,
0001
0000
1000
0000
0001
0000
0000
0000
0101
0000
0000
0000
0001
0000
0100
0001
,
0100
1000
0001
0000
1000
0001
1000
0001
,
1000
0010
1000
0001
2000
0000
0001
3001
,
1000
0010
1000
0001
0200
0000
0001
0301
,
0001
0100
0001
0000
0010
0000
0100
0000
2000
0000
0000
0000
0100
0000
3100
0000
,
0001
0100
0001
1000
0010
1000
0100
0010
,
1000
0010
1000
0001
0200
0000
0010
0310
,
0001
0100
1000
0010
2000
0000
0010
3010
,
1000
0001
1000
0000
0100
0000
0001
0000
2000
0000
0000
0000
0001
0000
3001
0000
,
0001
0100
0001
0010
0001
0100
0010
0010
,
1000
0000
0100
0000
0010
0000
0000
0000
0110
0000
0000
0000
0100
0000
0001
0010
,
0001
0000
1000
0000
0101
0000
0000
0000
0010
0000
0000
0000
0010
0000
1000
0010
,
1000
0000
0001
0000
0010
0000
0000
0000
0110
0000
0000
0000
0001
0000
0100
0010
,
0100
1000
0001
0000
0010
0100
1000
0100
,
0010
0000
0001
0000
1000
0000
0000
0000
1001
0000
0000
0000
0001
0000
0100
0001
,
0100
0000
1000
0000
0001
0000
0000
0000
0110
0000
0000
0000
0010
0000
1000
0010
,
1000
0000
0100
0000
0010
0000
0000
0000
0101
0000
0000
0000
0001
0000
0100
0001
,
0100
0010
0001
0000
0010
0100
1000
0001
,
1000
0000
0001
0000
0100
0000
0000
0000
0101
0000
0000
0000
0100
0000
0001
0100
,
0001
0000
1000
0000
0100
0000
0000
0000
0110
0000
0000
0000
1000
0000
0010
0100
,
0010
0000
0100
0000
1000
0000
0000
0000
1001
0000
0000
0000
0100
0000
0001
0100
,
0001
0010
0001
0000
0001
0010
0100
1000
,
0100
0000
0010
0000
0100
0000
0000
0000
0110
0000
0000
0000
1000
0000
0001
1000
,
0001
0000
0100
0000
1000
0000
0000
0000
1010
0000
0000
0000
1000
0000
0010
0100
,
0010
0000
0001
0000
1000
0000
0000
0000
0101
0000
0000
0000
0001
0000
0100
0001
,
0100
0100
0001
0000
0010
0100
1000
0100
,
0010
0001
1000
0001
2000
0000
0001
3001
,
0001
0100
0010
0100
0020
0000
1000
1030
,
1000
0001
1000
0000
0100
0000
0010
0000
0002
0000
0000
0000
0010
0000
0013
0000
,
0001
0100
0001
0010
0100
1000
0001
0100
,
0010
0100
1000
0001
0200
0000
0010
0310
,
0001
0010
1000
0001
0200
0000
0001
0301
,
1000
0010
1000
0000
0100
0000
0010
0000
0002
0000
0000
0000
0100
0000
0103
0000
,
0001
0100
0001
1000
0001
0010
0100
1000
,
0010
1000
0001
0100
0020
0000
0001
0031
,
1000
0001
0100
0010
2000
0000
0010
3010
,
1000
0001
1000
0000
0100
0000
0010
0000
0200
0000
0000
0000
0010
0000
0310
0000
,
1000
0001
1000
0100
0010
0001
1000
0010
,
1000
0000
0001
0000
1000
0000
0000
0000
1010
0000
0000
0000
1000
0000
0010
1000
,
0010
0000
0001
0000
1000
0000
0000
0000
0101
0000
0000
0000
0001
0000
0100
0010
,
0100
0000
1000
0000
0001
0000
0000
0000
0110
0000
0000
0000
1000
0000
0001
1000
,
0001
0100
1000
0000
0100
0010
0001
0010
,
0100
0000
0000
0000
;
