#TITLE:Isn't It;
#SUBTITLE:;
#ARTIST:BY2;
#TITLETRANSLIT:;
#SUBTITLETRANSLIT:;
#ARTISTTRANSLIT:;
#GENRE:;
#CREDIT:Destrier75;
#MUSIC:Isn't It.ogg;
#BANNER:Isn't It.png;
#BACKGROUND:Isn't It-bg.png;
#CDTITLE:;
#SAMPLESTART:46.497;
#SAMPLELENGTH:15.004;
#SELECTABLE:YES;
#OFFSET:1.850;
#BPMS:0.000=124.000;
#STOPS:;
#BGCHANGES:3.833=Isn't It.avi=1.000=1=0=0=StretchNoLoop==CrossFade==,
99999.000=-nosongbg-=1.000=0=0=0=StretchNoLoop====
;
#FGCHANGES:;

//--------------- dance-single - Destrier75 ----------------
#NOTES:
     dance-single:
     Destrier75:
     Beginner:
     2:
     0,0,0,0,0:
0000
0000
0000
0000
,
0000
0000
0000
0000
,
0000
0000
0000
0000
,
0000
0000
0000
0000
,
0000
0000
0000
0000
,
1000
0000
1000
0000
,
0001
0000
0001
0000
,
0100
0000
0100
0000
,
0010
0000
0010
0000
,
1000
1000
1000
0000
,
0001
0001
0001
0000
,
0100
0100
0100
0000
,
0010
0010
0010
0000
,
1000
1000
1000
0000
,
0001
0001
0001
0000
,
0100
0100
0100
0000
,
0010
0010
0010
0000
,
1000
0000
1000
0000
,
0001
0000
0001
0000
,
0100
0000
0100
0000
,
0010
0000
0010
0000
,
1000
0000
1000
0000
,
0001
0000
0001
0000
,
0010
0000
0010
0000
,
0100
0000
0100
0000
,
1000
1000
1000
0000
,
0001
0001
0001
0000
,
0100
0000
0110
0000
,
0010
0000
0110
0000
,
1000
1000
1000
0000
,
0001
0001
0001
0000
,
0001
0000
1001
0000
,
1000
0000
1001
0000
,
0001
0001
0001
0000
,
1000
1000
1000
0000
,
0010
0010
0010
0000
,
0100
0100
0100
0000
,
0010
0000
0010
0000
,
0010
0000
0010
0000
,
1000
0000
1000
0000
,
0001
0000
0001
0000
,
1000
1000
1000
0000
,
0001
0001
0001
0000
,
0100
0100
0100
0000
,
0010
0010
0010
0000
,
1000
1000
1000
0000
,
0001
0001
0001
0000
,
0100
0000
0100
0000
,
0010
0000
0010
0000
,
0001
0000
0001
0000
,
1000
0000
1000
0000
,
0001
0000
0001
0000
,
1000
1000
1000
0000
,
0001
0001
0001
0000
,
1000
0000
1000
0000
,
0010
0010
0010
0000
,
0100
0100
0100
0000
,
0001
0000
1001
0000
,
1000
0000
1001
0000
,
0100
0100
0100
0000
,
0010
0010
0010
0000
,
0001
0000
1001
0000
,
1000
0000
1001
0000
,
0001
0001
0001
0000
,
0100
0100
0100
0000
,
0010
0010
0010
0000
,
1000
1000
1000
0000
,
0001
0000
0001
0000
,
0001
0000
0000
0000
;

//--------------- dance-single - Destrier75 ----------------
#NOTES:
     dance-single:
     Destrier75:
     Easy:
     5:
     0,0,0,0,0:
0000
0000
0000
0000
,
0000
0000
0000
0000
,
0000
0000
0000
0000
,
0000
0000
0000
0000
,
0000
0000
0000
0000
,
1000
1000
1000
1000
,
0001
0001
0001
0001
,
0100
0100
0100
0100
,
0010
0010
0010
0010
,
1000
0001
1000
0001
,
0100
0001
0100
0001
,
1000
0010
1000
0010
,
0100
0010
0100
0010
,
0001
0100
0001
0100
,
0001
1000
0001
1000
,
0010
1000
0010
1000
,
0100
0001
0100
0001
,
2000
0000
0001
0000
,
3002
0000
1000
0000
,
2003
0000
0001
0000
,
3002
0000
1000
0000
,
2003
0000
0001
0000
,
3002
0000
1000
0000
,
1003
1000
0001
0001
,
1000
0001
1000
0001
,
1000
0010
2000
0010
,
3010
0001
0002
1000
,
1003
0010
1000
0001
,
1000
0010
1000
0001
,
1000
0010
2000
0010
,
3010
0100
0002
0100
,
0103
0010
1000
0001
,
0100
0010
1000
0001
,
1000
0010
1000
0010
,
0100
0001
0100
0001
,
1000
0001
1000
0001
,
1000
0010
1000
0010
,
0100
0010
0100
0010
,
0100
0010
0100
0010
,
2000
0000
0001
0000
,
3002
0000
1000
0000
,
1003
0010
1000
0010
,
0100
0001
0100
0001
,
1000
0001
1000
0001
,
0100
0010
0100
0010
,
1000
0010
1000
0010
,
0100
0001
0100
0001
,
0200
0000
0010
0000
,
0320
0000
0100
0000
,
0230
0000
0010
0000
,
0320
0000
0100
0000
,
0230
0000
0010
0000
,
0320
0000
0100
0000
,
0130
0010
1000
0001
,
0100
0010
0100
0010
,
1000
0010
0002
0100
,
0103
0010
0200
0010
,
0310
1000
0001
0100
,
1000
0001
0100
0010
,
1000
0010
0002
0100
,
0103
0010
2000
0001
,
3001
1000
0010
0100
,
0001
1000
0001
0100
,
1000
0010
1000
0100
,
0001
0100
0010
1000
,
0100
0010
0100
0010
,
1000
0001
0100
0010
,
1000
0001
1000
0001
,
1000
0000
0000
0000
;

//--------------- dance-single - Destrier75 ----------------
#NOTES:
     dance-single:
     Destrier75:
     Medium:
     8:
     0,0,0,0,0:
0000
0000
0000
0000
,
0000
0000
0000
0000
,
0000
0000
0000
0000
,
0000
0000
0000
0000
,
0000
0000
0000
0000
,
1000
0100
1000
0000
0100
0000
0010
0000
,
0100
0001
0100
0000
0010
0000
0100
0000
,
0001
0100
0001
0000
1000
0000
0010
0000
,
1000
0010
1000
0000
0010
0000
1000
0000
,
1000
0000
0001
0000
1000
0001
1000
0000
,
0001
0000
1000
0000
0001
0100
0001
0000
,
1000
0000
0010
0000
1000
0010
1000
0000
,
0010
0000
0001
0000
0100
0001
0100
0000
,
1000
0000
0010
0000
1000
0100
1000
0000
,
0100
0000
0001
0000
0100
0001
0100
0000
,
1000
0000
0010
0000
0100
0010
0100
0000
,
0001
0000
0100
0000
0001
0100
0001
0000
,
2000
0000
0010
0000
,
3020
0000
0001
0000
,
0032
0000
0100
0000
,
0203
0000
0010
0000
,
0320
0000
1000
0000
,
1030
0010
1000
0000
0100
0000
0001
0000
,
0100
0001
0100
0000
1000
0000
0010
0000
,
1000
0001
1000
0000
0001
1000
0001
0000
,
2001
0001
3001
0100
,
0021
0001
0031
0001
,
1000
0001
1000
0000
0001
0100
0001
0000
,
1000
0010
1000
0000
0010
1000
0010
0000
,
2100
0100
3100
0001
,
0102
0100
0103
1000
,
0001
1000
0001
0000
0100
0010
0100
0000
,
0001
0100
0001
0000
1000
0010
1000
0000
,
1000
0100
1000
0100
1000
0000
0010
0000
,
0100
0001
0100
0001
0100
0000
0010
0000
,
0001
0100
0001
0100
0001
0000
0010
0000
,
1000
0010
1000
0010
1000
0000
0100
0000
,
0010
0100
0010
0100
,
0010
0100
0010
0100
,
2001
0001
0001
3001
,
0102
0100
0100
0103
,
1000
0000
0010
0000
1000
0010
1000
0000
,
0001
0000
0100
0000
0001
0100
0001
0000
,
0010
0000
0100
0000
1000
0010
1000
0000
,
0100
0000
0010
0000
0100
0001
0100
0000
,
0010
0000
0100
0000
1000
0010
1000
0000
,
0001
0000
0100
0000
0001
1000
0001
0000
,
2000
0000
0010
0000
,
3020
0000
0001
0000
,
0032
0000
1000
0000
,
2003
0000
0010
0000
,
3020
0000
0100
0000
,
0130
0001
0100
0000
0010
0000
1000
0000
,
0001
1000
0001
0000
0100
0000
0010
0000
,
1000
0010
1000
0000
0001
0100
0001
0000
,
2010
0010
3010
0001
,
0210
0010
0310
0001
,
1000
0010
1000
0000
0100
0010
0100
0000
,
0010
0001
0010
0000
0001
0100
0001
0000
,
2001
0001
3001
0010
,
0201
0001
0301
0010
,
1000
0010
1000
0000
0010
0100
0010
0000
,
0001
0100
0001
0000
1000
0001
1000
0000
,
0001
0100
0001
0100
0001
0000
0010
0000
,
1000
0010
1000
0010
1000
0000
0100
0000
,
0001
0010
0001
0010
0001
0000
0100
0000
,
1000
0001
1000
0001
1000
0000
0010
0000
,
0100
0010
0100
0010
,
0100
0000
0000
0000
;

//--------------- dance-single - Destrier75 ----------------
#NOTES:
     dance-single:
     Destrier75:
     Hard:
     11:
     0.048,0.144,0.015,0.039,0:
0000
0000
0000
0000
,
0000
0000
0000
0000
,
0000
0000
0000
0000
,
0000
0000
0000
0000
,
0000
0000
0000
0000
,
1000
0100
1000
0100
1000
0000
0010
0000
,
1000
0001
1000
0001
1000
0000
0001
0000
,
1000
0001
1000
0001
1000
0000
0010
0000
,
0001
0100
0001
0100
0001
0000
0010
0000
,
1000
0010
1000
0010
1000
0001
2000
0000
,
3001
0010
0100
1000
0010
0100
0001
0010
,
1000
0010
0100
0010
0001
0100
0002
0000
,
0103
0010
1000
0001
1000
0010
0100
0001
,
1000
0100
0010
0001
1000
0001
2000
0000
,
3100
0010
0001
1000
0020
0000
0032
0000
,
1003
0010
1000
0001
0100
0010
2000
0000
,
3001
0010
0100
0001
1000
0001
2000
0000
,
3002
0203
0001
0302
,
2003
0010
0010
3002
,
0203
0000
0320
0000
0001
0000
0031
0010
,
0200
0302
2003
3020
,
2030
0000
3002
0000
0100
0000
0013
0100
,
2000
0000
0001
0000
0001
0000
3100
0010
,
0002
0000
2003
0000
3002
0000
0103
0010
,
1000
0001
1000
0001
1000
0001
1000
0001
,
2000
0000
3010
0020
0000
0001
0031
0001
,
2000
0000
3001
0200
0000
0010
0310
0000
,
1000
0010
1010
0000
0001
0100
0101
0000
,
0001
0010
0100
0001
0100
0001
0100
0000
,
0002
0000
1003
0020
0000
0100
0130
0000
,
0001
1000
0002
0000
0203
0000
0320
0000
,
1030
0001
1000
0002
0000
0100
0103
0000
,
0001
0100
0001
0000
1000
0100
0010
0001
,
1000
0010
1000
0000
0010
0100
0010
0000
,
0001
0100
0001
0000
1000
0010
1000
0000
,
0001
0100
0001
0000
1000
0100
0010
0000
,
0001
0100
0001
0200
0000
0001
0301
0000
,
1000
0001
1000
0000
0001
1000
0001
0000
,
1000
0001
1000
0000
0001
1000
0001
0000
,
1000
0000
0000
1000
0000
0000
1000
0000
0001
0000
0000
0001
0000
0000
0001
0000
,
0100
0000
0000
0100
0000
0000
0100
0000
0010
0000
0000
0010
0000
0000
0010
0000
,
1000
0100
1000
0100
1000
0001
2000
0000
,
3001
0100
0010
0100
0001
0010
0100
1000
,
0001
0010
0100
1000
0100
0010
0200
0000
,
0301
0010
0100
0001
0200
0000
0302
0000
,
1003
0010
1000
0010
1000
0100
0020
0000
,
0031
0100
0010
1000
0100
0001
0200
0000
,
0302
2003
0010
3020
,
0032
0100
0100
0203
,
2300
0000
0001
0000
0001
0000
3001
0010
,
0200
0302
2003
3020
,
0001
0000
0032
0000
0000
0000
1003
0001
,
1000
0010
1000
0010
1000
0000
0001
0100
,
0002
0000
2003
0000
3020
0000
0130
0010
,
0001
0010
1000
0010
0001
0100
1000
0100
,
0020
0000
1030
0200
0000
0010
0310
0001
,
2000
0000
3001
0200
0000
0010
0310
0000
,
0001
0100
0101
0000
1000
0010
1010
0000
,
1000
0010
1000
0001
1000
0010
1000
0000
,
0002
0000
0103
0020
0000
1000
1030
0000
,
0001
0100
0020
0000
2030
0000
3002
0000
,
0103
0001
0100
0002
0000
1000
1003
0000
,
1000
0010
1000
0010
1000
0001
1000
0001
,
1000
0001
2000
0000
3010
0100
0020
0000
,
0031
0100
0002
0000
1003
0100
0020
0000
,
1030
0001
2000
0000
3010
0001
0200
0000
,
0301
0010
0100
2000
0000
0001
3001
0000
,
1000
0001
1000
0001
1000
0001
1000
0001
,
1000
0000
0000
0000
;
