#TITLE:I Think I Like It;
#SUBTITLE:;
#ARTIST:Fake Blood;
#TITLETRANSLIT:;
#SUBTITLETRANSLIT:;
#ARTISTTRANSLIT:;
#GENRE:;
#CREDIT:;
#MUSIC:I Think I Like It.ogg;
#BANNER:I Think I Like It.png;
#BACKGROUND:I Think I Like It-bg.png;
#CDTITLE:;
#SAMPLESTART:29.900;
#SAMPLELENGTH:15.000;
#SELECTABLE:YES;
#OFFSET:1.860;
#BPMS:0.000=128.000;
#STOPS:;
#BGCHANGES:;
#FGCHANGES:;

//--------------- dance-single - Destrier75 ----------------
#NOTES:
     dance-single:
     Destrier75:
     Beginner:
     2:
     0,0,0,0,0:
0000
0000
0000
0000
,
0000
0000
0000
0000
,
0000
0000
0000
0000
,
0000
0000
0000
0000
,
0000
0000
0000
0000
,
0100
0000
0000
0000
,
0010
0000
0000
0000
,
0100
0000
0000
0000
,
0010
0000
0000
0000
,
1000
0000
1000
0000
,
0001
0000
0001
0000
,
0100
0000
0100
0000
,
0010
0000
0010
0000
,
1000
0000
1000
0000
,
0001
0000
0001
0000
,
0100
0100
0100
0000
,
0010
0010
0010
0000
,
0100
0000
0100
0000
,
0010
0000
0010
0000
,
0100
0100
0100
0000
,
0010
0010
0010
0000
,
1000
0000
1000
0000
,
0001
0000
0001
0000
,
0001
0001
0001
0000
,
1000
1000
1000
0000
,
0010
0000
0010
0000
,
0100
0000
0100
0000
,
0100
0100
0100
0000
,
0010
0010
0010
0000
,
1000
0000
1000
0000
,
0001
0000
0001
0000
,
0001
0001
0001
0000
,
1000
1000
1000
0000
,
0100
0000
0100
0000
,
0010
0000
0010
0000
,
0100
0100
0100
0000
,
0010
0010
0010
0000
,
1000
0000
1000
0000
,
0001
0000
0001
0000
,
0001
0001
0001
0000
,
1000
1000
1000
0000
,
0010
0000
0010
0000
,
0100
0000
0100
0000
,
0010
0010
0010
0000
,
0100
0100
0100
0000
,
0001
0000
0001
0000
,
1000
0000
1000
0000
,
0001
0001
0001
0000
,
0100
0100
0100
0000
,
0010
0000
0010
0000
,
0100
0000
0100
0000
,
0001
0001
0001
0000
,
1000
1000
1000
0000
,
0010
0000
0010
0000
,
0100
0000
0100
0000
,
0001
0001
0001
0000
,
1000
1000
1000
0000
,
0010
0000
0010
0000
,
0100
0000
0100
0000
,
0001
0001
0001
0000
,
1000
1000
1000
0000
,
0100
0000
0100
0000
,
0010
0000
0010
0000
,
0100
0100
0100
0000
,
0010
0010
0010
0000
,
1000
0000
1000
0000
,
0001
0000
0001
0000
,
0001
0001
0001
0000
,
1000
1000
1000
0000
,
0100
0000
0100
0000
,
0010
0000
0010
0000
,
0010
0010
0010
0000
,
0100
0100
0100
0000
,
1001
0000
0000
0000
;

//--------------- dance-single - Destrier75 ----------------
#NOTES:
     dance-single:
     Destrier75:
     Easy:
     6:
     0,0,0,0,0:
0000
0000
0000
0000
,
0000
0000
0000
0000
,
0000
0000
0000
0000
,
0000
0000
0000
0000
,
0000
0000
0000
0000
,
1001
0000
0000
0000
,
0110
0000
0000
0000
,
1001
0000
0000
0000
,
0110
0000
0000
0000
,
2000
0000
0001
0000
,
3002
0000
1000
0000
,
0203
0000
0010
0000
,
0320
0000
0100
0000
,
2030
0000
0001
0000
,
3002
0000
1000
0000
,
1003
1000
0100
0100
,
0010
0010
0001
0001
,
1000
0100
1000
0100
,
0001
0100
0001
0100
,
0001
0001
0100
0100
,
0010
0010
1000
1000
,
0001
0100
0001
0100
,
0001
0100
0001
0100
,
1000
1000
0010
0010
,
0100
0100
0001
0001
,
1000
0100
1000
0100
,
1000
0100
1000
0100
,
1000
1000
0001
0001
,
0100
0100
0010
0010
,
0001
0010
0001
0010
,
0001
0010
0001
0010
,
1000
1000
0010
0010
,
0100
0100
0001
0001
,
1000
0001
1000
0001
,
1000
0010
1000
0010
,
1000
1000
0010
0010
,
0100
0100
0001
0001
,
1000
0010
1000
0010
,
1000
0010
1000
0010
,
0001
0001
0100
0100
,
0010
0010
1000
1000
,
0001
0100
0001
0100
,
0001
0100
0001
0100
,
1000
1000
1000
0010
,
0001
0001
0001
0010
,
1000
0010
1000
0010
,
0100
0001
0100
0001
,
1000
1000
1000
0010
,
0001
0001
0001
0100
,
0010
0001
0010
0001
,
1000
0001
1000
0001
,
0001
0001
0001
0100
,
1000
1000
1000
0010
,
0100
0001
0100
0001
,
1000
0010
1000
0010
,
1000
1000
1000
0010
,
0001
0001
0001
0001
,
0100
0010
0100
0010
,
0100
0010
0100
0010
,
1000
1000
0010
0010
,
0100
0100
0001
0001
,
1000
0001
1000
0001
,
1000
0001
1000
0001
,
0100
0100
0010
0010
,
1000
1000
0001
0001
,
0100
0001
0100
0001
,
0100
0001
0100
0001
,
1000
1000
0010
0010
,
0100
0100
0001
0001
,
0100
0001
0100
0001
,
1000
0010
1000
0010
,
0100
0100
0010
0010
,
0001
0001
1000
1000
,
1001
0000
0000
0000
;

//--------------- dance-single - Destrier75 ----------------
#NOTES:
     dance-single:
     Destrier75:
     Medium:
     9:
     0,0,0,0,0:
0000
0000
0000
0000
,
0000
0000
0000
0000
,
0000
0000
0000
0000
,
0000
0000
0000
0000
,
0000
0000
0000
0000
,
0110
0000
0000
0000
0000
0000
0000
0110
0000
0000
0000
0000
0000
0000
0000
0000
,
1001
0000
0000
0000
0000
0000
0000
1001
0000
0000
0000
0000
0000
0000
0000
0000
,
0101
0000
0000
0000
0000
0000
0000
0101
0000
0000
0000
0000
0000
0000
0000
0000
,
1010
0000
0000
0000
0000
0000
0000
1010
0000
0000
0000
0000
0000
0000
0000
0000
,
0100
0000
0000
0000
0000
0000
0000
0010
0000
0000
0000
0000
0000
0000
0000
0000
,
0100
0000
0000
0000
0000
0000
0000
0001
0000
0000
0000
0000
0000
0000
0000
0000
,
1000
0000
0000
0000
0000
0000
0000
0010
0000
0000
0000
0000
0000
0000
0000
0000
,
0100
0000
0000
0000
0000
0000
0000
0001
0000
0000
0000
0000
0000
0000
0000
0000
,
1000
0100
1000
0000
0001
0100
0001
0000
,
1000
0010
1000
0000
0100
0010
0100
0000
,
1000
0010
1000
0000
0001
0100
0001
0000
,
1000
0001
1000
0001
1000
0001
1000
0000
,
1000
0001
1000
0001
1000
0000
0010
0000
,
1000
0010
1000
0010
1000
0000
0100
0000
,
1000
0010
1000
0000
0100
0000
0010
0000
,
0001
0100
0001
0000
0010
0000
0100
0000
,
1000
0010
1000
0010
1000
0000
0010
0000
,
0100
0001
0100
0001
0100
0000
0001
0000
,
1000
0010
1000
0000
0100
0000
0010
0000
,
0001
0100
0001
0000
0010
0000
0100
0000
,
1000
0001
1000
0001
1000
0000
0100
0000
,
0001
0100
0001
0100
0001
0000
0010
0000
,
1000
0010
1000
0000
0100
0000
0010
0000
,
0001
0100
0001
0000
0010
0000
0100
0000
,
1000
0010
1000
0010
1000
0000
0100
0000
,
0001
0100
0001
0100
0001
0000
0010
0000
,
1000
0100
1000
0000
0010
0000
0100
0000
,
0001
0100
0001
0000
0100
0000
0010
0000
,
1000
0001
1000
0002
0000
1003
0010
2000
,
0000
3001
0100
0002
0000
1003
0010
1000
,
0001
0100
0001
0000
0010
0000
0100
0000
,
1000
0010
1000
0000
0100
0000
0010
0000
,
0001
0100
0001
0200
0000
0310
1000
0020
,
0000
0031
0100
0002
0000
1003
0001
1000
,
0001
0100
0001
0000
0010
0000
0100
0000
,
1000
0010
1000
0000
0100
0000
0010
0000
,
0001
0100
0001
0100
0001
0000
0100
0000
,
1000
0010
1000
0010
1000
0000
0010
0000
,
2000
3020
0230
0302
,
2003
3020
0032
2003
,
3001
0100
0001
0000
0010
0000
0100
0000
,
1000
0010
1000
0000
0100
0000
0010
0000
,
0002
0203
0302
2003
,
3020
2030
3020
0230
,
1300
0010
1000
0000
0001
0000
0100
0000
,
1000
0001
1000
0000
0100
0000
0010
0000
,
0002
2003
3002
0203
,
0302
2003
3020
0230
,
1300
0010
1000
0000
0100
0000
0010
0000
,
0001
0100
0001
0000
0010
0000
0100
0000
,
2000
3020
0230
0302
,
2003
3020
0230
0302
,
1003
0001
1000
0002
0000
0103
0010
0200
,
0000
1300
0010
2000
0000
3001
0100
0001
,
1000
0010
1000
0000
0100
0000
0010
0000
,
0001
0100
0001
0000
0010
0000
0100
0000
,
1000
0010
1000
0020
0000
0031
1000
0002
,
0000
1003
0010
2000
0000
3001
0100
0001
,
1000
0010
1000
0000
0010
0000
0100
0000
,
0001
0100
0001
0000
1000
0000
0010
0000
,
1000
0010
1000
0020
0000
0031
0100
0002
,
0000
1003
0001
2000
0000
3001
1000
0001
,
1000
0010
1000
0000
0100
0000
0010
0000
,
0001
0100
0001
0000
1000
0000
0001
0000
,
1000
0001
1000
0002
0000
1003
0010
2000
,
0000
3001
0100
0002
0000
1003
0001
1000
,
0001
0100
0001
0000
0010
0000
0100
0000
,
1000
0010
1000
0000
0100
0000
0010
0000
,
1001
0000
0000
0000
;

//--------------- dance-single - Destrier75 ----------------
#NOTES:
     dance-single:
     Destrier75:
     Hard:
     13:
     0.598,0.557,0.087,0.175,0.327:
0000
0000
0000
0000
,
0000
0000
0000
0000
,
0000
0000
0000
0000
,
0000
0000
0000
0000
,
0000
0000
0000
0000
,
1001
0000
0000
0000
0000
0000
0000
1001
0000
0000
0000
0000
0000
0000
0000
0000
,
0110
0000
0000
0000
0000
0000
0000
0110
0000
0000
0000
0000
0000
0000
0000
0000
,
1010
0000
0000
0000
0000
0000
0000
1010
0000
0000
0000
0000
0000
0000
0000
0000
,
0101
0000
0000
0000
0000
0000
0000
0101
0000
0000
0000
0000
0000
0000
0000
0000
,
1001
0000
0000
0000
0000
0000
0000
0000
0001
1000
0000
0000
0000
0000
0000
0000
,
0100
0001
0000
0000
0000
0000
0000
0000
0001
1000
0000
0000
0000
0000
0000
0000
,
1001
0000
0000
0000
0000
0000
0000
0000
1000
0010
0000
0000
0000
0000
0000
0000
,
0001
0100
0000
0000
0000
0000
0000
0000
1000
0001
0000
0000
0000
0000
0000
0000
,
1000
0010
1000
0001
0100
0001
1000
0010
,
1000
0001
0010
0100
1000
0001
0100
0001
,
0100
0010
1000
0001
1000
0010
0100
0010
,
1000
0100
1000
0001
0100
0001
1001
0000
,
1000
0100
0010
0001
1000
0010
0100
0001
,
0010
0100
1000
0100
1000
0001
1000
0001
,
1000
0010
1000
0000
0100
0000
0010
0000
0100
0001
0100
0000
0001
0000
0010
0000
,
1000
0100
1000
0000
0001
0000
0100
0000
0001
1000
0001
0000
0100
0000
0010
0000
,
0001
1000
0001
0010
0100
0001
1000
0001
,
0010
0100
1000
0100
0001
0100
1000
0010
,
1000
0001
1000
0000
0100
0000
0010
0000
1000
0010
1000
0000
0100
0000
0010
0000
,
0100
0001
0100
0000
0010
0000
0100
0000
1000
0001
1000
0000
0100
0000
0010
0000
,
1000
0010
1000
0001
0100
0001
1000
0100
,
1000
0100
0010
0001
1000
0010
1000
0010
,
1000
0001
1000
0000
0100
0000
0010
0000
1000
0100
1000
0000
0100
0000
0010
0000
,
0100
0001
0100
0000
0001
0000
0100
0000
1000
0001
1000
0000
0010
0000
0100
0000
,
1000
0001
0100
0001
1000
0010
0100
0001
,
1000
0100
0010
0001
1000
0001
1000
0001
,
1000
0010
1000
0000
0100
0000
0010
0000
0100
0001
0100
0000
0010
0000
0100
0000
,
1000
0010
1000
0000
0100
0000
0010
0000
0100
0001
0100
0000
0010
0000
0100
0000
,
1000
0000
0001
1000
0001
0000
0010
0000
0000
0000
1000
0010
1000
0000
0100
0000
,
0000
0000
0001
0100
0001
0000
0010
0000
0000
0000
1000
0010
1000
0000
0100
0000
,
0001
1000
0001
0000
0100
0000
0010
0000
1000
0010
1000
0000
0100
0000
0001
0000
,
0100
0001
0100
0000
0010
0000
0100
0000
1000
0001
1000
0000
0001
0000
0100
0000
,
0001
0000
1000
0001
1000
0000
0010
0000
0000
0000
1000
0010
1000
0000
0100
0000
,
0000
0000
0001
0100
0001
0000
0010
0000
0000
0000
1000
0010
1000
0000
0100
0000
,
1000
0001
1000
0000
0100
0000
0010
0000
0100
0010
0100
0000
0001
0000
0100
0000
,
1000
0001
1000
0000
0100
0000
0010
0000
1000
0001
1000
0000
0010
0000
0100
0000
,
0001
1000
0010
0100
1000
0010
0100
0001
,
1000
0010
0100
0001
0100
0001
1000
0010
,
2000
0000
3002
0000
0203
0000
0310
0001
,
0020
0000
2030
0000
3002
0000
0103
0010
,
1000
0001
0100
0010
1000
0001
1000
0010
,
1000
0001
1000
0100
0010
0001
1000
0001
,
0200
0000
0320
0000
2030
0000
3001
0100
,
0002
0000
2003
0000
3002
0000
1003
0100
,
0001
1000
0100
0001
0010
0001
1000
0001
,
1000
0010
0100
0001
0010
0100
1000
0001
,
2000
0000
3002
0000
2003
0000
3010
0010
,
2000
0000
3002
0000
0203
0000
0310
1000
,
0010
1000
0001
0100
0010
0001
0100
0010
,
1000
0001
1000
0010
1000
0001
0100
0010
,
2000
0000
3002
0000
0203
0000
0310
0001
,
2000
0000
3002
0000
0203
0000
0310
1000
,
0001
0000
1000
0001
1000
0000
0010
0000
0000
0000
1000
0010
1000
0000
0001
0000
,
0000
0000
0100
0001
0100
0000
0010
0000
0000
0000
1000
0010
1000
0000
0100
0000
,
1000
0001
1000
0000
0010
0000
0100
0000
0001
0010
0001
0000
1000
0000
0001
0000
,
1000
0010
1000
0000
0100
0000
0010
0000
0100
0001
0100
0000
0001
0000
0100
0000
,
1000
0000
0010
1000
0010
0000
0100
0000
0000
0000
0001
0100
0001
0000
0010
0000
,
0000
0000
1000
0010
1000
0000
0100
0000
0000
0000
0001
0100
0001
0000
0010
0000
,
1000
0001
1000
0000
0010
0000
0100
0000
1000
0010
1000
0000
0001
0000
0100
0000
,
0001
0100
0001
0000
0010
0000
0100
0000
1000
0010
1000
0000
0100
0000
0010
0000
,
1000
0000
0001
1000
0001
0000
0010
0000
0000
0000
1000
0010
1000
0000
0100
0000
,
0000
0000
0001
0100
0001
0000
0010
0000
0000
0000
1000
0010
1000
0000
0100
0000
,
1000
0001
1000
0000
0010
0000
0100
0000
0001
0100
0001
0000
0010
0000
0100
0000
,
1000
0010
1000
0000
0100
0000
0010
0000
0100
0001
0100
0000
0010
0000
0100
0000
,
1000
0000
0010
1000
0010
0000
0100
0000
0000
0000
0001
0100
0001
0000
0010
0000
,
0000
0000
1000
0010
1000
0000
0100
0000
0000
0000
0001
0100
0001
0000
0010
0000
,
1000
0001
1000
0000
0100
0000
0010
0000
0100
0001
0100
0000
0010
0000
0100
0000
,
1000
0010
1000
0000
0100
0000
0001
0000
0100
0001
0100
0000
0001
0000
0100
0000
,
1001
0000
0000
0000
;

//--------------- dance-single - Destrier75 ----------------
#NOTES:
     dance-single:
     Destrier75:
     Challenge:
     15:
     0.726,0.717,0.233,0.175,0.618:
0000
0000
0000
0000
,
0000
0000
0000
0000
,
0000
0000
0000
0000
,
0000
0000
0000
0000
,
0000
0000
0000
0000
,
1001
0000
0000
0000
0000
0000
0000
0110
0000
0000
0000
0000
0000
0000
0000
0000
,
1001
0000
0000
0000
0000
0000
0000
0101
0000
0000
0000
0000
0000
0000
0000
0000
,
1010
0000
0000
0000
0000
0000
0000
0110
0000
0000
0000
0000
0000
0000
0000
0000
,
0101
0000
0000
0000
0000
0000
0000
1010
0000
0000
1001
0000
0000
0000
0000
0000
,
1001
0000
0000
0000
0100
0000
0000
0000
1000
0010
0000
0000
0001
0000
0000
0000
,
1000
0010
0000
0000
0100
0000
0000
0000
0001
0100
0000
0000
0010
0000
0000
0000
,
1000
0001
0000
0000
0100
0000
0000
0000
0010
0100
0000
0000
0001
0000
0000
0000
,
1000
0001
0000
0000
0100
0000
0000
0000
0010
1000
0000
0000
0001
0000
0000
0000
,
1000
0000
0001
1000
0001
0000
0000
0000
0010
0000
0100
0010
0100
0000
0000
0000
,
1000
0000
0010
1000
0010
0000
0000
0000
0100
0000
0001
0100
0001
0000
0000
0000
,
1001
1000
1010
0010
0011
0001
1001
1000
,
1010
0010
0011
0001
1001
1000
1010
0000
,
1001
0010
1000
0010
1010
0010
0001
0010
,
0011
1000
0001
1000
1001
0100
0001
0100
,
0001
0100
0001
0100
0001
1000
0001
1000
0001
0010
0001
0010
0001
1000
0001
1000
,
0001
0100
0001
0100
0001
0010
0001
0010
0001
1000
0001
1000
0001
0100
0001
0100
,
0001
0100
0001
1000
1001
0001
0100
0010
,
1010
0100
0001
0100
0101
0001
1000
0010
,
1000
0001
1000
0001
1000
0010
1000
0010
1000
0100
1000
0100
1000
0001
1000
0001
,
1000
0010
1000
0010
1000
0001
1000
0001
1000
0010
1000
0010
1000
0100
1000
0100
,
1000
0001
1000
0001
1001
0010
1000
0010
,
1010
0100
0001
0100
0101
0010
1000
0010
,
1000
0100
0010
0001
1000
0100
0010
0001
1000
0100
0010
0001
1000
0100
0010
0001
,
1000
0100
0010
0001
1000
0100
0010
0001
1000
0100
0010
0001
1000
0100
0010
0001
,
1000
0001
1000
0001
0101
0001
1000
0001
,
0101
0010
1000
0010
1010
0100
0001
0100
,
0001
0010
0100
1000
0001
0010
0100
1000
0001
0010
0100
1000
0001
0010
0100
1000
,
0001
0010
0100
1000
0001
0010
0100
1000
0001
0010
0100
1000
0001
0010
0100
1000
,
0001
0000
1000
0001
1000
0000
0010
0000
1000
0000
0100
0001
0100
0000
0010
0000
,
1000
0000
0100
0001
0100
0000
0010
0000
1000
0000
0100
0010
0100
0000
0001
0000
,
1000
0010
1000
0000
0100
0001
0100
0000
0010
1000
0010
0000
1000
0001
1000
0000
,
0100
0001
0100
0000
0010
1000
0010
0000
1000
0001
1000
0001
1000
0001
1000
0001
,
1000
0000
0001
0100
0001
0000
0010
0000
1000
0000
0100
0010
0100
0000
0001
0000
,
1000
0000
0100
0001
0100
0000
0010
0000
1000
0000
0100
0010
0100
0000
0001
0000
,
1000
0010
1000
0000
0001
0100
0001
0000
0010
1000
0010
0000
0100
0001
0100
0000
,
0010
0100
0010
0000
1000
0001
1000
0000
0001
1000
0001
0000
1000
0001
1000
0001
,
1000
0000
0010
0000
1000
0000
0001
0000
1000
0001
1000
0001
1000
0000
0010
0000
,
1000
0000
0001
0000
0100
0000
0001
0000
1000
0010
1000
0010
1000
0000
0100
0000
,
0002
0000
0023
0000
2030
0000
3010
0001
,
0200
0000
0320
0000
2030
0000
3001
0100
,
0001
0000
0100
0000
1000
0000
0001
0000
1000
0001
1000
0001
1000
0000
0010
0000
,
1000
0000
0001
0000
0100
0000
0001
0000
0100
0001
0100
0001
0100
0000
0010
0000
,
2000
0000
3020
0000
0032
0000
1003
0001
,
2000
0000
3020
0000
0230
0000
0301
1000
,
0001
0000
0100
0000
0010
0000
0001
0000
1000
0001
1000
0001
1000
0000
0100
0000
,
0010
0000
0100
0000
0001
0000
1000
0000
0001
1000
0001
1000
0001
0000
0100
0000
,
2000
0000
3002
0000
0203
0000
0301
0010
,
0002
0000
2003
0000
3020
0000
0130
0001
,
0100
0000
0010
0000
1000
0000
0001
0000
1000
0001
1000
0001
1000
0000
0010
0000
,
1000
0000
0001
0000
0100
0000
0001
0000
0100
0001
0100
0001
0100
0000
0010
0000
,
2000
0000
3002
0000
0203
0000
0310
0001
,
2000
0000
3002
0000
0203
0000
0310
0001
,
1000
0000
0010
1000
0010
0000
0100
0000
0001
0000
0100
0001
0100
0000
0010
0000
,
1000
0000
0100
0010
0100
0000
0001
0000
1000
0000
0001
1000
0001
0000
0100
0000
,
0010
0001
0010
0000
1000
0100
1000
0000
0001
0010
0001
0000
1000
0010
1000
0000
,
0100
0001
0100
0000
0010
1000
0010
0000
0100
0001
0100
0000
0010
1000
0010
0000
,
1000
0000
0001
1000
0001
0000
0100
0000
0010
0000
0100
0001
0100
0000
0010
0000
,
1000
0000
0100
0010
0100
0000
0001
0000
0100
0000
0001
0100
0001
0000
0010
0000
,
1000
0001
1000
0000
0100
0001
0100
0000
0010
1000
0010
0000
0100
0010
0100
0000
,
0001
0100
0001
0000
1000
0010
1000
0000
0001
1000
0001
0000
0100
0001
0100
0000
,
0001
0000
1000
0001
1000
0000
0010
0000
1000
0000
0100
0010
0100
0000
0001
0000
,
1000
0000
0001
1000
0001
0000
0100
0000
0001
0000
0100
0010
0100
0000
1000
0000
,
0010
0001
0010
0000
1000
0010
1000
0000
0010
0001
0010
0000
1000
0100
1000
0000
,
0001
0010
0001
0000
1000
0001
1000
0000
0001
0100
0001
0000
0010
1000
0010
0000
,
1000
0000
0001
1000
0001
0000
0100
0000
0001
0000
0100
0010
0100
0000
0001
0000
,
1000
0000
0100
0001
0100
0000
0010
0000
1000
0000
0100
0010
0100
0000
0001
0000
,
1000
0001
1000
0000
0100
0001
0100
0000
0010
1000
0010
0000
0100
0010
0100
0000
,
0001
1000
0001
0000
0100
0001
0100
0000
1000
0010
1000
0000
0001
1000
0001
0000
,
1001
0000
0000
0000
;
