#TITLE:I Don't Care;
#SUBTITLE:;
#ARTIST:Alice Chayada R-Siam;
#TITLETRANSLIT:;
#SUBTITLETRANSLIT:;
#ARTISTTRANSLIT:;
#GENRE:;
#CREDIT:Destrier75;
#MUSIC:I Don't Care.ogg;
#BANNER:I Don't Care.png;
#BACKGROUND:I Don't Care-bg.png;
#CDTITLE:;
#SAMPLESTART:75.785;
#SAMPLELENGTH:15.000;
#SELECTABLE:YES;
#OFFSET:1.850;
#BPMS:0.000=108.000;
#STOPS:;
#BGCHANGES:3.333=I Don't Care.avi=1.000=1=0=0=StretchNoLoop==CrossFade==,
99999.000=-nosongbg-=1.000=0=0=0=StretchNoLoop====
;
#FGCHANGES:;

//--------------- dance-single - Destrier75 ----------------
#NOTES:
     dance-single:
     Destrier75:
     Beginner:
     2:
     0,0,0,0,0:
0000
0000
0000
0000
,
0000
0000
0000
0000
,
0000
0000
0000
0000
,
0000
0000
0000
0000
,
0000
0000
0000
0000
,
0000
0000
0000
0000
,
0000
0000
0000
0000
,
1000
0000
1000
0000
,
1000
1000
1000
0000
,
0001
0000
0001
0000
,
0001
0001
0001
0000
,
0100
0000
0100
0000
,
0100
0100
0100
0000
,
0010
0000
0010
0000
,
0010
0010
0010
0000
,
0100
0000
0100
0000
,
0010
0000
0010
0000
,
0001
0000
0001
0000
,
1000
0000
1000
0000
,
0001
0000
0001
0000
,
0001
0001
0001
0000
,
1000
0000
1000
0000
,
1000
1000
1000
0000
,
0100
0100
0100
0000
,
0010
0010
0010
0000
,
1000
1000
1000
0000
,
0001
0001
0001
0000
,
0100
0000
0100
0000
,
0100
0100
0100
0000
,
0010
0000
0010
0000
,
0010
0010
0010
0000
,
1000
1000
1000
0000
,
0001
0001
0001
0000
,
0100
0100
0100
0000
,
0010
0000
0000
0000
,
1000
0000
1000
0000
,
1000
1000
1000
0000
,
0001
0000
0001
0000
,
0001
0001
0001
0000
,
0100
0000
0100
0000
,
0100
0100
0100
0000
,
0010
0000
0010
0000
,
0010
0010
0010
0000
,
0001
0000
0001
0000
,
0001
0001
0001
0000
,
1000
0000
1000
0000
,
1000
1000
1000
0000
,
0100
0000
0100
0000
,
0100
0100
0100
0000
,
0010
0000
0010
0000
,
0010
0000
0000
0000
,
1000
0000
1000
0000
,
0001
0000
0001
0000
,
0100
0000
0100
0000
,
0010
0000
0010
0000
,
0110
0000
0000
0000
;

//--------------- dance-single - Destrier75 ----------------
#NOTES:
     dance-single:
     Destrier75:
     Easy:
     4:
     0,0,0,0,0:
0000
0000
0000
0000
,
0000
0000
0000
0000
,
0000
0000
0000
0000
,
0000
0000
0000
0000
,
0000
0000
0000
0000
,
0000
0000
0000
0000
,
0000
0000
0000
0000
,
1000
0100
1000
0100
,
0001
0100
0001
0100
,
0010
0100
0010
0100
,
1000
0010
1000
0010
,
1000
0001
1000
0001
,
0100
0001
0100
0001
,
1000
0010
1000
0010
,
0100
0010
0100
0010
,
2000
0000
0000
0000
,
3002
0000
0000
0000
,
2003
0000
0000
0000
,
3002
0000
0000
0000
,
1003
0001
1000
0001
,
0100
0001
0100
0001
,
1000
0010
1000
0010
,
0100
0001
0100
0001
,
2000
0000
0000
0000
,
3002
0000
0000
0000
,
0203
0000
0000
0000
,
0320
0000
0000
0000
,
1030
0010
1000
0010
,
0100
0001
0100
0001
,
0100
0010
0100
0010
,
1000
0010
1000
0010
,
0002
0000
0000
0000
,
2003
0000
0000
0000
,
3020
0000
0000
0000
,
0230
0000
0000
0000
,
0301
0010
0001
0010
,
1000
0100
1000
0100
,
0010
0100
0010
0100
,
0001
0100
0001
0100
,
1000
0010
1000
0010
,
0100
0001
0100
0001
,
1000
0001
1000
0001
,
0100
0001
0100
0001
,
1000
0010
1000
0010
,
0100
0001
0100
0001
,
1000
0001
1000
0001
,
0100
0001
0100
0001
,
1000
0010
1000
0010
,
0100
0010
0100
0010
,
0001
0100
0001
0100
,
0001
0000
0000
0000
,
1000
0001
1000
0001
,
0100
0010
0100
0010
,
1000
0010
1000
0010
,
0100
0001
0100
0001
,
0100
0000
0000
0000
;

//--------------- dance-single - Destrier75 ----------------
#NOTES:
     dance-single:
     Destrier75:
     Medium:
     8:
     0,0,0,0,0:
0000
0000
0000
0000
,
0000
0000
0000
0000
,
0000
0000
0000
0000
,
0000
0000
0000
0000
,
0000
0000
0000
0000
,
0000
0000
0000
0000
,
0000
0000
0000
0000
,
1000
0001
1000
0000
0001
0000
1000
0000
,
0001
0100
0001
0000
0001
0000
0100
0000
,
1000
0010
1000
0010
1000
0000
0010
0000
,
0100
0010
0100
0010
0100
0000
1000
0000
,
0001
0100
0001
0000
0001
0000
0100
0000
,
1000
0010
1000
0000
0010
0000
1000
0000
,
0100
0010
0100
0000
0010
0000
0100
0000
,
0001
1000
0001
0000
1000
0000
0001
0000
,
2000
0000
0001
0000
,
3002
0000
0100
0000
,
0023
0000
1000
0000
,
2030
0000
0001
0000
,
3001
0100
0001
0000
0001
0000
0100
0000
,
1000
0001
1000
0000
0010
0000
0100
0000
,
1000
0010
1000
0000
0100
0000
0010
0000
,
1000
0001
1000
0000
0001
0000
0100
0000
,
1000
0010
1000
0010
1000
0000
0100
0000
,
0001
0100
0001
0100
0001
0000
0100
0000
,
1000
0010
1000
0010
1000
0000
0010
0000
,
0001
0100
0001
0100
0001
0000
0100
0000
,
1000
0001
1000
0000
0100
0000
0010
0000
,
1000
0010
1000
0000
0100
0000
0001
0000
,
1000
0001
1000
0000
0010
0000
0100
0000
,
0010
0001
0010
0000
1000
0000
0010
0000
,
1000
0010
1000
0010
1000
0000
0010
0000
,
0100
0001
0100
0001
0100
0000
0010
0000
,
1000
0001
1000
0001
1000
0000
0001
0000
,
1001
0000
0000
0000
,
1000
0010
1000
0000
0010
0000
0100
0000
,
0001
0100
0001
0000
0100
0000
0010
0000
,
1000
0001
1000
0001
1000
0000
0100
0000
,
1000
0010
1000
0010
1000
0000
0010
0000
,
0100
0001
0100
0000
0001
0000
0010
0000
,
1000
0010
1000
0000
0100
0000
0010
0000
,
0100
0001
0100
0001
0100
0000
1000
0000
,
0001
1000
0001
1000
0001
0000
0010
0000
,
1000
0010
1000
0000
0100
0000
0010
0000
,
0001
0100
0001
0000
0010
0000
0100
0000
,
1000
0010
1000
0010
1000
0000
0010
0000
,
0100
0001
0100
0001
0100
0000
0001
0000
,
1000
0010
1000
0000
0100
0000
0010
0000
,
0001
0100
0001
0000
0010
0000
0100
0000
,
1000
0010
1000
0010
1000
0000
0010
0000
,
0100
0100
0100
0100
,
2000
0000
0001
0000
,
3002
0000
0010
0000
,
0023
0000
0100
0000
,
0230
0000
0001
0000
,
0301
0000
0000
0000
;

//--------------- dance-single - Destrier75 ----------------
#NOTES:
     dance-single:
     Destrier75:
     Hard:
     11:
     0.378,0.377,0.032,0.258,0:
0000
0000
0000
0000
,
0000
0000
0000
0000
,
0000
0000
0000
0000
,
0000
0000
0000
0000
,
0000
0000
0000
0000
,
0000
0000
0000
0000
,
0000
0000
0000
0000
,
1000
0010
1000
0001
0010
0000
0001
0100
,
0001
1000
0001
1000
0010
0000
1000
0100
,
1000
0001
0100
0001
1000
0000
1000
0010
,
1000
0001
0100
0001
1000
0000
1000
0010
,
1000
0001
0100
0001
0010
0000
1000
0010
,
1000
0001
0100
0001
0010
0000
0010
1000
,
0010
1000
0001
0100
0001
0010
0100
0200
,
0000
0020
0000
0000
0000
0000
0330
0000
,
2000
0000
0001
0000
0001
0000
3001
0010
,
2000
0000
0010
0000
0010
0000
3010
0001
,
2000
0000
0010
0000
3010
0100
0010
0001
,
2000
0000
0010
0000
3010
0001
1000
0001
,
2000
0000
3002
0000
0103
0010
0100
2000
,
0000
3001
0100
0001
1000
0010
2000
0000
,
3002
0000
0203
0000
0301
0100
0001
1000
,
0010
1000
0100
0002
0000
2000
0000
0000
,
3003
0000
1000
0001
1000
0001
1000
0100
,
0001
0000
0001
0100
0001
1000
0010
1000
,
0100
0000
1000
0010
1000
0001
0100
0001
,
0100
0000
0001
0100
0001
1000
0010
1000
,
0002
0000
2003
0000
3001
0100
0001
0020
,
0000
1030
0010
1000
0100
0001
0200
0000
,
0302
0000
2003
0000
3001
0100
0001
1000
,
0010
1000
0010
0200
0000
0020
0000
0000
,
0330
0000
1000
0010
1000
0001
0100
0001
,
0100
0000
0001
0100
0001
1000
0010
1000
,
0002
0000
2003
0000
3010
0001
0010
1000
,
0100
0001
1000
0001
,
1000
0010
1000
0001
0100
0000
0001
0100
,
0001
1000
0010
1000
0010
0000
1000
0010
,
1000
0001
0100
0001
0100
0000
0001
0100
,
0001
1000
0010
1000
0010
0000
1000
0010
,
1000
0001
0100
0001
0100
0000
1000
0100
,
1000
0001
0100
0001
0100
0000
0001
0100
,
0001
1000
0010
1000
0100
0001
0100
2000
,
0000
0002
0000
0000
0000
0000
3003
0000
,
1000
0100
1000
0001
1000
0000
0001
0100
,
0001
1000
0010
1000
0010
0000
1000
0010
,
1000
0001
0100
0001
0100
0000
1000
0010
,
1000
0001
0100
0001
0100
0000
1000
0010
,
1000
0001
0100
0001
0010
0000
1000
0010
,
1000
0001
0100
0001
0100
0000
0001
0100
,
0001
1000
0010
1000
0010
0100
1000
2000
,
0000
0002
0000
0000
0000
0000
3003
0000
,
2000
0000
0100
0000
0100
0000
3100
0010
,
0002
0000
0010
0000
0010
0000
0013
0100
,
2000
0000
0010
0000
3010
0001
0100
0001
,
0020
0000
0100
0000
0130
0001
0010
0100
,
1001
0000
0000
0000
;
