#TITLE:火花散ル;
#SUBTITLE:;
#ARTIST:GYROAXIA;
#TITLETRANSLIT:Hibana Chiru;
#SUBTITLETRANSLIT:;
#ARTISTTRANSLIT:;
#GENRE:;
#CREDIT:Destrier75;
#MUSIC:Hibana Chiru.ogg;
#BANNER:Hibana Chiru.png;
#BACKGROUND:Hibana Chiru-bg.png;
#CDTITLE:;
#SAMPLESTART:46.320;
#SAMPLELENGTH:15.000;
#SELECTABLE:YES;
#OFFSET:1.400;
#BPMS:0.000=156.980;
#STOPS:;
#BGCHANGES:3.667=Hibana Chiru.avi=1.000=1=0=0=StretchNoLoop==CrossFade==,
99999.000=-nosongbg-=1.000=0=0=0=StretchNoLoop====
;
#FGCHANGES:;

//--------------- dance-single - Destrier75 ----------------
#NOTES:
     dance-single:
     Destrier75:
     Beginner:
     3:
     0,0,0,0,0:
0000
0000
0000
0000
,
0000
0000
0000
0000
,
0000
0000
0000
0000
,
0000
0000
0000
0000
,
0000
0000
0000
0000
,
0000
0000
0000
0000
,
0000
0000
0000
0000
,
1000
0000
1000
0000
,
0001
0000
0001
0000
,
0100
0000
0100
0000
,
0010
0000
0010
0000
,
0100
0000
0100
0000
,
0010
0000
0010
0000
,
1000
1000
1000
0000
,
0001
0001
0001
0000
,
0100
0100
0100
0000
,
0010
0010
0010
0000
,
1000
1000
1000
0000
,
0001
0001
0001
0000
,
0100
0100
0100
0000
,
0010
0010
0010
0000
,
1000
1000
1000
0000
,
0001
0001
0001
0000
,
0100
0100
0100
0000
,
0010
0010
0010
0000
,
1000
1000
1000
0000
,
0001
0001
0001
0000
,
0100
0100
0100
0000
,
0010
0010
0010
0000
,
1001
0000
0000
0000
,
1000
0000
0001
0000
,
1000
0000
0000
0000
,
0100
0100
0100
0000
,
0010
0010
0010
0000
,
1000
1000
1000
0000
,
0001
0001
0001
0000
,
0100
0100
0100
0000
,
0010
0010
0010
0000
,
1000
1000
1000
0000
,
0001
0001
0001
0000
,
1001
0000
1001
0000
,
1001
0000
1001
0000
,
0110
0000
0110
0000
,
0110
0000
0110
0000
,
0100
0100
0100
0000
,
0010
0010
0010
0000
,
1000
1000
1000
0000
,
0001
0001
0001
0000
,
0100
0100
0100
0000
,
0010
0010
0010
0000
,
1000
1000
1000
0000
,
0001
0001
0001
0000
,
0100
0100
0100
0000
,
0010
0010
0010
0000
,
1000
1000
1000
0000
,
0001
0001
0001
0000
,
0100
0100
0100
0000
,
0010
0010
0010
0000
,
0100
0100
0100
0000
,
0010
0010
0010
0000
,
0110
0000
0000
0000
,
0100
0000
0010
0000
,
0100
0000
0000
0000
,
1000
1000
1000
0000
,
0001
0001
0001
0000
,
0100
0100
0100
0000
,
0010
0010
0010
0000
,
1000
1000
1000
0000
,
0001
0001
0001
0000
,
0100
0100
0100
0000
,
0010
0000
0010
0000
,
1000
1000
1000
0000
,
0001
0001
0001
0000
,
0100
0100
0100
0000
,
0010
0010
0010
0000
,
1000
1000
1000
0000
,
0001
0001
0001
0000
,
0100
0100
0100
0000
,
0010
0000
0010
0000
,
1001
0000
1001
0000
,
1001
0000
1001
0000
,
0110
0000
0110
0000
,
0110
0000
0110
0000
,
1001
0000
1001
0000
,
1001
0000
1001
0000
,
0110
0000
0110
0000
,
0110
0000
0110
0000
,
1001
0000
0000
0000
;

//--------------- dance-single - Destrier75 ----------------
#NOTES:
     dance-single:
     Destrier75:
     Easy:
     6:
     0,0,0,0,0:
0000
0000
0000
0000
,
0000
0000
0000
0000
,
0000
0000
0000
0000
,
0000
0000
0000
0000
,
0000
0000
0000
0000
,
0000
0000
0000
0000
,
0000
0000
0000
0000
,
1000
0001
1000
0001
,
0100
0001
0100
0001
,
1000
0010
1000
0010
,
0100
0010
0100
0010
,
1000
1000
0001
0001
,
0100
0100
0010
0110
,
1000
0001
1000
0001
,
0100
0010
0100
0010
,
1000
0010
1000
0010
,
0100
0001
0100
0001
,
1000
0010
1000
0010
,
0100
0001
0100
0001
,
1000
0010
1000
0010
,
0100
0010
0100
0110
,
1000
0001
1000
0001
,
0100
0001
0100
0001
,
1000
0010
1000
0010
,
0100
0010
0100
0010
,
0001
0100
0001
0100
,
1000
0010
1000
0010
,
0100
0100
0010
0010
,
1000
1000
0001
0001
,
2002
0000
0000
3003
,
0220
0000
0000
0000
,
0330
0000
0000
0000
,
1000
0010
1000
0010
,
0100
0001
0100
0001
,
1000
0010
1000
0010
,
0100
0010
0100
0010
,
0001
0100
0001
0100
,
1000
0010
1000
0010
,
0100
0001
0100
0001
,
1000
1000
0001
0001
,
2000
0000
0000
3002
0000
0000
2003
0000
,
0000
3002
0000
0000
1000
0000
1003
0000
,
0200
0000
0000
0320
0000
0000
0230
0000
,
0000
0320
0000
0000
0100
0000
0130
0000
,
1000
0001
1000
0001
,
0100
0010
0100
0010
,
1000
0001
1000
0001
,
0100
0001
0100
0001
,
1000
0010
1000
0010
,
0100
0001
0100
0001
,
1000
0010
1000
0010
,
0100
0001
0100
0101
,
1000
1000
0001
0001
,
0100
0100
0010
0010
,
1000
1000
0001
0001
,
0100
0100
0010
0010
,
0100
0100
0001
0001
,
1000
1000
0010
0010
,
1000
1000
0001
0001
,
0100
0100
0010
0010
,
0220
0000
0000
0330
,
2002
0000
0000
0000
,
3003
0000
0000
0000
,
0100
0010
0100
0010
,
1000
0001
1000
0001
,
0100
0001
0100
0001
,
1000
0010
1000
0010
,
0100
0010
0100
0010
,
1000
0001
1000
0001
,
0100
0001
0100
0001
,
1000
1000
0001
0001
,
0100
0010
0100
0010
,
1000
0001
1000
0001
,
0100
0001
0100
0001
,
1000
0010
1000
0010
,
0100
0010
0100
0010
,
1000
0001
1000
0001
,
0100
0001
0100
0001
,
1000
1000
0001
0001
,
2000
0000
0000
3002
0000
0000
2003
0000
,
0000
3002
0000
0000
1000
0000
1003
0000
,
2000
0000
0000
3020
0000
0000
2030
0000
,
0000
3020
0000
0000
1000
0000
1030
0000
,
0002
0000
0000
0203
0000
0000
0302
0000
,
0000
0203
0000
0000
0001
0000
0301
0000
,
2000
0000
0000
3002
0000
0000
2003
0000
,
0000
3002
0000
0000
1000
0000
1003
0000
,
1001
0000
0000
0000
;

//--------------- dance-single - Destrier75 ----------------
#NOTES:
     dance-single:
     Destrier75:
     Medium:
     9:
     0,0,0,0,0:
0000
0000
0000
0000
,
0000
0000
0000
0000
,
0000
0000
0000
0000
,
0000
0000
0000
0000
,
0000
0000
0000
0000
,
0000
0000
0000
0000
,
0000
0000
0000
0000
,
1000
0000
0010
1000
0010
0000
0100
0000
,
0001
0000
0100
0001
0100
0000
0010
0000
,
0100
0000
1000
0010
1000
0000
0100
0000
,
1000
0000
0100
0001
0100
0000
0001
0000
,
1000
0000
0001
1000
0001
0000
0100
0001
,
0100
0000
0010
1000
0010
0000
1010
0000
,
1000
0001
1000
0000
0001
0000
0100
0000
,
0001
0100
0001
0000
1000
0000
0010
0000
,
0100
0010
0100
0000
0001
1000
0001
0000
,
1000
0001
1000
0001
1000
0000
0010
0000
,
1000
0010
1000
0000
0010
0000
0100
0000
,
0001
0100
0001
0000
0010
0000
0100
0000
,
1000
0010
1000
0000
0001
0100
0001
0000
,
1000
0001
1000
0001
1000
0000
1001
0000
,
1000
0010
1000
0010
1000
0000
0100
0000
,
0001
0100
0001
0100
0001
0000
0010
0000
,
1000
0010
1000
0010
1000
0000
0100
0000
,
0001
0100
0001
0100
0001
0000
0010
0000
,
0100
0010
0100
0010
0100
0000
0001
0000
,
1000
0001
1000
0001
1000
0000
0001
0000
,
0100
0010
0100
0000
1000
0001
1000
0000
,
0001
0100
0001
0000
1000
0010
1000
0000
,
2002
0000
0000
3003
,
1000
0000
0001
0000
1000
0000
0001
0000
1000
0000
0001
0000
,
1000
0000
0000
0000
,
1000
0010
1000
0010
1000
0000
0010
0000
,
0100
0001
0100
0001
0100
0000
0010
0000
,
1000
0010
1000
0010
1000
0000
0100
0000
,
0001
0100
0001
0100
0001
0000
0010
0000
,
1000
0001
1000
0001
1000
0000
0010
0000
,
0100
0001
0100
0001
0100
0000
0010
0000
,
1000
0100
1000
0100
1000
0000
0010
0000
,
0110
0110
0110
0010
,
2002
0000
3003
0220
0000
0330
2002
0000
,
3003
0220
0000
0330
1001
0000
0110
0000
,
2020
0000
3030
0202
0000
0303
2020
0000
,
3030
0202
0000
0303
1010
0000
0101
0000
,
1000
0001
1000
0000
0100
0000
0010
0000
,
0100
0010
0100
0000
1000
0000
0001
0000
,
1000
0001
1000
0000
0001
1000
0001
0000
,
1000
0010
1000
0010
1000
0000
0001
0000
,
1000
0010
1000
0000
1000
0000
0010
0000
,
0100
0010
0100
0000
0010
0000
0001
0000
,
1000
0001
1000
0000
0001
1000
0001
0000
,
0100
0010
0100
0010
0100
0000
0010
0000
,
1000
0010
1000
0010
1000
0000
0010
0000
,
0100
0001
0100
0001
0100
0000
0010
0000
,
1000
0100
1000
0100
1000
0000
0001
0000
,
0100
0001
0100
0001
0100
0000
0010
0000
,
0100
0010
0100
0010
0100
0000
0001
0000
,
0010
0100
0010
0100
0010
0000
0001
0000
,
1000
0001
1000
0000
0001
1000
0001
0000
,
0100
0010
0100
0000
0001
1000
0001
0000
,
2002
0000
0000
3003
,
0100
0000
0010
0000
0100
0000
0010
0000
0100
0000
0010
0000
,
0100
0000
0000
0000
,
1000
0010
1000
0010
1000
0000
0010
0000
,
0100
0001
0100
0001
0100
0000
0010
0000
,
1000
0100
1000
0100
1000
0000
0010
0000
,
0100
0001
0100
0001
0100
0000
0010
0000
,
1000
0001
1000
0001
1000
0000
0010
0000
,
0100
0001
0100
0001
0100
0000
0010
0000
,
1000
0010
1000
0010
1000
0000
0010
0000
,
0110
1001
0110
1001
,
1000
0001
1000
0001
1000
0000
0010
0000
,
0100
0010
0100
0010
0100
0000
0001
0000
,
1000
0010
1000
0010
1000
0000
0100
0000
,
0001
0100
0001
0100
0001
0000
0010
0000
,
1000
0010
1000
0010
1000
0000
0100
0000
,
0001
0100
0001
0100
0001
0000
0010
0000
,
1000
0010
1000
0010
1000
0000
0001
0000
,
1001
0110
1001
0101
,
2020
0000
3030
0202
0000
0303
2020
0000
,
3030
0202
0000
0303
1010
0000
0101
0000
,
0220
0000
0330
2002
0000
3003
0220
0000
,
0330
2002
0000
3003
0110
0000
1001
0000
,
2020
0000
3030
0202
0000
0303
2020
0000
,
3030
0202
0000
0303
1010
0000
0101
0000
,
2002
0000
3003
0220
0000
0330
2002
0000
,
3003
0220
0000
0330
1001
0000
0110
0000
,
1001
0000
0000
0000
;

//--------------- dance-single - Destrier75 ----------------
#NOTES:
     dance-single:
     Destrier75:
     Hard:
     13:
     0,0,0,0,0:
0000
0000
0000
0000
,
0000
0000
0000
0000
,
0000
0000
0000
0000
,
0000
0000
0000
0000
,
0000
0000
0000
0000
,
0000
0000
0000
0000
,
0000
0000
0000
0000
,
1000
0000
0000
0010
0000
0000
1000
0000
0001
0000
0000
0100
0000
0000
0001
0000
,
1000
0000
0000
0010
0000
0000
0100
0000
0010
0000
0000
0100
0000
0000
0001
0000
,
1000
0000
0000
0010
0000
0000
0100
0000
0001
0000
0000
0100
0000
0000
0010
0000
,
1000
0000
0000
0010
0000
0000
0100
0000
0001
0000
0000
0100
0000
0000
0010
0000
,
1001
0110
1001
0110
,
1001
0110
1001
1001
,
1000
0000
0010
0000
1000
0000
0010
0000
1000
0000
0010
1000
0000
0000
0100
0000
,
0010
0000
0001
0000
1000
0000
0001
0000
0100
0000
0001
0100
0000
0000
0001
0000
,
1000
0000
0010
1000
0000
0000
0100
0000
0010
0000
0100
0000
1000
0000
0001
0000
,
0100
0000
0000
0010
0000
0000
1000
0000
0001
0000
0000
0100
0000
0000
1000
0000
,
0001
0010
1000
0001
0100
0001
0100
0010
,
1000
0001
0100
0010
0100
0000
1000
0010
,
1000
0000
0001
1000
0000
0000
0010
0000
0100
0000
0010
0000
0100
0000
0001
0000
,
1000
0000
0000
0001
0000
0000
0100
0000
1000
0000
0000
0000
1001
0000
0000
0000
,
1000
0010
0100
0010
1000
0100
1000
0001
,
0010
0001
0100
0010
0100
0010
1000
0001
,
1000
0000
0000
0001
0000
0000
0100
0000
0001
0000
0100
0000
0001
0000
0010
0000
,
0100
0000
0000
0010
0000
0000
1000
0000
0001
0000
0100
0000
0001
0000
0100
0000
,
1000
0010
1000
0001
0100
0001
1000
0001
,
0100
0010
1000
0010
1000
0001
0100
0010
,
1000
1000
0001
0001
0100
0100
0010
0010
,
1000
1000
0001
0001
0100
0100
0010
0010
,
2002
0000
0000
3003
,
1000
0000
0100
0000
0010
0000
0001
0000
1000
0000
0001
0000
,
1000
0010
0100
0010
,
1000
0000
0000
0010
0000
0000
0100
0000
0001
0000
0000
0100
0000
0000
0010
0000
,
1000
0000
0000
0010
0000
0000
0100
0000
0001
0000
0000
0000
0100
0000
0010
0000
,
1000
0000
0000
0010
0000
0000
0100
0000
0001
0000
0000
0010
0000
0000
0100
0000
,
1000
0000
0000
0001
0000
0000
0100
0000
0001
0000
0000
0010
0000
0000
0001
0000
,
0010
0000
0000
0100
0000
0000
0010
0000
0100
0000
0000
0000
0100
0000
0000
0000
,
1000
0000
0000
0010
0000
0000
0100
0000
0001
0000
0000
0010
0000
0000
0100
0000
,
1000
0000
0000
0010
0000
0000
0100
0000
0002
0000
0000
0000
1000
0000
0000
0000
,
1003
1001
0110
1001
,
1000
0010
1000
0010
1000
0000
0100
0001
0100
0001
0100
0000
1000
0010
1000
0010
,
1000
0000
0100
0001
0100
0001
0100
0000
1010
0000
0000
0000
0101
0000
0000
0000
,
0100
0010
0100
0010
0100
0000
1000
0001
1000
0001
1000
0000
0100
0010
0100
0010
,
0100
0000
1000
0001
1000
0001
1000
0000
0110
0000
0000
0000
1001
0000
0000
0000
,
1000
0000
0010
0000
1000
0000
0010
0000
1000
0000
0010
0100
0000
0000
0001
0000
,
1000
0000
0001
0000
0100
0000
0010
0000
0100
0000
0001
0100
0000
0000
0001
0000
,
1000
0000
0001
1000
0000
0000
0010
0000
0100
0000
0010
0100
0000
0000
0001
0000
,
1000
0000
0010
0000
0100
0000
0001
0000
1000
0000
0000
0010
0000
0000
0100
0000
,
0001
0000
0100
0000
1000
0000
0001
0000
0100
0000
0001
0100
0000
0000
0010
0000
,
1000
0001
0100
0010
1000
0001
0100
0010
,
1000
0000
0010
1000
0000
0000
0100
0000
0010
0000
0100
0000
0010
0000
0100
0000
,
1000
0001
0100
0001
1000
0000
1001
0000
,
1000
0010
1000
0010
1000
0100
0001
0100
,
0010
0100
1000
0001
0100
0010
0100
0001
,
0100
0000
0000
0010
0000
0000
0100
0000
0001
0000
0100
0000
1000
0000
0010
0000
,
1000
0000
0000
0001
0000
0000
0100
0000
1000
0000
0001
0000
0100
0000
0010
0000
,
1000
0010
1000
0001
0100
0010
1000
0010
,
1000
0010
0100
0001
1000
0001
1000
0010
,
0100
0100
0010
0010
1000
1000
0001
0001
,
0100
0100
0010
0010
1000
1000
0001
0001
,
2002
0000
0000
0000
0000
0000
0000
3003
,
0001
0000
0010
0000
0100
0000
1000
0000
0100
0000
0010
0000
,
0001
0100
0100
0100
,
1000
0000
0000
0001
0000
0000
0100
0000
0010
0000
0000
1000
0000
0000
0100
0000
,
0001
0000
0000
0100
0000
0000
0010
0000
1000
0000
0001
0000
0100
0000
0010
0000
,
1000
0000
0000
0001
0000
0000
0100
0000
0010
0000
0000
0100
0000
0000
0010
0000
,
1000
0000
0000
0001
0000
0000
0100
0000
0010
0000
0100
0000
0010
0000
0001
0000
,
1000
0000
0000
0010
0000
0000
0100
0000
0001
0000
0010
0000
0100
0000
0010
0000
,
1000
0000
0000
0001
0000
0000
0100
0000
0010
0000
0000
0100
0000
0000
0100
0000
,
0001
0000
0000
0100
0000
0000
0010
0000
1000
0000
0000
0001
0000
0000
0100
0000
,
0101
0101
0101
0101
,
1000
0000
0000
0010
0000
0000
0100
0000
0001
0000
0000
0100
0000
0000
0010
0000
,
1000
0000
0000
0010
0000
0000
0100
0000
0001
0000
0010
0000
1000
0000
0001
0000
,
1000
0000
0000
0010
0000
0000
0100
0000
0001
0000
0000
0100
0000
0000
0010
0000
,
1000
0000
0000
0010
0000
0000
0100
0000
0001
0000
0100
0000
0010
0000
0100
0000
,
0001
0000
0000
0100
0000
0000
0010
0000
1000
0000
0010
0000
1000
0000
0001
0000
,
1000
0000
0000
0010
0000
0000
0100
0000
0001
0000
0000
0100
0000
0000
0010
0000
,
1000
0000
0000
0010
0000
0000
0100
0000
0001
0000
0100
0000
0010
0000
1000
0000
,
1001
1001
1001
1001
,
1000
0001
1000
0001
1000
0000
0100
0010
0100
0010
0100
0000
1000
0001
1000
0001
,
1000
0000
0100
0010
0100
0010
0100
0000
1001
0000
0000
0000
0110
0000
0000
0000
,
0100
0001
0100
0001
0100
0000
0010
1000
0010
1000
0010
0000
0100
0001
0100
0001
,
0100
0000
0010
1000
0010
1000
0010
0000
0101
0000
0000
0000
1010
0000
0000
0000
,
1000
0001
1000
0001
1000
0000
0100
0010
0100
0010
0100
0000
1000
0001
1000
0001
,
1000
0000
0100
0010
0100
0010
0100
0000
1001
0000
0000
0000
0110
0000
0000
0000
,
0001
0100
0001
0100
0001
0000
1000
0010
1000
0010
1000
0000
0001
0100
0001
0100
,
0001
0000
1000
0010
1000
0010
1000
0000
1010
0000
0000
0000
0101
0000
0000
0000
,
1001
0000
0000
0000
;

//--------------- dance-single - Destrier75 ----------------
#NOTES:
     dance-single:
     Destrier75:
     Challenge:
     15:
     0.808,0.812,0.276,0.06,0.619:
0000
0000
0000
0000
,
0000
0000
0000
0000
,
0000
0000
0000
0000
,
0000
0000
0000
0000
,
0000
0000
0000
0000
,
0000
0000
0000
0000
,
0000
0000
0000
0000
,
1000
0000
0000
0010
1000
0000
0001
0000
0100
0000
0000
0001
0100
0000
0010
0000
,
1000
0000
0000
0010
0100
0000
0001
0000
1000
0000
0000
0010
0001
0000
1000
0000
,
0010
0000
0000
0100
0010
0000
1000
0000
0001
0000
0000
0100
0010
0000
1000
0000
,
0010
0000
0000
1000
0001
0000
0100
0000
0010
0000
0000
1000
0001
0000
0100
0000
,
0010
0000
0000
0001
1000
0000
0000
1000
0010
0000
0000
0010
0001
0000
0000
0001
,
1000
0000
0000
1000
0010
0000
0000
0000
1001
0000
0000
0000
1001
0000
0000
0000
,
0001
0000
1000
0000
0010
0000
1000
0000
0010
0000
0100
0001
0100
0000
1000
0000
,
0010
0000
1000
0000
0010
0000
0100
0000
0010
0000
0100
0010
0100
0000
0010
0000
,
1000
0000
0010
1000
0010
0000
0001
0000
0100
0000
0001
0100
0001
0000
0100
0000
,
0010
0000
1000
0010
1000
0000
0010
0000
1000
0000
0001
1000
0001
0000
0010
0000
,
1000
0000
0010
0000
1000
0000
0001
0000
0100
0000
0001
0100
0001
0000
0010
0000
,
1000
0000
0001
0000
0100
0000
0010
0000
0100
0000
0010
0001
0010
0000
1000
0000
,
0010
0000
1000
0010
1000
0000
0100
0000
0010
0000
0100
0001
0100
0000
0010
0000
,
1000
0000
0010
1000
0010
0000
0100
0000
0010
0000
0100
0000
0101
0000
0000
0000
,
1000
0000
0001
0000
1000
0000
0010
0000
1000
0000
0010
1000
0010
0000
0100
0000
,
0001
0000
0100
0000
1000
0000
0010
0000
1000
0000
0100
0001
0100
0000
0010
0000
,
1000
0000
0001
0000
0100
0000
0010
0000
0100
0000
0001
0100
0001
0000
0010
0000
,
1000
0000
0001
0000
0100
0000
0010
0000
0100
0000
0001
0100
0001
0000
0010
0000
,
1000
0000
0010
0000
0100
0000
0010
0000
1000
0000
0010
1000
0010
0000
0100
0000
,
0001
0000
0100
0000
0010
0000
0100
0000
0001
0000
0100
0001
0100
0000
0010
0000
,
1000
1000
0001
0001
0100
0100
0010
0010
,
1000
1000
0001
0001
0100
0100
0001
0001
,
2000
0000
0000
0000
,
3001
0000
0101
0000
0110
0000
1010
0000
0110
0000
0101
0000
,
1001
0002
2003
3002
,
1003
0000
0001
1000
0000
0001
1000
0000
0010
0000
0100
0001
0100
0000
0010
0000
,
1000
0000
0100
0001
0000
0100
0001
0000
0010
0000
1000
0010
1000
0000
0100
0000
,
0010
0000
0100
0010
0000
0100
0010
0000
1000
0000
0001
0100
0001
0000
0010
0000
,
1000
0000
0010
1000
0000
0010
1000
0000
0100
0000
0001
0100
0001
0000
0010
0000
,
1000
0000
0100
0010
0000
0100
0010
0000
0001
0000
0100
0001
0100
0000
0010
0000
,
1000
0000
0001
1000
0000
0001
1000
0000
0010
0000
0100
0001
0100
0000
0010
0000
,
1000
0000
0001
1000
0000
0001
1000
0000
0010
0000
0100
0010
0100
0000
0001
0000
,
1001
1001
0110
1010
,
1000
0010
1000
0010
1000
0000
0100
0010
0100
0010
0100
0000
0001
0100
0001
0100
,
0001
0000
1000
0001
1000
0001
1000
0000
1001
0000
0000
0000
0110
0000
0000
0000
,
1000
0001
1000
0001
1000
0000
0100
0010
0100
0010
0100
0000
0001
0100
0001
0100
,
0001
0000
1000
0010
1000
0010
1000
0000
1001
0000
0000
0000
0110
0000
0000
0000
,
1000
0000
0010
0000
1000
0000
0001
0000
1000
0000
0010
0100
0010
0000
0001
0000
,
1000
0000
0010
0000
0100
0000
0001
0000
0100
0000
0001
0100
0001
0000
0010
0000
,
1000
0000
0001
1000
0001
0000
0100
0000
0010
0000
0100
0001
0100
0000
0010
0000
,
1000
0000
0010
1000
0010
0000
0100
0000
0001
0000
1000
0001
1000
0000
0010
0000
,
1000
0000
0010
0000
1000
0000
0001
0000
0100
0000
0010
0001
0010
0000
0100
0000
,
1000
0000
0001
0000
0100
0000
0010
0000
0100
0000
0010
0100
0010
0000
0100
0000
,
1000
0000
0001
0100
0001
0000
1000
0000
0010
0000
0100
0010
0100
0000
0010
0000
,
1000
0000
0001
1000
0001
0000
1000
0000
0001
0000
0000
0000
1001
0000
0000
0000
,
1000
0000
0010
0000
1000
0000
0001
0000
0100
0000
0001
0100
0001
0000
0010
0000
,
1000
0000
0001
0000
0100
0000
0010
0000
0100
0000
0010
1000
0010
0000
0100
0000
,
0001
0000
1000
0000
0010
0000
1000
0000
0001
0000
0010
0001
0010
0000
0100
0000
,
1000
0000
0010
0000
0100
0000
0001
0000
0100
0000
0010
1000
0010
0000
0001
0000
,
1000
0000
0010
0000
0100
0000
0001
0000
0100
0000
0010
0100
0010
0000
1000
0000
,
0010
0000
0100
0000
0010
0000
0001
0000
1000
0000
0001
1000
0001
0000
0100
0000
,
1000
1000
0001
0001
0100
0100
0010
0010
,
1000
1000
0001
0001
1000
1000
0001
0001
,
2000
0000
0000
0000
,
3001
0000
1010
0000
0101
0000
1010
0000
0110
0000
0101
0000
,
1001
0002
2003
3020
,
1030
0000
0001
1000
0000
0001
1000
0000
0010
0000
0100
0001
0100
0000
0001
0000
,
1000
0000
0010
1000
0000
0010
1000
0000
0100
0000
0010
0001
0010
0000
0100
0000
,
1000
0000
0010
1000
0000
0010
1000
0000
0100
0000
0010
0001
0010
0000
1000
0000
,
0001
0000
0100
0001
0000
0100
0001
0000
0010
0000
1000
0010
1000
0000
0010
0000
,
0100
0000
0001
0100
0000
0001
0100
0000
0010
0000
1000
0010
1000
0000
0100
0000
,
0010
0000
0100
0010
0000
0100
0010
0000
0001
0000
1000
0001
1000
0000
0001
0000
,
1000
0000
0010
1000
0000
0010
1000
0000
0100
0000
0010
0001
0010
0000
1000
0000
,
0001
0001
1000
1000
0010
0010
0100
0100
,
1000
0000
0010
1000
0000
0010
1000
0000
0010
0000
0100
0001
0100
0000
0010
0000
,
1000
0000
0001
0100
0000
0001
0100
0000
0010
0000
1000
0010
1000
0000
0001
0000
,
0100
0000
0010
1000
0000
0010
1000
0000
0100
0000
0010
0001
0010
0000
1000
0000
,
0001
0000
0100
0001
0000
0100
0001
0000
0010
0000
1000
0010
1000
0000
0100
0000
,
0010
0000
0100
0001
0000
0100
0001
0000
0010
0000
1000
0010
1000
0000
0100
0000
,
0010
0000
1000
0010
0000
1000
0010
0000
0100
0000
0001
0100
0001
0000
0100
0000
,
0010
0000
1000
0010
0000
1000
0010
0000
0100
0000
0001
0100
0001
0000
0010
0000
,
1010
0110
1001
1010
,
1000
0001
1000
0001
1000
0000
0001
0100
0001
0100
0001
0000
1000
0010
1000
0010
,
1000
0000
0001
0100
0001
0100
0001
0000
1001
0000
0000
0000
0110
0000
0000
0000
,
1000
0010
1000
0010
1000
0000
0100
0010
0100
0010
0100
0000
0001
0010
0001
0010
,
0001
0000
1000
0010
1000
0010
1000
0000
0110
0000
0000
0000
1001
0000
0000
0000
,
1000
0010
1000
0010
1000
0000
0001
0100
0001
0100
0001
0000
1000
0001
1000
0001
,
1000
0000
0001
0100
0001
0100
0001
0000
1001
0000
0000
0000
0110
0000
0000
0000
,
1000
0010
1000
0010
1000
0000
0010
0001
0010
0001
0010
0000
1000
0001
1000
0001
,
1000
0000
0100
0001
0100
0001
0100
0000
1001
0000
0000
0000
0110
0000
0000
0000
,
1001
0000
0000
0000
;
