#TITLE:Gucci Fendi Prada;
#SUBTITLE:;
#ARTIST:Merk & Kremon;
#TITLETRANSLIT:;
#SUBTITLETRANSLIT:;
#ARTISTTRANSLIT:;
#GENRE:;
#CREDIT:Destrier75;
#MUSIC:Gucci Fendi Prada.ogg;
#BANNER:Gucci Fendi Prada.png;
#BACKGROUND:Gucci Fendi Prada-bg.png;
#CDTITLE:;
#SAMPLESTART:23.100;
#SAMPLELENGTH:15.360;
#SELECTABLE:YES;
#OFFSET:1.830;
#BPMS:0.000=125.000;
#STOPS:;
#BGCHANGES:3.813=Gucci Fendi Prada.avi=1.000=1=0=0=StretchNoLoop==CrossFade==,
99999.000=-nosongbg-=1.000=0=0=0=StretchNoLoop====
;
#FGCHANGES:;

//--------------- dance-single - Destrier75 ----------------
#NOTES:
     dance-single:
     Destrier75:
     Beginner:
     2:
     0,0,0,0,0:
0000
0000
0000
0000
,
0000
0000
0000
0000
,
0000
0000
0000
0000
,
0000
0000
0000
0000
,
0000
0000
0000
0000
,
1000
0000
1000
0000
,
0001
0000
0001
0000
,
0100
0000
0100
0000
,
0010
0000
0010
0000
,
1000
0000
1000
0000
,
0001
0000
0001
0000
,
0100
0000
0100
0000
,
0010
0000
0000
0000
,
1000
0000
1000
0000
,
0001
0001
0001
0000
,
0100
0000
0100
0000
,
0010
0010
0010
0000
,
1000
0000
1000
0000
,
0001
0001
0001
0000
,
0100
0000
0100
0000
,
0010
0010
0010
0000
,
1000
0000
1000
0000
,
0001
0000
0001
0000
,
0100
0000
0100
0000
,
0010
0000
0010
0000
,
1000
1000
1000
0000
,
0001
0001
0001
0000
,
0100
0100
0100
0000
,
0010
0010
0010
0000
,
1000
1000
1000
0000
,
0001
0001
0001
0000
,
0100
0100
0100
0000
,
0010
0010
0010
0000
,
0100
0000
0100
0000
,
0010
0000
0010
0000
,
1000
0000
1000
0000
,
0001
0000
0001
0000
,
1000
0000
0000
0000
,
1000
0000
0000
0000
,
0001
0000
0000
0000
,
0001
0000
0000
0000
,
0100
0000
0000
0000
,
0100
0000
0000
0000
,
0010
0000
0000
0000
,
0010
0000
0000
0000
,
1000
0000
1000
0000
,
0001
0000
0001
0000
,
0100
0000
0100
0000
,
0010
0000
0010
0000
,
1000
1000
1000
0000
,
0001
0001
0001
0000
,
0100
0100
0100
0000
,
0010
0010
0010
0000
,
0000
0000
0000
0000
,
0000
0000
0000
0000
,
0000
0000
0000
0000
,
1000
0000
1000
0000
,
0001
0001
0001
0000
,
0100
0000
0100
0000
,
0010
0010
0010
0000
,
1000
0000
1000
0000
,
0001
0001
0001
0000
,
0100
0000
0100
0000
,
0010
0000
0010
0000
,
1000
0000
1000
0000
,
0001
0001
0001
0000
,
0100
0000
0100
0000
,
0010
0010
0010
0000
,
1000
0000
1000
0000
,
0001
0001
0001
0000
,
0100
0000
0100
0000
,
0010
0010
0010
0000
,
1001
0000
0000
0000
;

//--------------- dance-single - Destrier75 ----------------
#NOTES:
     dance-single:
     Destrier75:
     Easy:
     5:
     0,0,0,0,0:
0000
0000
0000
0000
,
0000
0000
0000
0000
,
0000
0000
0000
0000
,
0000
0000
0000
0000
,
0000
0000
0000
0000
,
1000
0100
1000
0100
,
0001
0100
0001
0100
,
1000
0010
1000
0010
,
0001
0100
0001
0100
,
1000
0010
1000
0010
,
0100
0010
0100
0010
,
1000
0001
1000
0001
,
2002
0000
0000
3003
,
1000
1000
0010
0010
,
0100
0100
0001
0001
,
0010
0010
1000
1000
,
0100
0100
0001
0001
,
1000
1000
0001
0001
,
0100
0100
0010
0010
,
1000
1000
0001
0001
,
0010
0010
0100
0100
,
2000
0000
0000
0000
,
3002
0000
0000
0000
,
0203
0000
0000
0000
,
0320
0000
0000
0000
,
0031
0001
1000
1000
,
0010
0010
0100
0100
,
0001
0001
1000
1000
,
0010
0010
0100
0100
,
0001
0100
0001
0100
,
1000
0010
1000
0010
,
0100
0001
0100
0001
,
1000
0010
1000
0010
,
0100
0010
0100
0010
,
1000
0001
1000
0001
,
0100
0010
0100
0010
,
1000
0001
1000
0001
,
2000
0000
0000
0000
,
3002
0000
0000
0000
,
0203
0000
0000
0000
,
0320
0000
0000
0000
,
2030
0000
0000
0000
,
3002
0000
0000
0000
,
0203
0000
0000
0000
,
0320
0000
0000
0000
,
1030
1000
0001
0001
,
0100
0100
0010
0010
,
0100
0100
1000
1000
,
0001
0001
0100
0100
,
0001
0100
0001
0100
,
1000
0010
1000
0010
,
0100
0001
0100
0001
,
2002
0000
0000
0000
,
3003
0000
0000
0000
,
0000
0000
0000
0000
,
0000
0000
0000
0000
,
1000
1000
0010
0010
,
0100
0100
0001
0001
,
0010
0010
0100
0100
,
1000
1000
0001
0001
,
0100
0100
0001
0001
,
1000
1000
0010
0010
,
0100
0100
1000
1000
,
0001
0001
0010
0010
,
1000
0010
1000
0010
,
1000
0001
1000
0001
,
0100
0001
0100
0001
,
0100
0010
0100
0010
,
1000
0010
1000
0010
,
0100
0001
0100
0001
,
1000
0010
1000
0010
,
1000
0001
1000
0001
,
1001
0000
0000
0000
;

//--------------- dance-single - Destrier75 ----------------
#NOTES:
     dance-single:
     Destrier75:
     Medium:
     9:
     0,0,0,0,0:
0000
0000
0000
0000
,
0000
0000
0000
0000
,
0000
0000
0000
0000
,
0000
0000
0000
0000
,
0000
0000
0000
0000
,
0100
0001
0100
0000
0010
0000
0100
0000
,
1000
0010
1000
0000
0100
0000
0010
0000
,
0100
0001
0100
0000
1000
0000
0010
0000
,
0100
0010
0100
0000
0001
0100
0001
0000
,
1000
0010
1000
0000
0001
0100
0001
0000
,
0100
0010
0100
0000
1000
0001
1000
0000
,
1000
0001
1000
0001
1000
0001
1000
0001
,
1000
0000
0000
0010
0000
0000
1000
0000
0001
0000
0000
0000
1001
0000
0000
0000
,
1000
0100
1000
0000
0100
0000
0010
0000
,
0001
0100
0001
0000
0010
0000
0100
0000
,
1000
0010
1000
0000
0100
0000
0010
0000
,
0001
0100
0001
0000
0010
0000
0100
0000
,
0100
0001
0100
0000
0001
0000
1000
0000
,
1000
0010
1000
0000
1000
0000
0001
0000
,
0001
0100
0001
0000
0001
0000
1000
0000
,
0001
1000
0001
0000
1000
0000
0010
0000
,
0100
0010
0100
0000
0010
0000
0010
0000
,
1000
0010
1000
0000
1000
0000
1000
0000
,
0001
0100
0001
0000
0001
0000
0001
0000
,
0100
0010
0100
0000
0010
0000
0100
0000
,
1000
0000
0000
0010
0000
0000
1000
0000
0010
0000
0000
0010
0000
0000
0100
0000
,
0010
0000
0000
0010
0000
0000
0001
0000
0100
0000
0000
0100
0000
0000
0100
0000
,
1000
0000
0000
1000
0000
0000
0010
0000
1000
0000
0000
0100
0000
0000
0100
0000
,
0010
0000
0000
0010
0000
0000
0010
0000
0100
0000
0000
0100
0000
0000
0001
0000
,
1000
0001
1000
0000
0100
0000
0010
0000
,
0001
0100
0001
0000
1000
0000
0010
0000
,
0100
0010
0100
0000
1000
0000
0010
0000
,
0100
0001
0100
0000
0001
0000
0100
0000
,
1000
0000
0000
1000
0000
0000
0001
0000
1000
0000
0000
1000
0000
0000
0010
0000
,
0100
0000
0000
0100
0000
0000
0001
0000
0100
0000
0000
0100
0000
0000
0100
0000
,
0001
0000
0000
0001
0000
0000
0100
0000
0001
0000
0000
0001
0000
0000
0100
0000
,
0001
0000
0000
0001
0000
0000
1000
0000
0100
0000
0000
0100
0000
0000
0010
0000
,
2000
0000
0001
0000
,
3002
0000
0100
0000
,
0203
0000
0010
0000
,
0320
0000
0001
0000
,
0032
0000
1000
0000
,
2003
0000
0010
0000
,
3020
0000
0001
0000
,
0032
0000
1000
0000
,
1003
0100
1000
0000
0001
0010
0001
0000
,
0100
0010
0100
0000
1000
0010
1000
0000
,
0001
0100
0001
0000
1000
0010
1000
0000
,
0100
0001
0100
0000
1000
0010
1000
0000
,
1000
0001
1000
0001
1000
0001
1000
0001
,
0100
0010
0100
0010
0100
0010
0100
0010
,
1000
0001
1000
0001
1000
0001
1000
0001
,
1000
0000
0000
0001
0000
0000
0100
0000
0001
0000
0000
0100
0000
0000
0010
0000
,
0100
0000
0000
0000
,
1000
0001
1000
0000
0100
0000
0010
0000
,
0001
0100
0001
0000
0010
0000
0100
0000
,
0100
0010
0100
0000
0001
0000
0100
0000
,
1000
0010
1000
0000
0100
0000
0010
0000
,
0100
0001
0100
0000
0010
0000
0100
0000
,
1000
0010
1000
0000
0001
0000
0100
0000
,
0001
0100
0001
0000
1000
0000
0010
0000
,
0100
0010
0100
0000
1000
0000
0010
0000
,
0100
0001
0100
0000
0010
0000
0100
0000
,
1000
0010
1000
0000
0100
0000
0010
0000
,
0001
0100
0001
0100
0001
0000
0010
0000
,
1000
0100
1000
0100
1000
0000
0010
0000
,
0100
0010
0100
0010
0100
0000
0001
0000
,
1000
0001
1000
0001
1000
0000
0010
0000
,
0100
0001
0100
0001
0100
0000
0010
0000
,
1000
0010
1000
0010
1000
0000
0100
0000
,
0001
0100
0001
0100
0001
0000
0010
0000
,
1000
0010
1000
0010
1000
0000
0100
0000
,
1001
0000
0000
0000
;

//--------------- dance-single - Destrier75 ----------------
#NOTES:
     dance-single:
     Destrier75:
     Hard:
     13:
     0,0,0,0,0:
0000
0000
0000
0000
,
0000
0000
0000
0000
,
0000
0000
0000
0000
,
0000
0000
0000
0000
,
0000
0000
0000
0000
,
0100
0000
0000
0001
0000
0000
1000
0000
0010
0000
0000
0100
0000
0000
0010
0000
,
0100
0000
0000
0001
0000
0000
1000
0000
0001
0000
0000
0100
0000
0000
0001
0000
,
0100
0000
0000
0010
0000
0000
1000
0000
0010
0000
0000
0100
0000
0000
0001
0000
,
1000
0100
1000
1000
0010
0001
0010
0010
,
0100
0010
0100
0100
1000
0010
1000
1000
,
0100
0001
0100
0100
0010
0001
0010
0010
,
1000
0100
1000
0000
0001
0100
0001
0000
0100
0010
0100
0000
0001
0100
0001
0000
,
1001
0000
0000
0110
0000
0000
1001
0000
1001
0000
0000
0000
1000
0001
1000
0001
,
1000
0010
1000
0001
0200
0001
0301
0000
,
1000
0001
2000
0000
3010
0001
0100
0010
,
1000
0010
1000
0100
0002
0100
0103
0000
,
1000
0001
1000
0100
0020
0100
0130
1000
,
0001
0100
0001
1000
0020
0100
0130
0000
,
1000
0010
1000
0100
0002
0100
0103
0010
,
1000
0010
0100
0001
2000
0010
3010
0000
,
1000
0010
0100
0001
0200
0010
0310
0001
,
1001
0010
0100
0001
0010
0100
0001
1000
,
0001
0100
0001
0100
0010
0100
1000
0001
,
0100
0001
1000
0001
0100
0010
0100
0001
,
1000
0010
0200
0000
0001
0301
1000
0010
,
1001
0000
0000
0100
0000
0000
1000
0000
0000
0100
0000
0000
1001
0000
0000
0010
,
0000
0000
0001
0000
0000
0010
0000
0000
1001
0000
0000
0100
0000
0000
0010
0000
,
1010
0000
0000
0001
0000
0000
1000
0000
0000
0001
0000
0000
0110
0000
0000
0010
,
0000
0000
0100
0000
0000
0010
0000
0000
0101
0000
0000
0001
0000
0000
0100
0000
,
0100
0000
1000
0010
1000
0000
0100
0000
0001
0000
0010
0100
0010
0000
0001
0000
,
1000
0000
0100
0001
0100
0000
0010
0000
0100
0000
1000
0001
1000
0000
0100
0000
,
0010
0000
0001
1000
0001
0000
0010
0000
1000
0000
0100
0010
0100
0000
0001
0000
,
1000
0000
0001
0100
0001
0000
1000
0000
0001
0000
0010
0100
0010
0000
0100
0000
,
0010
0000
0000
0001
0000
0000
0100
0000
0001
0000
0000
1000
0000
0000
0001
0000
,
0100
0000
0000
0010
0000
0000
0100
0000
0001
0000
0000
0100
0000
0000
1000
0000
,
0010
0000
0000
0100
0000
0000
0001
0000
0100
0000
0000
0010
0000
0000
0100
0000
,
0010
0000
0000
0100
0000
0000
0010
0000
1000
0000
0000
0001
0000
0000
0010
0000
,
2000
0001
0000
0001
,
3002
0100
0000
0100
,
0203
0010
0000
0010
,
0320
1000
0000
1000
,
2030
0001
0000
0001
,
3002
0100
0000
0100
,
0203
0010
0000
0010
,
0320
1000
0000
1000
,
1030
0100
0010
0001
1000
0001
1000
0001
,
0100
0010
1000
0001
0100
0010
0100
0010
,
0001
0100
1000
0010
0100
1000
0001
0100
,
0001
0010
1000
0010
0001
0010
1000
0001
,
1000
0100
1000
0000
0001
0010
0001
0000
1000
0100
0010
0000
0001
0010
0100
0000
,
1000
0100
0010
0000
0001
0100
0001
0000
1000
0010
1000
0000
0100
0010
0100
0000
,
0001
0100
0001
0000
1000
0010
1000
0000
0100
0010
0100
0000
0001
0100
0001
0000
,
1000
0000
0000
0001
0000
0000
0100
0000
1000
0001
1000
0001
1000
0000
0001
0000
,
1001
0000
0000
0000
,
1000
0010
1000
0001
0200
0010
0310
0000
,
0001
0100
0010
0100
2000
0010
3010
0100
,
0010
0100
1000
0001
0200
0001
0301
0000
,
0010
0100
1000
0010
0200
0010
0310
0001
,
1000
0010
0100
0010
0200
0001
0301
0000
,
1000
0010
0100
0001
0200
0010
0310
0001
,
1000
0010
0100
0010
2000
0010
3010
0000
,
0001
0100
0001
0010
0002
0100
0103
0010
,
1000
0010
0100
0010
2000
0010
3010
0000
,
1001
0000
0000
1001
0000
0000
1001
0000
0000
1001
0000
0000
1000
0000
0001
0000
,
1001
0010
1000
0001
0100
0001
1000
0100
,
0010
0001
1000
0010
2000
0010
3010
0100
,
0010
0001
1000
0010
0100
0010
1000
0001
,
0100
0010
1000
0001
0200
0010
0310
0001
,
1000
0010
0100
0001
0100
0010
1000
0010
,
0100
0001
1000
0010
0200
0010
0310
0001
,
1000
0100
1000
0001
0100
0010
1000
0010
,
0100
0001
1000
0001
0200
0010
0310
0001
,
1001
0000
0000
0000
;
