#TITLE:Freaky Deaky;
#SUBTITLE:;
#ARTIST:Tyga & Doja Cat;
#TITLETRANSLIT:;
#SUBTITLETRANSLIT:;
#ARTISTTRANSLIT:;
#CREDIT:Destrier75;
#BANNER:Freaky Deaky.png;
#BACKGROUND:Freaky Deaky-bg.png;
#LYRICSPATH:;
#CDTITLE:;
#MUSIC:Freaky Deaky.ogg;
#OFFSET:0.000;
#SAMPLESTART:73.732;
#SAMPLELENGTH:15.000;
#SELECTABLE:YES;
#BPMS:0.000=104.000;
#STOPS:;
#BGCHANGES:0.000=Freaky Deaky.avi=1.000=1=1=0,
99999=-nosongbg-=1.000=0=0=0 // don't automatically add -songbackground-
;

//---------------dance-single - Destrier75----------------
#NOTES:
     dance-single:
     Destrier75:
     Beginner:
     1:
     0.136,0.148,0.019,0.000,0.000:
0000
0000
0000
0000
,
0000
0000
0000
0000
,
0000
0000
0000
0000
,
0000
0000
0000
0000
,
1000
0000
0100
0000
,
0010
0000
0001
0000
,
1000
0000
0010
0000
,
0100
0000
0001
0000
,
1000
1000
1000
0000
,
0001
0001
0001
0000
,
0100
0100
0100
0000
,
1001
0000
0000
0000
,
0100
0000
0100
0000
,
0100
0100
0100
0000
,
0010
0000
0010
0000
,
0010
0010
0010
0000
,
1000
0000
1000
0000
,
1000
1000
1000
0000
,
0001
0000
0001
0000
,
0001
0001
0001
0000
,
0100
0000
0100
0000
,
0100
0100
0100
0000
,
0010
0000
0010
0000
,
0010
0010
0010
0000
,
1000
0000
0100
0000
,
0010
0000
0001
0000
,
1000
0000
0010
0000
,
0100
0000
0001
0000
,
1000
1000
1000
0000
,
0100
0100
0100
0000
,
0010
0010
0010
0000
,
0001
0001
0001
0000
,
1000
0000
1000
0000
,
1000
1000
1000
0000
,
0001
0000
0001
0000
,
0001
0001
0001
0000
,
0100
0000
0100
0000
,
0100
0100
0100
0000
,
0010
0000
0010
0000
,
0010
0010
0010
0000
,
1000
0000
0001
0000
,
0100
0000
0010
0000
,
1000
0000
0100
0000
,
0010
0000
0001
0000
,
1001
0000
0000
0000
;

//---------------dance-single - Destrier75----------------
#NOTES:
     dance-single:
     Destrier75:
     Easy:
     4:
     0.214,0.232,0.192,0.154,0.000:
0000
0000
0000
0000
,
0000
0000
0000
0000
,
0000
0000
0000
0000
,
0000
0000
0000
0000
,
2000
0000
0000
0000
,
3002
0000
0000
0000
,
0203
0000
0000
0000
,
0320
0000
0000
0000
,
1030
0010
1000
0010
,
0100
0001
0100
0001
,
0100
0010
0100
0010
,
2000
0000
3002
0000
,
1003
0010
0100
0001
,
1000
1001
0001
0101
,
1000
0010
0100
0001
,
1000
1010
0001
0101
,
1000
0100
0010
0001
,
1000
1100
0001
0101
,
1000
0100
0010
0001
,
1000
1100
0001
0101
,
1000
0010
1000
0010
,
0100
0110
0010
1010
,
0001
0100
0001
0100
,
0001
0101
0100
0110
,
2000
0000
0000
0000
,
3002
0000
0000
0000
,
0203
0000
0000
0320
,
0000
0000
0000
0000
,
1030
0010
1000
0010
,
0100
0001
0100
0001
,
0100
0010
0100
0010
,
0200
0000
0320
0000
,
1030
0010
0100
0001
,
1000
1010
0010
0011
,
1000
0100
1000
0100
,
0001
0101
0100
0110
,
0100
0010
0100
0010
,
1000
1100
0001
0011
,
1000
0001
1000
0001
,
0100
0110
0001
0101
,
2000
0000
0000
0000
,
3002
0000
0000
0000
,
0203
0000
0000
0000
,
0320
0000
0000
0000
,
0030
0000
0000
0000
;

//---------------dance-single - Destrier75----------------
#NOTES:
     dance-single:
     Destrier75:
     Medium:
     7:
     0.271,0.274,0.000,0.154,0.000:
0000
0000
0000
0000
,
0000
0000
0000
0000
,
0000
0000
0000
0000
,
0000
0000
0000
0000
,
2000
0000
0001
0000
,
3002
0000
0100
0000
,
0203
0000
0010
0000
,
0320
0000
1000
0000
,
1030
0001
1000
0001
1000
0000
0010
0000
,
0100
0010
0100
0010
0100
0000
0010
0000
,
1000
0010
1000
0010
1000
0000
0010
0000
,
2000
0000
3002
0000
,
1003
0010
1000
0010
1000
0000
0010
0000
,
0100
0001
0100
0001
0100
0000
0010
0000
,
1000
0010
1000
0000
0001
0100
0001
0000
,
1000
0010
1000
0010
1000
0000
0001
0000
,
1000
0100
1000
0100
1000
0000
0010
0000
,
0100
0001
0100
0001
0100
0000
0010
0000
,
1000
0001
1000
0000
0010
0100
0010
0000
,
1000
0001
1000
0001
1000
0000
0001
0000
,
1000
0010
1000
0010
1000
0000
0010
0000
,
0100
0001
0100
0001
0100
0000
0010
0000
,
1000
0010
1000
0000
0001
0100
0001
0000
,
1000
0100
0010
0001
1000
0000
0001
0000
,
2000
0000
0001
0000
,
3002
0000
0100
0000
,
0203
0000
0010
0000
,
0320
0000
1000
0000
,
1030
0001
1000
0000
0010
0000
0100
0000
,
1000
0010
1000
0000
0001
0000
0100
0000
,
1000
0010
1000
0000
0100
0000
0010
0000
,
0200
0000
0320
0000
,
1030
0010
1000
0010
1000
0000
0010
0000
,
0100
0010
0100
0000
1000
0001
1000
0000
,
0001
0100
0001
0100
0001
0000
0100
0000
,
1000
0010
1000
0000
0001
0100
0001
0000
,
1000
0010
1000
0010
1000
0000
0010
0000
,
0100
0010
0100
0000
1000
0001
1000
0000
,
0001
0100
0001
0100
0001
0000
0100
0000
,
1000
0010
1000
0000
0001
0100
0001
0000
,
2000
0000
0001
0000
,
3002
0000
0100
0000
,
0203
0000
0010
0000
,
0320
0000
1000
0000
,
1030
0000
0000
0000
;

//---------------dance-single - Destrier75----------------
#NOTES:
     dance-single:
     Destrier75:
     Hard:
     10:
     0.371,0.359,0.096,0.240,0.000: // measure 1
0000
0000
0000
0000
,  // measure 2
0000
0000
0000
0000
,  // measure 3
0000
0000
0000
0000
,  // measure 4
0000
0000
0000
0000
,  // measure 5
2001
0010
3020
0100
,  // measure 6
0230
0001
0302
1000
,  // measure 7
2003
0100
3200
0010
,  // measure 8
0320
0001
0032
1000
,  // measure 9
1003
0010
0100
0001
1000
0000
1001
0000
,  // measure 10
1000
0100
0010
0001
1000
0000
1010
0000
,  // measure 11
0100
0010
1000
0001
0100
0000
0101
0000
,  // measure 12
2000
0000
3002
0000
,  // measure 13
1003
0100
0010
0001
1000
0010
0100
0000
,  // measure 14
1000
1000
0010
0010
0100
0100
0001
0000
,  // measure 15
1000
0010
0010
0100
0001
0100
0010
0000
,  // measure 16
1000
0100
0010
0001
1000
0010
0010
0000
,  // measure 17
1000
0010
1000
0001
0100
0001
1000
0000
,  // measure 18
1000
0100
0010
0001
1000
0010
0100
0000
,  // measure 19
1000
0010
0100
0001
1000
0001
1000
0000
,  // measure 20
0001
0100
0001
1000
0010
1000
0010
0000
,  // measure 21
1000
0010
0100
0001
1000
0100
0010
0000
,  // measure 22
0001
0100
0010
1000
0001
0010
0100
0000
,  // measure 23
1000
0010
0100
0001
1000
0100
0010
0000
,  // measure 24
1000
0001
1000
0001
0100
0001
1000
0000
,  // measure 25
2001
0010
3020
0100
,  // measure 26
0230
0001
0302
1000
,  // measure 27
2003
0100
3200
0010
,  // measure 28
0320
0001
0032
1000
,  // measure 29
1003
0010
0100
0001
1000
0000
1010
0000
,  // measure 30
1000
0100
0010
0001
1000
0000
1001
0000
,  // measure 31
0001
0100
0100
0010
1000
0000
1010
0000
,  // measure 32
2001
0000
3002
0000
,  // measure 33
1003
0010
0100
0001
1000
0100
0010
0001
,  // measure 34
1000
0010
1000
0001
0100
0001
1000
0000
,  // measure 35
0100
0010
1000
0001
0100
0010
1000
0100
,  // measure 36
0010
0001
1000
0010
0100
0001
1000
0000
,  // measure 37
1000
0100
0010
0001
1000
0010
1000
0001
,  // measure 38
0100
0001
1000
0100
0010
0001
1000
0000
,  // measure 39
0100
0001
1000
0010
0100
0001
1000
0100
,  // measure 40
0010
0001
1000
0010
1000
0001
0100
0000
,  // measure 41
2001
0000
0000
0001
0000
3002
0000
1000
,  // measure 42
2003
0001
0000
0001
0000
0001
0000
0001
,  // measure 43
3002
0100
0000
0100
0000
0100
0000
0100
,  // measure 44
0203
0010
0000
0010
0000
0010
0000
0010
,  // measure 45
0310
0000
0000
0000
;
