#TITLE:Feel;
#SUBTITLE:;
#ARTIST:DJ Mocha;
#TITLETRANSLIT:;
#SUBTITLETRANSLIT:;
#ARTISTTRANSLIT:;
#GENRE:;
#CREDIT:DJ MochaDestrier75;
#MUSIC:Feel.ogg;
#BANNER:Feel.png;
#BACKGROUND:Feel-bg.png;
#CDTITLE:;
#SAMPLESTART:39.705;
#SAMPLELENGTH:15.000;
#SELECTABLE:YES;
#OFFSET:1.000;
#BPMS:0.000=123.800;
#STOPS:;
#BGCHANGES:2.063=Feel.avi=1.000=1=0=0=StretchNoLoop==CrossFade==,
99999.000=-nosongbg-=1.000=0=0=0=StretchNoLoop====
;
#FGCHANGES:;

//--------------- dance-single - Destrier75 ----------------
#NOTES:
     dance-single:
     Destrier75:
     Beginner:
     2:
     0,0,0,0,0:
0000
0000
0000
0000
,
0000
0000
0000
0000
,
0000
0000
0000
0000
,
0000
0000
0000
0000
,
0100
0000
0100
0000
,
0100
0100
0100
0000
,
0010
0000
0010
0000
,
0010
0010
0010
0000
,
1000
0000
1000
0000
,
1000
1000
1000
0000
,
0001
0000
0001
0000
,
0001
0001
0001
0000
,
0100
0000
0010
0000
,
1000
1000
1000
0000
,
0001
0000
0001
0000
,
0001
0001
0001
0000
,
0100
0000
0100
0000
,
0100
0100
0100
0000
,
0010
0000
0010
0000
,
0010
0010
0010
0000
,
0100
0000
0100
0000
,
1000
1000
1000
0000
,
0001
0001
0001
0000
,
0100
0100
0100
0000
,
0010
0010
0010
0000
,
0100
0100
0100
0000
,
0001
0001
0001
0000
,
1000
1000
1000
0000
,
0001
0000
1000
0000
,
0001
0001
0001
0000
,
0100
0100
0100
0000
,
0010
0010
0010
0000
,
1000
1000
1000
0000
,
0001
0001
0001
0000
,
0100
0100
0100
0000
,
0010
0010
0010
0000
,
0100
0000
0010
0000
,
0100
0000
0100
0000
,
0100
0100
0100
0000
,
0010
0000
0010
0000
,
0010
0010
0010
0000
,
1000
0000
1000
0000
,
1000
1000
1000
0000
,
0001
0000
0001
0000
,
0001
0001
0001
0000
,
0100
0000
0100
0000
,
0100
0100
0100
0000
,
0010
0000
0010
0000
,
0010
0010
0010
0000
,
0100
0000
0100
0000
,
0010
0000
0010
0000
,
1000
1000
1000
0000
,
0001
0001
0001
0000
,
0100
0100
0100
0000
,
0010
0010
0010
0000
,
1000
1000
1000
0000
,
0001
0000
0001
0000
,
0100
0100
0100
0000
,
0010
0010
0010
0000
,
1000
1000
1000
0000
,
0001
0001
0001
0000
,
0100
0100
0100
0000
,
0010
0010
0010
0000
,
1000
1000
1000
0000
,
0001
0001
0001
0000
,
1001
0000
0000
0000
;

//--------------- dance-single - Destrier75 ----------------
#NOTES:
     dance-single:
     Destrier75:
     Easy:
     5:
     0,0,0,0,0:
0000
0000
0000
0000
,
0000
0000
0000
0000
,
0000
0000
0000
0000
,
0000
0000
0000
0000
,
0100
0100
0100
0000
,
0010
0100
0010
0100
,
0001
0000
0001
0000
,
1000
0001
1000
0001
,
0100
0000
0100
0000
,
1000
0010
1000
0010
,
0100
0000
0100
0000
,
0001
0100
0001
0100
,
2000
0000
0000
0000
0000
0000
0000
0000
0000
0000
0000
0000
0000
0000
0000
0000
0000
0000
0000
0000
0000
0000
0000
0000
0000
0000
0000
0000
0000
0000
0000
0000
0000
0000
0000
0000
0000
0000
0000
0000
0000
0000
0000
0000
0000
0000
0000
0000
0000
0000
0000
0000
0000
0000
0000
0000
0000
0000
0000
0000
0000
0000
0000
0000
0000
0000
0000
0000
0000
0000
0000
0000
0000
0000
0000
0000
0000
0000
0000
0000
0000
0000
0000
0000
0000
3000
0000
0000
0000
0000
0000
0000
0000
0000
0000
0000
0002
0000
0000
0000
0000
0000
0000
0000
0000
0000
0000
0000
0000
0000
0000
0000
0000
0000
0000
0000
0000
0000
0000
0000
0000
0000
0000
0000
0000
0000
0000
0000
0000
0000
0000
0000
0000
0000
0000
0000
0000
0000
0000
0000
0000
0000
0000
0000
0000
0000
0000
0000
0000
0000
0000
0000
0000
0000
0000
0000
0000
0000
0000
0000
0000
0000
0000
0000
0000
0000
0000
0000
0000
0000
0000
0000
0000
0000
0000
0000
0000
0000
0000
0000
0000
0000
0000
0000
0000
0000
0000
0000
0000
0000
0000
0000
,
1003
0010
1000
0010
,
0100
0000
0100
0000
,
0001
0100
0001
0100
,
0010
0000
0010
0000
,
1000
0010
1000
0010
,
0100
0000
0100
0000
,
0001
0100
0001
0100
,
0200
0000
0320
0000
,
1030
0001
1000
1001
,
0001
0100
0001
0101
,
1000
0010
1000
1010
,
0100
0010
0100
0110
,
0001
1000
0001
1001
,
1000
0010
1000
1010
,
0000
0000
0000
0000
,
2000
0000
3002
0000
,
1003
0010
1000
1010
,
0001
0100
0001
0101
,
0100
0010
0100
0110
,
1000
0100
1000
1100
,
0001
0100
0001
0101
,
1000
0001
1000
1001
,
0100
0010
0100
0110
,
2000
0000
3002
0000
,
1003
0100
1000
0100
,
0001
0100
0001
0100
,
1000
0010
1000
0010
,
0100
0001
0100
0001
,
1000
1000
0001
0001
,
0100
0100
0010
0010
,
1000
1000
0001
0001
,
0100
0100
0010
0010
,
1000
1000
0001
0001
,
0100
0100
0010
0010
,
1000
1000
0001
0001
,
0100
0100
0010
0010
,
1000
0001
1000
0001
,
0100
0010
0100
0000
,
1000
0010
1000
1010
,
0001
0100
0001
0101
,
1000
0010
1000
1010
,
0100
0010
0100
0110
,
0001
1000
0001
1001
,
2000
0000
3002
0000
,
1003
0010
1000
1010
,
0001
0100
0001
0101
,
0100
0010
0100
0110
,
1000
0010
1000
1010
,
0001
0100
0001
0101
,
1000
0001
1000
1001
,
0001
0100
0001
0101
,
2000
0000
3002
0000
,
2000
0000
0000
0000
,
3003
0000
0000
0000
;

//--------------- dance-single - Destrier75 ----------------
#NOTES:
     dance-single:
     Destrier75:
     Medium:
     8:
     0,0,0,0,0:
0000
0000
0000
0000
,
0000
0000
0000
0000
,
0000
0000
0000
0000
,
0000
0000
0000
0000
,
1000
0001
2000
3001
,
1000
0010
1000
0000
0010
0000
0100
0000
,
0001
0100
0001
0000
0100
0000
0010
0000
,
1000
0010
1000
0000
0001
0000
0100
0000
,
0001
0100
0001
0000
0100
0000
0010
0000
,
1000
0010
1000
0000
0100
0000
0010
0000
,
0100
0001
0100
0000
0010
0000
0100
0000
,
1000
0010
1000
0000
0100
0000
0010
0000
,
2000
3002
2003
3002
,
1003
0010
1000
0000
0100
0000
0010
0000
,
0001
0100
0001
0000
0100
0000
0010
0000
,
1000
0001
1000
0000
0001
0000
0100
0000
,
0001
0100
0001
0000
0100
0000
0010
0000
,
1000
0010
1000
0000
0100
0000
0010
0000
,
0100
0001
0100
0000
0010
0000
0100
0000
,
1000
0001
1000
0000
0010
0000
0100
0000
,
2000
3002
2003
3002
,
1003
0010
1000
0010
1000
0000
0100
0000
,
0001
0100
0001
0100
0001
0000
0010
0000
,
1000
0010
1000
0010
1000
0000
0100
0000
,
0001
0100
0001
0100
0001
0000
0010
0000
,
1000
0010
1000
0010
1000
0000
0100
0000
,
0001
0100
0001
0100
0001
0000
0010
0000
,
1000
0001
1000
0000
0001
1000
0001
0000
,
0200
0302
0203
0302
,
1003
0010
1000
0010
1000
0000
0100
0000
,
0001
0100
0001
0100
0001
0000
0010
0000
,
1000
0010
1000
0010
1000
0000
0100
0000
,
0001
0100
0001
0100
0001
0000
0010
0000
,
1000
0010
1000
0010
1000
0000
0100
0000
,
0001
0100
0001
0100
0001
0000
0010
0000
,
1000
0001
1000
0000
0001
0100
0001
0000
,
2000
3002
2003
3002
,
1003
0010
1000
0000
0010
0000
1010
0000
,
1000
0001
1000
0000
0001
0000
1001
0000
,
0100
0001
0100
0000
0001
0000
0101
0000
,
1000
0010
1000
0000
1000
0000
1010
0000
,
1000
0001
1000
0000
0001
0100
0001
0000
,
2000
3002
0203
0320
,
1030
0001
1000
0000
0010
0000
0100
0000
,
1000
0001
1000
0000
0001
0000
0100
0000
,
1000
0010
1000
0000
0001
0000
0100
0000
,
0001
1000
0001
0000
1000
0010
1000
0000
,
0002
0203
0320
2030
,
3001
0100
0001
0000
1000
0010
1000
0000
,
1000
0001
1000
0001
1000
0000
0010
0000
,
0100
0010
0100
0010
0100
0000
0000
0000
,
1000
0010
1000
0010
1000
0000
0100
0000
,
0001
0100
0001
0100
0001
0000
0010
0000
,
0100
0010
0100
0010
0100
0000
1000
0000
,
0001
0100
0001
0100
0001
0000
0010
0000
,
1000
0001
1000
0001
1000
0000
0010
0000
,
1000
0010
1000
0010
1000
0000
0100
0000
,
0001
0100
0001
0100
0001
0000
0010
0000
,
1000
0010
1000
0010
1000
0000
0100
0000
,
1000
0001
1000
0001
1000
0000
0010
0000
,
0100
0010
0100
0010
0100
0000
0001
0000
,
1000
0001
1000
0001
1000
0000
0010
0000
,
0100
0010
0100
0010
0100
0000
0001
0000
,
1000
0001
1000
0001
1000
0000
0010
0000
,
0200
0320
2030
3002
,
2000
0000
0000
0000
,
3003
0000
0000
0000
;

//--------------- dance-single - Destrier75 ----------------
#NOTES:
     dance-single:
     Destrier75:
     Hard:
     12:
     0.511,0.435,0.101,0.418,0.271:
0000
0000
0000
0000
,
0000
0000
0000
0000
,
0000
0000
0000
0000
,
0000
0000
0000
0000
,
1000
0000
0000
0001
1000
0000
0000
1000
0020
0000
0000
0000
1030
0000
0000
0000
,
1001
0000
0000
0010
0000
0000
1000
0000
0010
0000
0000
0001
0000
0000
0100
0000
,
0001
0000
0000
0100
0000
0000
0001
0000
1000
0000
0000
0010
0000
0000
0100
0000
,
1001
0000
0000
1000
0000
0000
0010
0000
0100
0000
0000
0010
0000
0000
1000
0000
,
0001
0000
0000
0100
0000
0000
0010
0000
1000
0000
0000
0010
0000
0000
0100
0000
,
1001
0000
0000
0010
0000
0000
0100
0000
0001
0000
0000
0100
0000
0000
0010
0000
,
1000
0000
0000
0001
0000
0000
0100
0000
0010
0000
0000
0100
0000
0000
0010
0000
,
1001
0000
0000
0100
0000
0000
0010
0000
1000
0000
0000
0001
0000
0000
0100
0000
,
0002
2003
3020
2030
,
3001
0000
0000
0010
0000
0000
0100
0000
0010
0000
0000
0100
0000
0000
0001
0000
,
1000
0000
0000
0010
0000
0000
0100
0000
0001
0000
0000
0100
0000
0000
0010
0000
,
1001
0000
0000
0010
0000
0000
0100
0000
0001
0000
0000
0100
0000
0000
0010
0000
,
1000
0000
0000
0010
0000
0000
0100
0000
0001
0000
0000
0100
0000
0000
0010
0000
,
1001
0000
0000
0100
0000
0000
0001
0000
0100
0000
0000
0010
0000
0000
1000
0000
,
0010
0000
0000
0100
0000
0000
0010
0000
1000
0000
0000
0001
0000
0000
0100
0000
,
1001
0000
0000
0010
0000
0000
1000
0000
0001
0000
0000
0100
0000
0000
0010
0000
,
2000
3002
0203
0320
,
2030
0000
0000
0000
3001
0000
0100
0000
0001
0000
0100
0001
0000
0000
0100
0000
,
2000
0000
0000
0000
3001
0000
0100
0000
0001
0000
0100
0001
0000
0000
0010
0000
,
2000
0000
0000
0000
3010
0000
0100
0000
0001
0000
0100
0001
0000
0000
0010
0000
,
2000
0000
0000
0000
3010
0000
0100
0000
0001
0000
0100
0001
0000
0000
0010
0000
,
0002
0000
0000
0000
0103
0000
0010
0000
1000
0000
0010
1000
0000
0000
0100
0000
,
2000
0000
3001
0100
0010
0100
0001
0010
,
1001
0000
0000
0001
0000
0000
0100
0000
0010
0000
0000
1000
0000
0000
1010
0000
,
2000
3002
0203
0320
,
2030
0000
0000
0000
3001
0000
0100
0000
0010
0000
0100
0001
0000
0000
0010
0000
,
2000
0000
0000
0000
3010
0000
0100
0000
0001
0000
0100
0001
0000
0000
0010
0000
,
0200
0000
0000
0000
0310
0000
0100
0000
1000
0000
0001
0100
0000
0000
0010
0000
,
2000
0000
0000
0000
3001
0000
0100
0000
0010
0000
0100
0001
0000
0000
0010
0000
,
2000
0000
0000
0000
3001
0000
0100
0000
0010
0000
0100
0001
0000
0000
0010
0000
,
0002
0000
0000
0000
0103
0000
0010
0000
0100
0000
0010
1000
0000
0000
0100
0000
,
2000
0000
0000
0000
3001
0000
0100
0000
0010
0000
0100
0001
0000
0000
0010
0000
,
2000
3002
0203
0302
,
1003
0000
0000
0010
1000
0000
0010
0000
0100
0000
0001
0000
1000
0000
0010
0000
,
0100
0000
0000
0010
0100
0000
0001
0000
1000
0000
0010
0000
0100
0000
0001
0000
,
1000
0000
0000
0010
1000
0000
0010
0000
0100
0000
0001
0000
1000
0000
0100
0000
,
0010
0000
0000
0001
0100
0000
0001
0000
1000
0000
0001
0000
0100
0000
0001
0000
,
1001
0000
0000
0000
0001
0000
0100
0000
0001
0000
0010
0100
0000
0000
0010
0000
,
2000
0000
3001
0000
1000
0010
1000
0001
,
0200
0000
0000
0000
0301
0000
1000
0000
0001
0000
0100
0001
0000
0000
1000
0000
,
0020
0000
1030
0000
0001
1000
0001
0010
,
0100
0000
0000
0000
0001
0000
0100
0000
0010
0000
0100
0010
0000
0000
1000
0000
,
0002
0000
1003
0010
1000
0010
0100
0001
,
2000
0000
0000
0000
3010
0000
0100
0000
0010
0000
0100
0001
0000
0000
0010
0000
,
0000
1000
0000
0010
0000
0100
0010
0000
0000
0001
0000
1000
0000
0001
0100
0000
,
2000
0000
3001
0100
0001
0100
0101
0000
,
0002
0000
1003
0010
1010
0000
0000
0000
,
2000
0000
0000
0000
3001
0000
0100
0000
0001
0000
0100
0001
0000
0000
0100
0000
,
2000
0000
0000
0000
3010
0000
0100
0000
0001
0000
0100
0001
0000
0000
0010
0000
,
2000
0000
0000
0000
3001
0000
0100
0000
0001
0000
0100
0010
0000
0000
0010
0000
,
2000
0000
3010
0100
0001
0100
0001
0010
,
1001
0000
0000
0010
0000
0000
1000
0000
0001
0000
0000
0100
0000
0000
0010
0000
,
2000
3002
0203
0320
,
2030
0000
0000
0000
3001
0000
0100
0000
0010
0000
0100
0010
0000
0000
0001
0000
,
2000
0000
0000
0000
3001
0000
0100
0000
0010
0000
0100
0001
0000
0000
0100
0000
,
0002
0000
0000
0000
0103
0000
0010
0000
1000
0000
0010
0100
0000
0000
0001
0000
,
2000
0000
0000
0000
3010
0000
0100
0000
0001
0000
0100
0001
0000
0000
0010
0000
,
2000
0000
0000
0000
3010
0000
0100
0000
0001
0000
0100
0010
0000
0000
1000
0000
,
0020
0000
0000
0000
0130
0000
0001
0000
0100
0000
0010
0100
0000
0000
0010
0000
,
2000
0000
0000
0000
3001
0000
0100
0000
0010
0000
0100
0001
0000
0000
0010
0000
,
1000
0010
1000
0001
1000
0010
0200
0000
,
0020
0000
0000
0000
,
0330
0000
0000
0000
;
