#TITLE:Fairy in Strasbourg;
#SUBTITLE:;
#ARTIST:Laur;
#TITLETRANSLIT:;
#SUBTITLETRANSLIT:;
#ARTISTTRANSLIT:;
#GENRE:;
#CREDIT:Destrier75;
#MUSIC:Fairy in Strasbourg.ogg;
#BANNER:Fairy in Strasbourg.png;
#BACKGROUND:Fairy in Strasbourg-bg.png;
#CDTITLE:;
#SAMPLESTART:0.000;
#SAMPLELENGTH:0.000;
#SELECTABLE:YES;
#OFFSET:0.800;
#BPMS:0.000=138.000;
#STOPS:;
#BGCHANGES:;
#FGCHANGES:;

//--------------- dance-single - Destrier75 ----------------
#NOTES:
     dance-single:
     Destrier75:
     Beginner:
     3:
     0,0,0,0,0:
0000
0000
0000
0000
,
0000
0000
0000
0000
,
0000
0000
0000
0000
,
0000
0000
0000
0000
,
0000
0000
0000
0000
,
0000
0000
0000
0000
,
0000
0000
0000
0000
,
0000
0000
0000
0000
,
0000
0000
0000
0000
,
1000
0000
1000
0000
,
0001
0000
0001
0000
,
0100
0000
0100
0000
,
0010
0000
0010
0000
,
1000
1000
1000
0000
,
0001
0001
0001
0000
,
0100
0100
0100
0000
,
0010
0000
0000
0000
,
1000
0000
1000
0000
,
0001
0000
0001
0000
,
0100
0000
0100
0000
,
0010
0000
0010
0000
,
1000
0000
1000
0000
,
0001
0000
0001
0000
,
0100
0000
0100
0000
,
0010
0000
0010
0000
,
1000
1000
1000
0000
,
0001
0001
0001
0000
,
0100
0100
0100
0000
,
0010
0010
0010
0000
,
0001
0001
0001
0000
,
1000
1000
1000
0000
,
0010
0010
0010
0000
,
0100
0100
0100
0000
,
0001
0001
0001
0000
,
1000
1000
1000
0000
,
0010
0010
0010
0000
,
0100
0100
0100
0000
,
0001
0001
0001
0000
,
1000
1000
1000
0000
,
0010
0010
0010
0000
,
0100
0100
0100
0000
,
0010
0000
0010
0000
,
0100
0000
0100
0000
,
1000
0000
1000
0000
,
0001
0000
0001
0000
,
0010
0000
0010
0000
,
0100
0000
0100
0000
,
1000
0000
1000
0000
,
0001
0000
0001
0000
,
1000
1000
1000
0000
,
1000
0000
1000
0000
,
0001
0001
0001
0000
,
0001
0000
0001
0000
,
0100
0100
0100
0000
,
0100
0000
0100
0000
,
0010
0010
0010
0000
,
0010
0000
0010
0000
,
1001
0000
0000
0000
,
0100
0000
0100
0000
,
0010
0000
0010
0000
,
0001
0000
0001
0000
,
1000
0000
1000
0000
,
0001
0001
0001
0000
,
1000
1000
1000
0000
,
0010
0010
0010
0000
,
0100
0000
0000
0000
,
0110
0000
0000
0000
;

//--------------- dance-single - Destrier75 ----------------
#NOTES:
     dance-single:
     Destrier75:
     Easy:
     6:
     0,0,0,0,0:
0000
0000
0000
0000
,
0000
0000
0000
0000
,
0000
0000
0000
0000
,
0000
0000
0000
0000
,
0000
0000
0000
0000
,
0100
0100
0100
0000
,
0010
0010
0010
0000
,
1000
1000
1000
0000
,
0001
0001
0001
0000
,
2000
0000
0000
0000
,
3002
0000
0000
0000
,
2003
0000
0000
0000
,
3002
0000
0000
0000
,
1003
0001
1000
0001
,
0100
0010
0100
0010
,
1000
0001
1000
0001
,
1000
2002
0000
3003
,
1000
0000
1000
0000
,
0001
0000
0001
0000
,
0100
0000
0100
0000
,
0010
0000
0010
0000
,
1000
0000
1000
0000
,
0001
0000
0001
0000
,
0100
0000
0100
0000
,
0010
0000
0010
0000
,
1000
0100
1000
0100
,
0001
0001
0001
0001
,
0100
0001
0100
0001
,
0010
0010
0010
0010
,
1000
0100
1000
0100
,
0010
0010
0010
0010
,
0100
0001
0100
0001
,
1000
1000
1000
1000
,
0100
0010
0100
0010
,
0001
0001
0001
0001
,
1000
0100
1000
0100
,
0010
0010
0010
0010
,
0100
0001
0100
0001
,
0010
0010
0010
0010
,
1000
0010
1000
0010
,
0100
0100
0100
0100
,
0001
1000
0001
1000
,
0001
0010
0010
0010
,
1000
0100
1000
0100
,
0010
0010
0010
0010
,
0100
0001
0100
0001
,
0100
1000
1000
1000
,
0100
0010
0100
0010
,
0001
0001
0001
0001
,
1000
0100
0010
0001
,
2000
0000
0000
0000
,
3001
0010
0100
1000
,
0002
0000
0000
0000
,
1003
0100
0010
0001
,
2000
0000
0000
0000
,
3001
0010
0100
1000
,
0001
0010
0100
1000
,
0002
0000
0000
0000
,
2003
0000
0000
0000
,
3002
0000
0000
0000
,
0203
0000
0000
0000
,
0320
0000
0000
0000
,
0031
1000
0001
1000
,
0100
0010
0100
0010
,
0001
0100
0001
0100
,
0010
2000
0000
0000
,
0002
0000
0000
0000
,
0000
0000
0000
0000
,
3003
0000
0000
0000
;

//--------------- dance-single - Destrier75 ----------------
#NOTES:
     dance-single:
     Destrier75:
     Medium:
     9:
     0,0,0,0,0:
0000
0000
0000
0000
,
0000
0000
0000
0000
,
0000
0000
0000
0000
,
0000
0000
0000
0000
,
0000
0000
0000
0000
,
2000
0000
0000
0000
0000
3001
0100
0001
,
0100
0001
0100
0001
0000
0000
1000
0100
,
0010
0000
0000
0100
0000
0000
0010
0000
0000
0000
0100
0000
0010
0000
0100
0000
,
0002
2003
3002
0103
,
0200
0000
0010
0000
,
0320
0000
0001
0000
,
0032
0000
1000
0000
,
2003
0000
0010
0000
,
3010
0100
0010
0000
0001
0000
1000
0000
,
1000
0001
1000
0000
0001
0000
0100
0000
,
0001
0100
0001
0000
0010
0000
1000
0000
,
1001
2002
0000
3003
,
1000
0000
0000
0001
1000
0000
0001
0000
,
0100
0000
0000
0010
0000
0000
0100
0000
0001
0000
0000
0000
0000
0000
1000
0000
,
0001
0000
0000
0010
0000
0000
0100
0000
1000
0000
0000
0000
0001
0000
0000
0000
,
0100
0000
0000
0001
0000
0000
1000
0000
0001
0000
0010
0000
0100
0000
0000
0000
,
1000
0000
0000
0001
0100
0000
0001
1000
,
0010
0000
0000
0001
0000
0000
0100
0000
0010
0000
0000
0000
0001
0000
1000
0000
,
0001
0000
0000
0010
0000
0000
0100
0000
1000
0000
0000
0000
0001
0000
0000
0000
,
0100
0000
0000
0001
0000
0000
0100
0000
0010
0000
0000
0000
0001
0000
0000
0000
,
1000
0010
1000
0000
0100
0000
0001
0100
,
0001
0000
1000
0010
1000
0000
0010
0000
,
0100
0010
0100
0000
0001
0000
0100
0000
,
1000
0001
1000
0000
0001
0100
0001
0000
,
0100
0010
0100
0000
0010
0000
0100
0000
,
1000
0010
1000
0000
0100
0001
0100
0000
,
0010
0000
1000
0001
1000
0000
0010
0000
,
0100
0000
0010
0100
0010
0000
1000
0000
,
1000
0001
1000
0000
0010
0000
0100
0001
,
0100
0000
0001
1000
0001
0000
1000
0000
,
0001
0000
0100
0001
0100
0000
0010
1000
,
0010
0000
0100
0001
0100
0000
0010
0000
,
1000
0010
1000
0000
1000
0000
0001
0100
,
0001
0000
1000
0010
1000
0000
0000
0010
,
0100
0000
0100
0010
0100
0000
0001
0000
,
0001
0100
0001
0000
0010
0000
0100
0000
,
1000
0010
1000
0010
1000
0010
1000
0010
,
1000
0100
0010
0001
,
0100
0001
0100
0001
0100
0001
0100
0001
,
0100
0010
0100
0010
,
1000
0010
1000
0010
1000
0010
1000
0010
,
1000
0010
1000
0010
,
1000
0001
1000
0001
1000
0001
1000
0000
,
0001
1000
0001
1000
,
1000
0100
1000
0001
0010
0100
0010
0001
,
0200
0001
0001
0001
,
0301
0010
1000
0001
0100
0010
1000
0001
,
0002
0100
0100
0100
,
0103
0010
1000
0001
0100
0010
1000
0010
,
2000
0010
0010
0010
,
3010
0001
0010
0100
1000
0100
0010
0100
,
1000
0010
1000
0001
0100
0000
0001
0000
,
2002
0000
0000
0000
0000
0000
0000
3003
,
2000
0000
0010
0000
,
3020
0000
0100
0000
,
0230
0000
0001
0000
,
0302
0000
1000
0000
,
1003
0001
1000
0000
0010
0000
0100
0000
,
1000
0010
1000
0000
0100
0000
0001
0000
,
0100
0001
0100
0000
0010
0000
1000
0000
,
1001
2000
0000
0000
,
0002
0000
0000
0000
,
0000
0000
0000
0000
,
3003
0000
0000
0000
;

//--------------- dance-single - Destrier75 ----------------
#NOTES:
     dance-single:
     Destrier75:
     Hard:
     13:
     0,0,0,0,0:
0000
0000
0000
0000
,
0000
0000
0000
0000
,
0000
0000
0000
0000
,
0000
0000
0000
0000
,
0000
0000
0000
0000
,
2000
0000
0000
0000
0000
3001
0010
0100
,
1000
0001
1000
0002
0000
0000
0100
0103
,
0010
0000
0000
0100
0000
0000
0010
0000
1000
0000
0001
0000
0100
0000
0001
0000
,
2000
3020
0230
0310
,
2010
0010
0010
0010
,
3020
0001
0001
0001
,
0032
0100
0100
0100
,
0203
1000
1000
1000
,
1300
0100
1000
0001
0100
0001
1000
0100
,
0010
0001
1000
0100
1000
0001
0100
0001
,
1000
0100
0010
0001
1000
0100
1000
0001
,
0100
0000
2002
0000
0000
0000
0000
3003
,
2000
0000
0000
0000
3000
0000
0001
1000
0001
0000
0000
0000
0010
0000
0100
0010
,
0100
0000
0000
0001
0000
0000
1000
0000
0002
0000
0000
0000
0003
0000
1000
0010
,
1000
0000
0000
0010
0000
0000
0001
0000
2000
0000
0000
0000
0100
0000
0000
0000
,
3010
0000
0000
0001
0000
0000
1000
0001
1000
0000
0010
0000
1000
0000
0000
0000
,
2000
0000
0000
0000
3000
0000
0001
0100
0001
0000
0000
0000
0100
0000
1000
0010
,
1000
0000
0000
0010
0000
0000
0100
0000
0020
0000
0000
0000
0030
0000
1000
0001
,
1000
0000
0000
0001
0000
0000
0100
0000
0002
0000
0000
0000
2003
0000
0000
0000
,
3100
0000
0000
0010
0000
0000
0001
0000
2000
0000
0000
0000
0100
0000
0000
0000
,
3100
0000
0010
0000
0001
0000
1000
0001
1000
0000
0000
0001
1000
0000
0010
0000
,
1000
0000
0000
0010
0100
0000
0010
0000
0002
0000
0000
0000
0000
0000
1000
0000
,
1003
0000
0010
1000
0010
0000
1000
0000
0020
0000
0000
0000
0032
0000
0000
0000
,
1003
0000
0000
0001
1000
0000
0010
0000
1000
0000
0001
0000
0020
0000
0000
0000
,
0031
0000
1000
0000
0001
0000
0100
0001
0100
0000
0000
0010
1000
0000
0001
0000
,
0100
0000
0000
0010
1000
0000
0001
0000
0200
0000
0000
0000
0000
0000
0001
0000
,
0301
0000
1000
0001
1000
0000
0001
0000
0100
0000
0010
1000
0010
0000
0100
0000
,
0001
0000
0000
1000
0001
0000
0100
0000
0010
0000
0100
0000
0010
0000
1000
0000
,
1010
0000
0100
0000
0001
0000
0100
0001
0100
0000
0000
0001
1000
0000
0010
0000
,
0100
0000
0000
1000
0001
0000
0100
0000
0020
0000
0000
0000
0000
0000
1000
0000
,
1030
0000
0001
1000
0001
0000
0100
0000
0010
0000
0100
0010
0100
0000
0001
0000
,
1000
0000
0010
0000
1000
0000
0001
0100
0001
0000
0010
0100
0010
0000
1000
0000
,
1010
0000
0010
0000
1000
0000
0001
1000
0001
0000
0000
0100
0001
0000
0010
0000
,
0001
0000
0000
0100
0010
0000
0100
0000
0002
0000
0000
0000
0000
0000
1000
0000
,
1003
0000
0001
1000
0001
0000
0100
0000
0010
0100
0010
0000
1000
0000
0010
0000
,
1000
0000
0000
0001
0100
0000
0010
0000
0001
0000
0100
0000
0101
0000
0000
0000
,
1000
0000
0001
1000
0001
0000
0100
0010
0100
0000
0001
0010
0100
0000
0010
0000
,
0100
0000
1000
0100
0010
0000
0001
0010
0100
0000
1000
0001
1000
0000
0001
0000
,
0100
0000
0010
0100
0010
0000
0001
0100
0001
0000
0001
1000
0001
0000
0010
0000
,
0100
0000
1000
0010
1000
0000
0100
0010
0100
0000
1000
0100
0010
0000
0001
0000
,
1000
0000
0001
0010
0001
0000
0100
0010
0100
0000
1000
0010
1000
0000
0010
0000
,
0100
0000
0001
0100
0001
0000
0010
0100
0010
0000
0001
0100
0010
0000
0001
0000
,
0100
0000
0001
0100
0001
0000
0010
0100
1000
0000
0010
0100
0010
0000
0010
0000
,
1000
0000
0001
0100
0001
0000
0010
0000
1000
0001
1000
0001
1000
0000
0010
0000
,
1000
0000
0100
0010
0001
0000
1000
0000
0010
0000
0100
0000
0010
0000
0001
0000
,
1000
0000
0100
0010
0001
0000
1000
0010
1000
0000
0100
0010
0001
0000
0100
0000
,
0010
0000
0001
0100
0001
0000
0010
0000
0100
0000
1000
0000
0010
0000
0100
0000
,
0001
0000
1000
0100
0010
0000
0100
0010
0100
0000
0001
0100
0001
0000
0010
0000
,
0001
0000
0010
0100
0010
0000
0100
0000
0010
0000
0001
0000
1000
0000
0010
0000
,
0100
0000
0001
0100
0001
0000
0010
0100
1000
0000
1000
0010
1000
0000
0100
0000
,
0010
0000
0001
0100
0001
0000
0010
0000
1000
0000
0001
0000
0100
0000
0010
0000
,
1000
0000
0001
0100
0001
0000
0010
0000
2000
0000
0000
0000
3002
0000
0000
0000
,
0200
0000
0000
0000
0000
0000
0000
0303
,
2001
0001
0001
0001
,
3002
0100
0100
0100
,
0203
0010
0010
0010
,
0320
1000
1000
1000
,
1030
0010
0100
0001
0001
0010
0100
0100
,
1000
0001
1000
0100
0010
0001
1000
0001
,
1000
0100
0010
0010
0100
0010
0001
0010
,
1000
0000
0000
0000
2002
0000
0000
0000
0000
0000
3003
0000
1000
0001
1000
0001
,
2000
0000
0000
0000
,
0000
0000
0000
0000
,
3000
0000
0000
0000
;
