#TITLE:FEEL GOOD;
#SUBTITLE:;
#ARTIST:BOTCASH;
#TITLETRANSLIT:;
#SUBTITLETRANSLIT:;
#ARTISTTRANSLIT:;
#GENRE:;
#CREDIT:Destrier75;
#MUSIC:FEEL GOOD.ogg;
#BANNER:FEEL GOOD.png;
#BACKGROUND:FEEL GOOD-bg.png;
#CDTITLE:;
#SAMPLESTART:54.365;
#SAMPLELENGTH:15.000;
#SELECTABLE:YES;
#OFFSET:1.850;
#BPMS:0.000=128.000;
#STOPS:;
#LASTBEATHINT:1.813334;
#BGCHANGES:;
#FGCHANGES:;

//--------------- dance-single - Destrier75 ----------------
#NOTES:
     dance-single:
     Destrier75:
     Beginner:
     3:
     0,0,0,0,0:
0000
0000
0000
0000
,
0000
0000
0000
0000
,
0000
0000
0000
0000
,
0000
0000
0000
0000
,
0000
0000
0000
0000
,
1000
0000
1000
0000
,
0010
0000
0010
0000
,
0100
0000
0100
0000
,
0001
0000
0001
0000
,
1000
0000
1000
0000
,
0010
0000
0010
0000
,
0100
0000
0100
0000
,
0001
0000
0001
0000
,
1000
0000
1000
0000
,
0010
0000
0010
0000
,
0100
0000
0100
0000
,
0001
0000
0001
0000
,
1000
1000
1000
0000
,
0010
0010
0010
0000
,
0100
0100
0100
0000
,
0001
0001
0001
0000
,
1000
1000
1000
0000
,
0010
0010
0010
0000
,
0100
0100
0100
0000
,
0001
0001
0001
0000
,
0000
0000
0000
0000
,
1000
1000
1000
0000
,
0001
0001
0001
0000
,
0100
0100
0100
0000
,
0220
0000
0330
0000
,
1000
1000
1000
0000
,
0001
0001
0001
0000
,
0100
0100
0100
0000
,
0010
0010
0010
0000
,
1000
1000
1000
0000
,
0001
0001
0001
0000
,
0100
0100
0100
0000
,
0010
0010
0010
0000
,
1000
1000
1000
0000
,
0001
0001
0001
0000
,
0100
0100
0100
0000
,
0010
0010
0010
0000
,
1000
1000
1000
0000
,
0001
0001
0001
0000
,
0100
0100
0100
0000
,
0010
0010
0010
0000
,
1000
0000
1000
0000
,
0001
0000
0001
0000
,
0100
0000
0100
0000
,
0010
0000
0010
0000
,
1000
0000
1000
0000
,
0001
0000
0001
0000
,
0100
0000
0100
0000
,
0010
0000
0010
0000
;

//--------------- dance-single - Destrier75 ----------------
#NOTES:
     dance-single:
     Destrier75:
     Easy:
     6:
     0,0,0,0,0:
0000
0000
0000
0000
,
0000
0000
0000
0000
,
0000
0000
0000
0000
,
0000
0000
0000
0000
,
0000
0000
0000
0000
,
1000
0010
0100
0001
,
0100
0100
0010
0010
,
0001
0100
0010
1000
,
0010
0010
0100
0100
,
1000
0010
0100
0001
,
1000
0001
1000
0001
,
0100
0010
1000
0001
,
1000
0010
1000
0010
,
0001
0100
0010
1000
,
0001
0100
0001
0100
,
1000
0010
0100
0001
,
1000
0001
1000
0001
,
2000
0000
3002
0000
,
0103
0010
0100
0010
,
0200
0000
0320
0000
,
1030
0001
1000
0001
,
2000
0000
3002
0000
,
1003
0010
0100
0001
,
2000
0000
3002
0000
,
0103
0010
1000
0001
,
1000
0000
0000
0000
,
1001
0000
0110
0000
,
1001
0000
0110
0000
,
1001
0000
1001
0000
,
2002
0000
3003
0000
,
1000
0010
0100
0001
,
1000
0001
1000
0001
,
0100
0010
1000
0001
,
1000
0010
1000
0001
,
0100
0010
1000
0001
,
0100
0010
1000
0001
,
1000
0010
1000
0010
,
0100
0100
0010
0010
,
1000
0010
0100
0001
,
1000
0001
1000
0001
,
0100
0010
1000
0001
,
0100
0001
0100
0001
,
1000
0010
0100
0001
,
1000
0001
1000
0001
,
0100
0010
0100
0010
,
1000
1000
0001
0001
,
1000
0010
0100
0001
,
1000
0001
1000
0001
,
0100
0010
1000
0001
,
0100
0010
1000
0001
,
1000
0010
0100
0001
,
1000
0001
1000
0001
,
0100
0010
1000
0001
,
1000
0010
0100
0001
;

//--------------- dance-single - Destrier75 ----------------
#NOTES:
     dance-single:
     Destrier75:
     Medium:
     9:
     0,0,0,0,0:
0000
0000
0000
0000
,
0000
0000
0000
0000
,
0000
0000
0000
0000
,
0000
0000
0000
0000
,
0000
0000
0000
0000
,
1000
0001
1000
0000
0100
0000
0010
0000
,
0001
0100
0001
0000
0100
0000
0010
0000
,
1000
0010
1000
0000
0100
0000
0010
0000
,
0100
0010
0100
0000
0010
0000
0100
0000
,
2000
0000
0000
3001
0000
1000
0001
0000
,
1000
0010
1000
0000
0001
0100
0001
0000
,
2000
0000
0000
3010
0000
0100
0010
0000
,
1000
0010
1000
0000
0001
0100
0001
0000
,
0002
0000
0000
0103
0000
0010
1000
0000
,
1000
0010
1000
0000
0100
0001
0100
0000
,
0020
0000
0000
0130
0000
1000
0001
0000
,
1000
0010
1000
0000
0001
0100
0001
0000
,
1000
0010
1000
0010
1000
0000
0100
0000
,
0001
0100
0001
0100
0001
0000
0010
0000
,
1000
0001
1000
0001
1000
0000
0010
0000
,
0100
0010
0100
0010
0100
0000
0010
0000
,
1000
0010
1000
0010
1000
0000
0100
0000
,
0001
0100
0001
0100
0001
0000
0010
0000
,
1000
0001
1000
0001
1000
0000
0010
0000
,
1000
0010
1000
0010
1000
0000
0100
0000
,
1001
0000
0000
0000
,
1000
0010
1000
0000
0001
0100
0001
0000
,
1000
0010
1000
0000
0001
0100
0001
0000
,
1000
0001
1000
0001
1000
0001
1000
0001
,
2002
0000
3003
0000
,
1000
0010
1000
0010
1000
0000
0100
0000
,
0001
0100
0001
0100
0001
0000
0010
0000
,
1000
0001
1000
0001
1000
0000
0010
0000
,
1000
0010
1000
0010
1000
0000
0100
0000
,
0001
0100
0001
0100
0001
0000
0010
0000
,
1000
0010
1000
0010
1000
0000
0100
0000
,
0001
0100
0001
0100
0001
0000
0010
0000
,
1000
0001
1000
0000
0001
0100
0010
1000
,
0001
0100
0001
0100
0001
0000
0010
0000
,
1000
0010
1000
0010
1000
0000
0100
0000
,
1000
0001
1000
0001
1000
0000
0010
0000
,
1000
0010
1000
0010
1000
0000
0100
0000
,
0001
0100
0001
0100
0001
0000
0010
0000
,
1000
0010
1000
0010
1000
0000
0100
0000
,
0001
0100
0001
0100
0001
0000
0010
0000
,
1000
0001
1000
0001
1000
0001
1000
0001
,
1000
0010
1000
0000
0100
0000
0010
0000
,
0100
0001
0100
0000
0010
0000
0100
0000
,
1000
0010
1000
0000
0100
0000
0010
0000
,
0001
0100
0001
0000
0010
0000
0100
0000
,
1000
0001
1000
0000
0100
0000
0010
0000
,
1000
0001
1000
0000
0100
0000
0010
0000
,
1000
0001
1000
0000
0100
0000
0010
0000
,
1000
0001
1000
0000
0100
0000
0010
0000
;

//--------------- dance-single - Destrier75 ----------------
#NOTES:
     dance-single:
     Destrier75:
     Hard:
     13:
     0.576907,0.647517,0.105766,0.048076,0.245185,420,409,11,5,0,0,0.576907,0.647517,0.105766,0.048076,0.245185,420,409,11,5,0,0:
0000
0000
0000
0000
,
0000
0000
0000
0000
,
0000
0000
0000
0000
,
0000
0000
0000
0000
,
0000
0000
0000
0000
,
1000
0010
1000
0001
0100
0001
1000
0010
,
1000
0010
1000
0001
0100
0001
0100
0001
,
1000
0010
1000
0001
0100
0001
1000
0001
,
0100
0010
0100
1000
0001
1000
0001
0010
,
0100
0001
0000
0001
0100
0001
1000
0000
,
0010
1000
0010
0100
0001
0100
0001
0100
,
0001
0100
0000
1000
0010
0100
0010
0000
,
0010
0100
0010
1000
0010
0100
0001
0100
,
1000
0010
0000
0010
0100
0001
0100
0000
,
0100
0001
1000
0001
0100
0010
1000
0010
,
0100
0001
0000
0001
1000
0010
0100
0001
,
1000
0010
0000
0001
1000
0001
1000
0001
,
1000
0000
0001
1000
0001
0000
0100
0000
0010
0000
1000
0010
1000
0000
0001
0000
,
0100
0000
0001
1000
0001
0000
0100
0000
0010
0000
1000
0010
1000
0000
0001
0000
,
1000
0000
0001
1000
0001
0000
0100
0000
0010
0000
1000
0010
1000
0000
0010
0000
,
0100
0000
0010
0100
0010
0000
0001
0000
1000
0000
0001
1000
0001
0000
0010
0000
,
1000
0000
0001
0000
0100
0010
0100
0000
1000
0000
0001
0000
0100
0001
0100
0000
,
1000
0000
0010
0000
1000
0010
1000
0000
0001
0000
0100
0000
1000
0001
1000
0000
,
0010
0000
0100
0000
1000
0010
1000
0000
0100
0000
0010
0000
1000
0001
1000
0000
,
0010
0000
0100
0000
1000
0010
1000
0000
0100
0000
0010
0000
0100
0000
0001
0000
,
1001
0000
0000
0000
,
1001
0100
0010
1000
1001
0010
1000
0010
,
1010
0100
0001
0100
0101
0100
0010
1000
,
0001
0001
1000
1000
0010
0010
0100
0100
,
1000
0010
1000
0010
0100
0001
0100
0001
0200
0000
0000
0000
0000
0000
0000
0000
,
0301
0000
0100
0000
0001
1000
0001
0000
1000
0000
0010
0000
0100
0000
0001
0000
,
1000
0000
0010
0000
0100
0010
0100
0000
0010
0000
0100
0000
0001
0000
1000
0000
,
0001
0000
0100
0000
0001
0100
0001
0000
0100
0000
0010
0000
1000
0010
1000
0000
,
0100
0000
0010
0000
1000
0001
1000
0000
0001
0000
0100
0000
0010
0000
1000
0000
,
1001
0000
0001
0000
1000
0010
1000
0000
0100
0000
0010
0000
1000
0010
1000
0000
,
0100
0000
0010
0000
1000
0001
1000
0000
0100
0000
0010
0000
1000
0001
1000
0000
,
0100
0000
0010
0000
1000
0100
1000
0000
0010
0000
0100
0000
0001
0100
0001
0000
,
1001
0000
0001
0000
0101
0000
0100
0000
1000
0010
1000
0010
0100
0001
0100
0001
,
1000
0000
0010
0000
0100
0001
0100
0000
0010
0000
0100
0000
1000
0001
1000
0000
,
0010
0000
0100
0000
0001
0100
0001
0000
1000
0000
0010
0000
0100
0010
0100
0000
,
0001
0000
0100
0000
0010
0100
0010
0000
1000
0000
0001
0000
1000
0001
1000
0000
,
0010
0000
0100
0000
1000
0001
1000
0000
0100
0000
0010
0000
1000
0000
0001
0000
,
1001
0000
0010
0000
1000
0001
1000
0000
0100
0000
0010
0000
0100
0010
0100
0000
,
0001
0000
0100
0000
0001
0010
0001
0000
1000
0000
0010
0000
0100
0010
0100
0000
,
1000
0000
0001
0000
0010
0100
0010
0000
1000
0000
0001
0000
1000
0001
1000
0000
,
1001
0000
0001
0000
1001
0000
1000
0000
1000
0010
1000
0010
0100
0001
0100
0001
,
2000
0001
0001
0001
,
3002
0100
0100
0100
,
0203
0010
0010
0010
,
0320
1000
1000
1000
,
1030
0010
1000
0001
0100
0001
1000
0010
,
1000
0010
1000
0001
0100
0010
1000
0001
,
1000
0010
1000
0010
1000
0010
0100
0001
,
1000
0010
0100
0001
0100
1000
0010
0100
;
