#TITLE:Dow Ma Ha Lay;
#SUBTITLE:;
#ARTIST:SowMard MegaDance;
#TITLETRANSLIT:;
#SUBTITLETRANSLIT:;
#ARTISTTRANSLIT:;
#GENRE:;
#CREDIT:Destrier75;
#MUSIC:Dow Ma Ha Lay.ogg;
#BANNER:Dow Ma Ha Lay.png;
#BACKGROUND:Dow Ma Ha Lay-bg.png;
#CDTITLE:;
#SAMPLESTART:31.412;
#SAMPLELENGTH:15.000;
#SELECTABLE:YES;
#OFFSET:1.750;
#BPMS:0.000=117.000;
#STOPS:;
#BGCHANGES:3.417=Dow Ma Ha Lay.avi=1.000=1=0=0=StretchNoLoop==CrossFade==,
99999.000=-nosongbg-=1.000=0=0=0=StretchNoLoop====
;
#FGCHANGES:;

//--------------- dance-single - Destrier75 ----------------
#NOTES:
     dance-single:
     Destrier75:
     Beginner:
     3:
     0,0,0,0,0:
0000
0000
0000
0000
,
0000
0000
0000
0000
,
0000
0000
0000
0000
,
1000
0000
1000
0000
,
0001
0000
0001
0000
,
0100
0000
0100
0000
,
0010
0000
0010
0000
,
1001
0000
1001
0000
,
0001
0001
0001
0000
,
1000
1000
1000
0000
,
0010
0010
0010
0000
,
0100
0100
0100
0000
,
0001
0001
0001
0000
,
1000
1000
1000
0000
,
0010
0010
0010
0000
,
0100
0100
0100
0000
,
1000
0000
1000
0000
,
1000
1000
1000
0000
,
0001
0000
0001
0000
,
0001
0001
0001
0000
,
0100
0000
0100
0000
,
0100
0100
0100
0000
,
0010
0000
0010
0000
,
0010
0010
0010
0000
,
1000
0000
1000
0000
,
1000
1000
1000
0000
,
0001
0001
0001
0000
,
0100
0100
0100
0000
,
0010
0010
0010
0000
,
0100
0000
0100
0000
,
0100
0100
0100
0000
,
0001
0000
0001
0000
,
0001
0001
0001
0000
,
1000
0000
1000
0000
,
1000
1000
1000
0000
,
0010
0000
0010
0000
,
0010
0010
0010
0000
,
0100
0100
0100
0000
,
1000
1000
1000
0000
,
0001
0001
0001
0000
,
0100
0100
0100
0000
,
0001
0001
0001
0000
,
0100
0100
0100
0000
,
1000
1000
1000
0000
,
0001
0001
0001
0000
,
1000
1000
1000
0000
,
0010
0010
0010
0000
,
0100
0100
0100
0000
,
0001
0001
0001
0000
,
1000
1000
1000
0000
,
0001
0001
0001
0000
,
0100
0100
0100
0000
,
0010
0010
0010
0000
,
1000
1000
1000
0000
,
0001
0001
0001
0000
,
0100
0100
0100
0000
,
0010
0010
0010
0000
,
1000
1000
1000
0000
,
0001
0001
0001
0000
,
0100
0100
0100
0000
,
0110
0000
0000
0000
;

//--------------- dance-single - Destrier75 ----------------
#NOTES:
     dance-single:
     Destrier75:
     Easy:
     6:
     0,0,0,0,0:
0000
0000
0000
0000
,
0000
0000
0000
0000
,
0000
0000
0000
0000
,
1000
0001
1000
0001
,
0100
0010
0100
0010
,
1000
0001
1000
0001
,
1000
0010
1000
0010
,
2002
0000
0000
3003
,
1000
0010
1000
0010
,
0100
0001
0100
0001
,
1000
1000
0001
0001
,
0100
0100
0010
0010
,
1000
0001
1000
0001
,
0100
0010
0100
0010
,
0001
0001
0100
0100
,
1000
0001
1000
1001
,
1000
0010
1000
0010
,
0100
0001
0100
0001
,
1000
0010
1000
0010
,
0100
0010
0100
0010
,
0001
0100
0001
0100
,
1000
0001
1000
0001
,
0100
0001
0100
0001
,
1000
0010
1000
0010
,
0100
0001
0100
0001
,
1000
1000
0001
0001
,
0100
0100
0010
0010
,
0100
0100
0001
0001
,
1000
0001
1000
1001
,
0100
0010
0100
0010
,
1000
0001
1000
0001
,
0100
0001
0100
0001
,
0100
0010
1000
0010
,
1000
0001
1000
0001
,
0100
0001
0100
0001
,
0010
1000
0010
1000
,
0010
0100
0001
0100
,
0001
0001
1000
1000
,
0001
0001
0100
0100
,
0010
0010
0100
0100
,
1000
1000
0001
1001
,
1000
1010
0010
0011
,
1000
0001
1000
0001
,
0100
0010
1000
0001
,
0100
0010
0100
1000
,
0001
0100
0010
1000
,
0001
0100
0001
1000
,
0010
0100
0010
0100
,
1000
1100
0100
0110
,
0001
0100
0001
0100
,
0010
1000
0010
0100
,
0001
1000
0001
0100
,
0001
0100
0010
0100
,
1000
1100
0100
0110
,
0001
1000
0001
0100
,
0010
1000
0001
0100
,
0010
1000
0001
0100
,
0010
1000
0001
0010
,
1000
0001
0100
0010
,
0100
0010
0100
0010
,
0110
0000
0000
0000
;

//--------------- dance-single - Destrier75 ----------------
#NOTES:
     dance-single:
     Destrier75:
     Medium:
     9:
     0,0,0,0,0:
0000
0000
0000
0000
,
0000
0000
0000
0000
,
0000
0000
0000
0000
,
1000
0001
1000
0000
0001
0100
0001
0000
,
1000
0010
1000
0000
0100
0010
0100
0000
,
0001
0100
0001
0000
1000
0010
1000
0000
,
0001
0100
0001
0000
0010
0100
0010
0000
,
1000
0001
1000
0001
1000
0001
1000
0001
,
1000
0000
0010
0000
0100
0000
0010
0000
0100
0000
0000
0100
0000
0000
0100
0000
,
0000
0000
0001
0000
1000
0000
0010
0000
0100
0000
0000
0100
0000
0000
0100
0000
,
0000
1000
0010
1000
0010
0001
0100
0001
,
0000
1000
0001
1000
0100
0001
0100
0001
,
1000
0000
0010
0000
1000
0000
0010
0000
0001
0000
0000
0001
0000
0000
0001
0000
,
0000
0000
1000
0000
0010
0000
0100
0000
0001
0000
0000
0001
0000
0000
0001
0000
,
0000
1000
0010
1000
0010
0001
0100
0001
,
1000
0010
1000
0010
1000
0000
1010
0000
,
1000
0001
1000
0000
0100
0000
0010
0000
,
1000
0001
1000
0000
0001
0000
0100
0000
,
0010
1000
0010
0000
0100
0000
0010
0000
,
1000
0010
1000
0000
0100
0000
0010
0000
,
0001
0100
0001
0000
1000
0000
0010
0000
,
0100
0010
0100
0000
0001
0000
0100
0000
,
1000
0010
1000
0000
0100
0001
0100
0000
,
1000
0001
1000
0000
0001
0100
0001
0000
,
1000
0010
1000
0000
0001
0100
0001
0000
,
1000
0001
1000
0001
1000
0000
0010
0000
,
0100
0010
0100
0010
0100
0000
0010
0000
,
1000
0010
1000
0010
1000
0000
0010
0000
,
1000
0001
1000
0001
1000
0000
1001
0000
,
0001
0100
0001
0000
0010
0000
0100
0000
,
1000
0010
1000
0000
0100
0000
0010
0000
,
0001
0100
0001
0000
0010
0000
0100
0000
,
1000
0010
1000
0000
0100
0000
0010
0000
,
0001
0100
0001
0000
0100
0000
0010
0000
,
1000
0010
1000
0000
0100
0000
0010
0000
,
0001
0100
0001
0000
1000
0000
0010
0000
,
0001
0100
0001
0000
0010
0000
0100
0000
,
1000
0010
1000
0010
1000
0000
0100
0000
,
0001
0100
0001
0100
0001
0000
0010
0000
,
1000
0010
1000
0010
1000
0000
0100
0000
,
0001
0100
0001
0100
0001
0000
0010
0000
,
1000
0010
1000
0010
1000
0000
0100
0000
,
0010
0100
0010
0100
0010
0000
0001
0000
,
1000
0010
1000
0010
1000
0000
0100
0000
,
0001
0100
0001
0100
0001
0000
0010
0000
,
0100
0010
0100
0010
0100
0000
0010
0000
,
1000
0010
1000
0000
0001
0100
0001
0000
,
1000
0010
1000
0000
0001
0100
0001
0000
,
1000
0010
1000
0010
1000
0000
0100
0000
,
0001
0100
0001
0100
0001
0000
0010
0000
,
1000
0001
1000
0001
1000
0000
0010
0000
,
0100
0010
0100
0010
0100
0000
0001
0000
,
1000
0010
1000
0010
1000
0000
0100
0000
,
0001
0100
0001
0100
0001
0000
0010
0000
,
1000
0001
1000
0001
1000
0000
0010
0000
,
0100
0010
0100
0010
0100
0000
0001
0000
,
0001
1000
0001
1000
0001
0000
0100
0000
,
1000
0010
1000
0010
1000
0000
0010
0000
,
0100
0001
0100
0001
0100
0000
0010
0000
,
1000
0001
1000
0001
1000
0000
0001
0000
,
1001
0000
0000
0000
;

//--------------- dance-single - Destrier75 ----------------
#NOTES:
     dance-single:
     Destrier75:
     Hard:
     13:
     0.568,0.561,0.065,0.049,0.175:
0000
0000
0000
0000
,
0000
0000
0000
0000
,
0000
0000
0000
0000
,
1000
0010
0100
0001
0100
0010
1000
0001
,
0100
0010
1000
0001
0100
0010
1000
0001
,
0100
0010
1000
0001
0100
0010
1000
0001
,
0100
0010
1000
0001
0100
0010
1000
0010
,
1000
0001
1000
0001
0000
0100
0010
0001
0000
0001
1000
0001
1000
0001
1000
0001
,
1000
0000
0010
0000
1000
0000
0001
0000
0100
0000
0000
0001
0000
0000
2001
0000
,
0000
0000
3010
0000
0100
0000
0001
0000
1000
0000
0000
0001
0000
0000
0102
0000
,
0000
0000
1003
0001
1000
0000
0100
0010
0100
0000
0001
1000
0001
0000
0100
0000
,
0010
0000
1000
0010
1000
0000
0100
0010
0100
0000
0001
0100
0001
0000
1000
0000
,
0001
0000
0100
0000
0010
0000
0001
0000
1000
0000
0000
0001
0000
0000
2001
0000
,
0000
0000
0010
3000
0100
0000
0010
0000
1000
0000
0000
0001
0000
0000
0102
0000
,
0000
0000
1003
0010
1000
0000
0100
0010
0100
0000
0001
0100
0001
0000
1000
0000
,
0010
0000
0100
0000
1000
0000
0001
1000
0000
0000
0000
0000
1002
0000
0000
0000
,
0103
0001
1000
0001
0100
0010
0100
0010
,
1000
0000
0001
0000
0100
0000
0010
0000
0001
0100
0001
0100
0001
0000
0010
0000
,
1001
0001
0100
0010
1000
0001
0100
0001
,
1000
0000
0100
0000
0010
0000
0100
0000
1000
0001
1000
0001
1000
0000
0100
0000
,
1000
0010
0100
0001
0100
0010
1000
0010
,
0100
0000
0001
0000
0100
0000
0010
0000
0100
0001
0100
0001
0100
0000
0010
0000
,
1000
1000
0010
0100
0100
0010
0010
0001
,
0001
0000
1000
0000
0010
0000
0001
0000
0100
0010
0100
0010
0100
0000
1000
0000
,
1000
0001
0001
0100
0001
0100
0001
0010
,
1000
0000
0001
0100
0001
0000
1000
0010
1000
0000
0100
0010
0100
0000
0001
0000
,
1000
0000
0001
0100
0001
0000
1000
0010
1000
0000
0100
0010
0100
0000
0001
0000
,
1000
0000
0001
0100
0001
0000
1000
0010
1000
0000
0100
0010
0100
0000
0001
0000
,
1000
0000
0001
0000
1000
0000
0010
1000
0000
0000
0000
0000
1010
0000
0000
0000
,
0010
1000
0001
0100
0010
0100
0010
1000
,
0002
0000
0000
1003
0001
0000
0001
0000
0100
0001
0100
0001
0100
0000
0010
0000
,
1000
0001
0100
0010
0100
0010
1000
0001
,
0100
0000
0010
0000
1000
0000
0010
0000
0100
0010
0100
0010
0100
0000
0001
0000
,
0100
0010
0100
0001
0100
1000
0001
0100
,
0010
0000
0100
0000
1000
0000
0100
0000
0001
0100
0001
0100
0001
0000
0100
0000
,
1000
0001
0100
0010
0100
0001
0100
1000
,
0010
0000
0100
0000
0001
0000
0100
0000
1000
0010
1000
0010
1000
0000
0100
0000
,
0010
0000
0100
0000
0001
0000
0100
0001
0100
0000
0010
0000
1000
0010
1000
0000
,
0100
0000
0010
0000
1000
0000
0001
0010
0100
0000
0010
0100
0010
0000
0001
0000
,
1000
0000
0010
0000
0100
0000
0001
0010
0100
0000
0010
0100
0010
0000
0001
0000
,
1000
0000
0010
0100
0010
0000
0001
0000
1000
0000
0001
1000
0001
0000
1000
0000
,
0010
0000
0100
0001
0100
0000
0001
0000
0100
0000
0010
1000
0010
0000
1000
0000
,
0010
0000
0100
0000
0001
0000
0100
0010
0100
0000
0010
0000
0100
0000
0001
0000
,
0100
0000
0010
0000
1000
0000
0001
0100
0001
0000
0010
0000
0100
0000
0001
0000
,
1000
0000
0010
0000
0100
0000
0010
1000
0010
0000
0001
0000
1000
0000
0001
0000
,
0100
0000
0001
0000
0010
0000
0100
0001
0100
0000
0010
0000
1000
0000
0001
0000
,
1000
1000
0100
0100
0010
0010
0001
0001
,
1000
0001
0100
0010
0100
0001
0100
0010
,
0001
0001
0010
0010
0100
0100
1000
1000
,
0010
0000
0100
0000
1000
0000
0001
1000
0001
0000
0100
0000
0001
0000
0100
0000
,
0010
0000
1000
0010
1000
0000
0100
0000
0010
0000
0100
0001
0100
0000
0010
0000
,
1000
0000
0000
0001
0000
0000
1000
0000
0010
0000
1000
0000
0002
0000
0000
0000
0103
0000
0000
0000
0000
1000
0000
0000
,
1000
0000
0100
0010
0100
0000
1000
0000
0001
0000
0010
1000
0010
0000
0010
0000
,
0100
0000
0001
1000
0001
0000
0010
0000
0100
0000
0010
0000
0100
0010
0100
0000
,
1000
0000
0010
0000
1000
0000
0001
0000
0100
0000
0010
0100
0010
0000
1000
0000
,
0001
0000
1000
0001
1000
0000
0100
0000
0010
0000
0001
0000
0100
0000
0010
0000
,
0100
0000
0001
0100
0001
0000
0010
0000
0100
0000
0010
0000
1000
0000
0001
0000
,
1000
0000
0010
1000
0010
0000
0001
0000
0100
0000
0010
0000
0100
0000
0001
0000
,
1000
0000
0010
0000
0100
0000
1000
0000
0001
0100
0001
0100
0001
0000
0100
0000
,
0010
0000
0001
0000
1000
0000
0001
1000
0000
0000
0000
0000
1002
0000
0000
0000
,
1003
0000
0000
0000
;
