#TITLE:Chocolate Cake (Radio Remix);
#SUBTITLE:;
#ARTIST:CACKRIS;
#TITLETRANSLIT:;
#SUBTITLETRANSLIT:;
#ARTISTTRANSLIT:;
#GENRE:;
#CREDIT:Destrier75;
#MUSIC:Chocolate Cake (Radio Remix).ogg;
#BANNER:Chocolate Cake (Radio Remix).png;
#BACKGROUND:Chocolate Cake (Radio Remix)-bg.png;
#CDTITLE:;
#SAMPLESTART:0.000;
#SAMPLELENGTH:0.000;
#SELECTABLE:YES;
#OFFSET:1.590;
#BPMS:0.000=125.000;
#STOPS:;
#BGCHANGES:;
#FGCHANGES:;

//--------------- dance-single - Destrier75 ----------------
#NOTES:
     dance-single:
     Destrier75:
     Beginner:
     1:
     0,0,0,0,0:
0000
0000
0000
0000
,
0000
0000
0000
0000
,
0000
0000
0000
0000
,
0000
0000
0000
0000
,
0000
0000
0000
0000
,
0100
0000
0000
0000
,
0010
0000
0000
0000
,
1000
0000
0000
0000
,
0001
0000
0000
0000
,
0100
0100
0100
0000
,
0010
0010
0010
0000
,
1000
1000
1000
0000
,
0001
0001
0001
0000
,
0100
0100
0100
0000
,
0010
0010
0010
0000
,
0100
0100
0100
0000
,
0001
0001
0001
0000
,
1000
0000
1000
0000
,
0001
0000
0001
0000
,
0100
0000
0100
0000
,
0010
0000
0010
0000
,
0100
0000
0100
0000
,
0010
0000
0010
0000
,
0100
0000
0100
0000
,
0001
0000
0001
0000
,
1000
1000
1000
0000
,
0001
0001
0001
0000
,
0100
0100
0100
0000
,
0010
0010
0010
0000
,
1000
1000
1000
0000
,
0001
0001
0001
0000
,
0100
0100
0100
0000
,
0010
0010
0010
0000
,
0100
0100
0100
0000
,
0001
0001
0001
0000
,
1000
1000
1000
0000
,
0001
0001
0001
0000
,
0100
0000
0100
0000
,
0010
0000
0010
0000
,
1000
0000
1000
0000
,
0001
0000
0001
0000
,
0100
0000
0000
0000
,
0010
0000
0000
0000
,
1000
0000
0000
0000
,
0001
0000
0000
0000
,
0100
0000
0000
0000
,
0010
0000
0000
0000
,
1000
0000
0000
0000
,
0001
0000
0000
0000
,
0100
0100
0100
0000
,
0010
0010
0010
0000
,
1000
1000
1000
0000
,
0001
0001
0001
0000
,
0100
0100
0100
0000
,
0010
0010
0010
0000
,
1000
1000
1000
0000
,
0001
0001
0001
0000
;

//--------------- dance-single - Destrier75 ----------------
#NOTES:
     dance-single:
     Destrier75:
     Easy:
     4:
     0,0,0,0,0:
0000
0000
0000
0000
,
0000
0000
0000
0000
,
0000
0000
0000
0000
,
0000
0000
0000
0000
,
0000
0000
0000
0000
,
1000
0010
1000
0010
,
0100
0001
0100
0001
,
1000
0001
1000
0001
,
0100
0010
0100
0010
,
1000
0010
1000
1000
,
0001
0100
0001
0001
,
0100
0010
0100
0100
,
1000
0010
1000
1000
,
0001
0100
0001
0001
,
0100
0010
0100
0100
,
0001
0100
0001
0001
,
1000
0010
1000
1000
,
1000
1010
0010
0011
,
0001
1001
1000
1100
,
0100
0101
0001
0101
,
0100
0110
0010
1010
,
1000
1001
0001
0101
,
0100
0110
0010
1010
,
1000
1001
0001
0101
,
0001
1001
1000
1010
,
1000
0010
1000
1000
,
0001
0100
0001
0001
,
0100
0010
0100
0100
,
1000
0010
1000
1000
,
0001
0100
0001
0001
,
0100
0010
0100
0100
,
1000
0010
1000
1000
,
0001
0100
0001
0001
,
1000
0010
1000
1000
,
0001
0100
0001
0001
,
0100
0010
0100
0100
,
0010
1000
0010
0010
,
1000
1001
0001
0101
,
0100
1100
1000
1001
,
0001
0101
0100
0110
,
0010
1010
1000
1001
,
0001
0100
0010
0010
,
1000
0010
0100
0100
,
0001
0100
0010
0010
,
0100
0010
1000
1000
,
0100
0001
0010
0010
,
1000
0010
0100
0100
,
0001
0100
0010
0010
,
1000
0010
0100
0100
,
0001
0100
0001
0001
,
1000
0010
1000
1000
,
0100
0010
0100
0100
,
0001
0100
0001
0001
,
1000
0010
1000
1000
,
0100
0010
0100
0100
,
0001
0100
0001
0001
,
1000
0010
1000
1000
;

//--------------- dance-single - Destrier75 ----------------
#NOTES:
     dance-single:
     Destrier75:
     Medium:
     7:
     0,0,0,0,0:
0000
0000
0000
0000
,
0000
0000
0000
0000
,
0000
0000
0000
0000
,
0000
0000
0000
0000
,
0000
0000
0000
0000
,
1000
0010
1000
0000
0100
0000
0100
0000
,
0001
0010
0001
0000
0010
0000
0010
0000
,
1000
0010
1000
0000
0010
0000
0010
0000
,
0100
0001
0100
0000
0001
0000
0001
0000
,
1000
0010
1000
0000
0100
0000
0010
0000
,
0001
0100
0001
0000
0010
0000
0100
0000
,
1000
0010
1000
0000
0100
0000
0010
0000
,
0001
0100
0001
0000
0010
0000
0100
0000
,
1000
0100
1000
0000
0100
0000
0010
0000
,
0001
0100
0001
0000
0010
0000
0100
0000
,
1000
0010
1000
0000
0100
0000
0010
0000
,
0001
0100
0001
0000
0010
0000
0100
0000
,
1000
0010
1000
0000
0001
0100
0001
0000
,
1000
0010
1000
0000
0001
0100
0001
0000
,
1000
0010
1000
0000
0001
0100
0001
0000
,
1000
0010
1000
0000
0001
0100
0001
0000
,
0100
0010
0100
0000
0001
1000
0001
0000
,
0100
0010
0100
0000
0001
1000
0001
0000
,
0100
0010
0100
0000
0001
1000
0001
0000
,
0100
0010
0100
0000
0001
1000
0001
0000
,
1000
0010
1000
0000
0100
0000
0010
0000
,
0001
0100
0001
0000
0010
0000
0100
0000
,
1000
0010
1000
0000
0100
0000
0010
0000
,
0001
0100
0001
0000
0010
0000
0100
0000
,
1000
0010
1000
0000
0100
0000
0010
0000
,
0001
0100
0001
0000
0010
0000
0100
0000
,
1000
0010
1000
0000
0100
0000
0010
0000
,
0001
0100
0001
0000
0010
0000
0100
0000
,
1000
0100
1000
0000
0100
0000
0010
0000
,
0001
0010
0001
0000
0010
0000
0100
0000
,
1000
0100
1000
0000
0100
0000
0010
0000
,
0001
0010
0001
0000
0010
0000
0100
0000
,
1000
0100
1000
0000
0001
0010
0001
0000
,
1000
0100
1000
0000
0001
0010
0001
0000
,
1000
0100
1000
0000
0001
0010
0001
0000
,
1000
0100
1000
0000
0001
0010
0001
0000
,
1000
0010
1000
0000
0010
0000
0010
0000
,
0001
0100
0001
0000
0100
0000
0100
0000
,
1000
0010
1000
0000
0010
0000
0010
0000
,
0100
0001
0100
0000
0001
0000
0001
0000
,
1000
0100
1000
0000
0100
0000
0100
0000
,
0001
0010
0001
0000
0010
0000
0010
0000
,
1000
0100
1000
0000
0100
0000
0100
0000
,
0001
0010
0001
0000
0010
0000
0010
0000
,
1000
0010
1000
0000
0100
0000
0010
0000
,
0001
0100
0001
0000
0010
0000
0100
0000
,
1000
0010
1000
0000
0100
0000
0010
0000
,
0001
0100
0001
0000
0010
0000
0100
0000
,
1000
0100
1000
0000
0100
0000
0010
0000
,
0001
0100
0001
0000
0010
0000
0100
0000
,
1000
0010
1000
0000
0100
0000
0010
0000
,
0001
0100
0001
0000
0010
0000
0100
0000
;

//--------------- dance-single - Destrier75 ----------------
#NOTES:
     dance-single:
     Destrier75:
     Hard:
     10:
     0,0,0,0,0:
0000
0000
0000
0000
,
0000
0000
0000
0000
,
0000
0000
0000
0000
,
0000
0000
0000
0000
,
0000
0000
0000
0000
,
0100
0000
0010
0000
0100
0000
0000
0000
0010
0000
0000
1000
0000
0000
0001
0000
,
1000
0000
0010
0000
1000
0000
0000
0000
0010
0000
0000
1000
0000
0000
0010
0000
,
1000
0000
0001
0000
1000
0000
0000
0000
0001
0000
0000
0100
0000
0000
0001
0000
,
1000
0000
0010
0000
1000
0000
0000
0000
0010
0000
0000
0100
0000
0000
0010
0000
,
1000
0000
0001
0000
1000
0000
0000
0000
0001
0000
0000
0100
0000
0000
0001
0000
,
1000
0000
0001
0000
1000
0000
0000
0000
0001
0000
0000
0100
0000
0000
0001
0000
,
1000
0000
0001
0000
1000
0000
0000
0000
0010
0000
0000
0100
0000
0000
0010
0000
,
1000
0000
0010
0000
1000
0000
0000
0000
0100
0000
0000
0010
0000
0000
0001
0000
,
1000
0000
0001
0000
1000
0000
0000
0000
0001
0000
0000
0100
0000
0000
0001
0000
,
1000
0000
0001
0000
1000
0000
0000
0000
0001
0000
0000
0100
0000
0000
0010
0000
,
1000
0000
0010
0000
1000
0000
0000
0000
0010
0000
0000
0100
0000
0000
0001
0000
,
1000
0000
0001
0000
1000
0000
0000
0000
0001
0000
0000
0100
0000
0000
0010
0000
,
1000
0010
2000
0000
3001
0100
0002
0000
,
1003
0010
2000
0000
3001
0100
0002
0000
,
1003
0010
2000
0000
3001
0100
0002
0000
,
1003
0010
2000
0000
3001
0100
0002
0000
,
0103
0010
0200
0000
0301
1000
0002
0000
,
1003
0010
2000
0000
3001
0010
0002
0000
,
0103
0010
0200
0000
0310
1000
0020
0000
,
1030
0001
2000
0000
3001
0100
0002
0000
,
1003
0000
0010
0000
1000
0000
0000
0000
0010
0000
0000
1000
0000
0000
0010
0000
,
1000
0000
0100
0000
0010
0000
0000
0000
0001
0000
0000
1000
0000
0000
1000
0000
,
0001
0000
1000
0000
0001
0000
0000
0000
0100
0000
0000
0010
0000
0000
0010
0000
,
1000
0000
0010
0000
1000
0000
0000
0000
0010
0000
0000
1000
0000
0000
0010
0000
,
1000
0000
0010
0000
1000
0000
0000
0000
0010
0000
0000
0100
0000
0000
0001
0000
,
1000
0000
0001
0000
1000
0000
0000
0000
0100
0000
0000
0001
0000
0000
0010
0000
,
1000
0000
0010
0000
1000
0000
0000
0000
0010
0000
0000
0100
0000
0000
0001
0000
,
1000
0000
0001
0000
1000
0000
0000
0000
0001
0000
0000
0100
0000
0000
0010
0000
,
1000
0000
0010
0000
1000
0000
0000
0000
0100
0000
0000
0010
0000
0000
0010
0000
,
1000
0000
0010
0000
1000
0000
0000
0000
1000
0000
0000
0010
0000
0000
0100
0000
,
0001
0000
0100
0000
0001
0000
0000
0000
0010
0000
0000
0100
0000
0000
0010
0000
,
1000
0000
0010
0000
1000
0000
0000
0000
0010
0000
0000
0100
0000
0000
0010
0000
,
1000
0010
2000
0000
3001
0100
0002
0000
,
1003
0010
2000
0000
3010
0100
0020
0000
,
0130
0001
0200
0000
0301
1000
0002
0000
,
0103
0010
0200
0000
0310
1000
0020
0000
,
1030
0000
0100
0000
0010
0000
0000
0000
1000
0000
0000
0010
0000
0000
0100
0000
,
0001
0000
0100
0000
0001
0000
0000
0000
0010
0000
0000
0100
0000
0000
0010
0000
,
1000
0000
0010
0000
1000
0000
0000
0000
0100
0000
0000
0010
0000
0000
0100
0000
,
0001
0000
0100
0000
0001
0000
0000
0000
0100
0000
0000
0001
0000
0000
0100
0000
,
0010
0000
0100
0000
0010
0000
0000
0000
1000
0000
0000
0010
0000
0000
1000
0000
,
0010
0000
1000
0000
0010
0000
0000
0000
0100
0000
0000
0010
0000
0000
0100
0000
,
0010
0000
0100
0000
0010
0000
0000
0000
0001
0000
0000
1000
0000
0000
0010
0000
,
1000
0000
0010
0000
1000
0000
0000
0000
0010
0000
0000
0100
0000
0000
0010
0000
,
1000
0000
0001
0000
1000
0000
0000
0000
0001
0000
0000
0100
0000
0000
0100
0000
,
0001
0000
0100
0000
0001
0000
0000
0000
1000
0000
0000
0010
0000
0000
0001
0000
,
1000
0000
0001
0000
1000
0000
0000
0000
0001
0000
0000
0100
0000
0000
0010
0000
,
1000
0000
0010
0000
1000
0000
0000
0000
0010
0000
0000
0100
0000
0000
0010
0000
,
1000
0000
0010
0000
1000
0000
0000
0000
0010
0000
0000
1000
0000
0000
0001
0000
,
1000
0000
0001
0000
1000
0000
0000
0000
0001
0000
0000
0100
0000
0000
0010
0000
,
1000
0000
0010
0000
1000
0000
0000
0000
0010
0000
0000
0100
0000
0000
0001
0000
,
1000
0000
0001
0000
1000
0000
0000
0000
0001
0000
0000
0100
0000
0000
0001
0000
,
1000
0000
0000
0000
;

//--------------- dance-single - Destrier75 ----------------
#NOTES:
     dance-single:
     Destrier75:
     Challenge:
     13:
     0,0,0,0,0:
0000
0000
0000
0000
,
0000
0000
0000
0000
,
0000
0000
0000
0000
,
0000
0000
0000
0000
,
0000
0000
0000
0000
,
1001
0000
0001
0000
1000
0010
0000
0000
1000
0000
0010
0100
0000
0000
0010
0000
,
1010
0000
0001
0000
1000
0001
0000
0000
0100
0000
0001
0100
0000
0000
0001
0000
,
1001
0000
0010
0000
1000
0100
0000
0000
0001
0000
0100
0001
0000
0000
0001
0000
,
1001
0000
0010
0000
1000
0010
0000
0000
0100
0000
0001
0100
0000
0000
0100
0000
,
1000
0000
0010
0000
1000
0100
0000
0010
0001
0000
0100
0010
0000
0000
1000
0000
,
1001
0000
0001
0000
0100
0010
0000
0010
1000
0000
0010
0100
0000
0000
0001
0000
,
1001
0000
0010
0000
0100
0001
0000
0010
0100
0000
0010
1000
0000
0000
0010
0000
,
1010
0000
0100
0000
0001
0010
0000
0100
1000
0000
0010
0100
0000
0000
0001
0000
,
1001
0000
1000
0000
0010
0100
0000
0100
0001
0000
1000
0001
0000
0000
0001
0000
,
1001
0000
0100
0000
1000
0100
0000
0010
0001
0000
0010
0100
0000
0000
1000
0000
,
1010
0000
0100
0000
0010
1000
0000
1000
0001
0000
0100
0001
0000
0000
0010
0000
,
1010
0000
1000
0000
0001
0100
0000
1000
0010
0000
0100
0010
1000
0000
0010
0000
,
1000
0010
1000
0000
2010
0000
0000
0000
3001
0100
0001
0000
0102
0000
0000
0000
,
0103
0010
0100
0000
0120
0000
0000
0000
1030
0010
1000
0000
2010
0000
0000
0000
,
3001
1000
0001
0000
2001
0000
0000
0000
3001
0010
0001
0000
0012
0000
0000
0000
,
1003
0100
1000
0000
2100
0000
0000
0000
3100
0010
0100
0000
0210
0000
0000
0000
,
0301
0100
0001
0000
0102
0000
0000
0000
1003
0010
1000
0000
2010
0000
0000
0000
,
3001
0100
0001
0000
0102
0000
0000
0000
1003
0001
1000
0000
2001
0000
0000
0000
,
3001
0100
0001
0000
0102
0000
0000
0000
1003
0010
1000
0000
2010
0000
0000
0000
,
3001
1000
0001
0000
2001
0000
0000
0000
3001
1000
0001
0000
1000
0001
1000
0001
,
1000
0000
0001
0000
0100
0001
0000
0010
0100
0000
0010
1000
0000
0000
0010
0000
,
1010
0000
1000
0000
0100
0010
0000
0001
0100
0000
0001
1000
0000
0000
0100
0000
,
0110
0000
1000
0000
0100
0010
0000
0010
0001
0000
0001
0100
0000
0000
0001
0000
,
1001
0000
1000
0000
0100
0010
0000
0010
0001
0000
0001
1000
0000
0000
0001
0000
,
1001
0000
0001
0000
0100
0010
0000
0010
1000
0000
0100
0010
0000
0000
0001
0000
,
1001
0000
0100
0000
1000
0100
0000
0100
0010
0000
0001
0100
0000
0000
0001
0000
,
1001
0000
0100
0000
0010
0100
0000
0100
0001
0000
0001
1000
0000
0000
0100
0000
,
0110
0000
1000
0000
0001
0100
0000
0100
0010
0000
0010
0001
0000
0000
0100
0000
,
1000
0000
1000
0000
0100
0010
0000
0010
1000
0000
0100
0010
0000
0000
0010
0000
,
1001
0000
0100
0000
0010
0001
0000
0001
1000
0000
0100
0010
0000
0000
0001
0000
,
1001
0000
0100
0000
0001
0010
0000
0010
0100
0000
0010
1000
0000
0000
0100
0000
,
1001
0000
0001
0000
0100
0001
0000
0001
0100
0000
0100
0010
0000
0000
1000
0000
,
1000
0001
1000
0000
2001
0000
0000
0000
3100
0001
0100
0000
0102
0000
0000
0000
,
0013
1000
0010
0000
1020
0000
0000
0000
1030
0001
1000
0000
2001
0000
0000
0000
,
3001
0100
0001
0000
0102
0000
0000
0000
1003
0010
1000
0000
2010
0000
0000
0000
,
3100
0010
0100
0000
0210
0000
0000
0000
0301
1000
0001
0000
1000
0010
1000
0010
,
1000
0000
0100
0000
0010
0001
0000
0000
0100
0000
0010
0100
0000
0000
0010
0000
,
1000
0000
0100
0000
0010
0001
0000
0000
0010
0000
0100
0010
0000
0000
1000
0000
,
0100
0000
0010
0000
1000
0010
0000
0000
0100
0000
0010
0100
0000
0000
1000
0000
,
0001
0000
0100
0000
0010
0100
0000
0000
0010
0000
1000
0001
0000
0000
0100
0000
,
1001
0000
0010
0000
1000
0010
0000
0000
0100
0000
0010
0100
0000
0000
0001
0000
,
1001
0000
0010
0000
0100
0010
0000
0000
0100
0000
0010
1000
0000
0000
0100
0000
,
0101
0000
0100
0000
0001
0100
0000
0000
0001
0000
1000
0010
0000
0000
0100
0000
,
1010
0000
1000
0000
0010
0100
0000
0000
0001
0000
0100
0001
0000
0000
0010
0000
,
1001
0000
1000
0000
0100
0010
0000
0100
0010
0000
0001
1000
0000
0000
0001
0000
,
1001
0000
0010
0000
1000
0010
0000
0010
0001
0000
0001
1000
0000
0000
0001
0000
,
1010
0000
0100
0000
0010
0100
0000
0100
0001
0000
0001
0100
0000
0000
0001
0000
,
1001
0000
1000
0000
0100
0010
0000
0010
0001
0000
0001
0100
0000
0000
0001
0000
,
1001
0000
1000
0000
0100
0010
0000
0010
0001
0000
0001
0100
0000
0000
0001
0000
,
1001
0000
1000
0000
0010
0100
0000
0100
0010
0000
0010
0001
0000
0000
1000
0000
,
1001
0000
0001
0000
0100
0001
0000
0001
0100
0000
0010
0100
0000
0000
0010
0000
,
1010
0000
1000
0000
0010
0100
0000
0100
0001
0000
0001
0100
0000
0000
0001
0000
,
1001
0000
0000
0000
;
