#TITLE:ブレインストーミング;
#SUBTITLE:;
#ARTIST:モーニング娘。;
#TITLETRANSLIT:Brainstorming;
#SUBTITLETRANSLIT:;
#ARTISTTRANSLIT:Morning Musume;
#CREDIT:;
#BANNER:Brainstorming.png;
#BACKGROUND:Brainstorming-bg.png;
#LYRICSPATH:;
#CDTITLE:;
#MUSIC:Brainstorming.ogg;
#OFFSET:1.940;
#SAMPLESTART:72.120;
#SAMPLELENGTH:15.000;
#SELECTABLE:YES;
#BPMS:0.000=123.000;
#STOPS:;
#BGCHANGES:4.000=Brainstorming.avi=1.000=1=1=0,
99999=-nosongbg-=1.000=0=0=0 // don't automatically add -songbackground-
;

//---------------dance-single - Destrier75----------------
#NOTES:
     dance-single:
     Destrier75:
     Beginner:
     2:
     0.171,0.229,0.010,0.020,0.000:
0000
0000
0000
0000
,
0000
0000
0000
0000
,
0000
0000
0000
0000
,
0000
0000
0000
0000
,
0000
0000
0000
0000
,
0000
0000
0000
0000
,
1000
1000
1000
0000
,
0001
0001
0001
0000
,
0100
0100
0100
0000
,
0010
0000
0010
0000
,
1000
0000
1000
0000
,
0001
0001
0001
0000
,
0100
0000
0100
0000
,
0010
0010
0010
0000
,
1000
0000
1000
1000
,
1000
0000
0001
0000
,
0100
0000
0010
0010
,
0010
0000
0100
0000
,
1000
1000
1000
1000
,
0001
0001
0001
0001
,
0100
0100
0100
0100
,
0010
0010
0010
0010
,
1000
0000
1000
0000
,
0001
0001
0001
0000
,
0001
0000
0001
0000
,
0100
0100
0100
0000
,
0010
0000
0010
0000
,
0010
0010
0010
0000
,
0100
0000
0100
0000
,
0100
0100
0100
0000
,
1000
0000
1000
0000
,
0001
0000
0001
0000
,
0100
0000
0100
0000
,
0010
0000
0010
0000
,
1000
1000
1000
0000
,
0001
0001
0001
0000
,
0100
0100
0100
0000
,
0010
0000
0100
0000
,
1000
1000
1000
0000
,
0001
0001
0001
0000
,
0100
0100
0100
0000
,
0010
0010
0010
0000
,
1000
0000
1000
0000
,
0001
0000
0001
0000
,
0100
0000
0100
0000
,
0010
0000
0010
0000
,
0100
0100
0100
0000
,
0010
0010
0010
0000
,
1000
0000
1000
0000
,
0001
0000
0001
0000
,
1000
0000
0001
0000
,
2002
0000
0000
0000
,
3003
0000
0000
0000
;

//---------------dance-single - Destrier75----------------
#NOTES:
     dance-single:
     Destrier75:
     Easy:
     4:
     0.253,0.331,0.108,0.098,0.000:
0000
0000
0000
0000
,
0000
0000
0000
0000
,
0000
0000
0000
0000
,
0000
0000
0000
0000
,
0000
0000
0000
0000
,
0000
0000
0000
0000
,
1000
1000
1000
1000
,
0010
0010
0010
0010
,
0001
0001
0001
0001
,
0100
0100
0100
0100
,
1000
0001
1000
0001
,
0101
0000
0101
0000
,
1000
0010
1000
0010
,
1010
0000
1010
0000
,
1000
0100
0010
0001
,
1000
1000
0001
0001
,
0001
0010
0100
1000
,
0001
0001
0100
0010
,
1000
0001
1000
0001
,
1000
0001
1000
0001
,
0100
0010
0100
0010
,
0100
0010
0100
0010
,
0100
0000
0100
0000
,
0100
0000
0010
0100
,
1000
0001
1000
0001
,
0101
0000
0101
0000
,
1000
1000
0001
0001
,
0100
0100
0010
0010
,
1000
1000
0001
0001
,
0100
0100
0010
0010
,
2000
0000
3002
0000
,
0203
0000
0320
0000
,
1030
1000
0001
0001
,
2002
0000
0000
3003
,
1000
0010
1000
0010
,
0100
0001
0100
0001
,
1000
0001
1000
0001
,
2000
0000
0002
3003
,
1000
0010
1000
0010
,
0100
0001
0100
0001
,
0010
0100
0010
0100
,
1000
0010
1000
0010
,
1000
1010
0010
0011
,
0001
1001
1000
1010
,
0001
0100
1000
0100
,
0001
0100
1000
0100
,
0001
0010
0100
1000
,
0001
1000
0100
0010
,
0001
0000
0001
0000
,
1000
0000
1000
0000
,
0001
1000
0001
0100
,
2000
0000
0002
0000
,
3003
0000
0000
0000
;

//---------------dance-single - Destrier75----------------
#NOTES:
     dance-single:
     Destrier75:
     Medium:
     8:
     0.364,0.433,0.098,0.157,0.000:
0000
0000
0000
0000
,
0000
0000
0000
0000
,
0000
0000
0000
0000
,
0000
0000
0000
0000
,
0000
0000
0000
0000
,
1001
1001
1001
1001
,
1000
0010
1000
0000
0100
0000
0010
0000
,
0001
0100
0001
0000
0010
0000
1000
0000
,
0100
0010
0100
0000
0001
0000
0100
0000
,
1000
0001
1000
0000
0001
1000
0001
0000
,
1000
0010
1000
0000
0010
0000
0100
0000
,
0001
0100
0001
0000
0010
0000
1000
0000
,
0100
0010
0100
0000
0001
0000
1000
0000
,
0100
0001
0100
0000
0010
0000
0001
0000
,
1000
0001
1000
0001
1000
0000
0010
0000
,
1000
0010
1000
0010
1000
0000
0010
0000
,
0100
0001
0100
0001
0100
0000
0010
0000
,
1000
0001
1000
0001
1000
0000
0010
0000
,
1000
0001
1000
0000
0001
1000
0001
0000
,
1000
0010
1000
0000
0100
0001
0100
0000
,
0010
0001
0010
0000
1000
0010
1000
0000
,
1000
0001
1000
0000
0001
0100
0001
0000
,
1000
0010
1000
0000
0100
0000
0010
0000
,
0100
0001
0100
0000
0010
0000
1000
0000
,
0100
0010
0100
0000
0001
0000
1000
0000
,
0001
0100
0001
0000
1000
0000
0010
0000
,
1000
0001
1000
0000
0001
0000
0100
0000
,
0001
0100
0001
0000
1000
0000
0010
0000
,
1000
0001
1000
0000
0001
1000
0001
0000
,
1000
0001
1000
0000
0001
1000
0001
0000
,
2000
0000
3002
0000
,
2003
0000
3002
0000
,
1003
0010
1000
0000
0001
0100
0001
0000
,
1000
0010
1000
0000
0001
0100
0001
0000
,
1000
0010
1000
0000
0100
0000
0010
0000
,
0100
0001
0100
0000
0010
0000
1000
0000
,
0001
1000
0001
0000
0100
0000
0010
0000
,
2000
0000
3002
0000
,
1003
0001
1000
0000
0100
0000
0010
0000
,
1000
0010
1000
0000
0100
0000
0001
0000
,
0100
0001
0100
0000
0010
0000
1000
0000
,
0001
1000
0001
0000
0100
0000
0010
0000
,
1000
0010
1000
0000
0001
0100
0001
0000
,
1000
0001
1000
0000
0100
0001
0100
0000
,
1000
1010
0010
0011
,
0001
1001
1000
1010
,
2000
3002
2003
3002
,
2003
3002
2003
3002
,
1003
0001
1000
0000
0010
0000
0100
0000
,
0001
0100
0001
0000
1000
0000
0010
0000
,
1000
0000
0001
1000
0001
0000
1001
0000
,
1000
0001
2002
0000
,
3003
0000
0000
0000
;

//---------------dance-single - Destrier75----------------
#NOTES:
     dance-single:
     Destrier75:
     Hard:
     12:
     0.552,0.535,0.039,0.284,0.221: // measure 1
0000
0000
0000
0000
,  // measure 2
0000
0000
0000
0000
,  // measure 3
0000
0000
0000
0000
,  // measure 4
0000
0000
0000
0000
,  // measure 5
0000
0000
0000
0000
,  // measure 6
1001
1010
0101
1010
,  // measure 7
1000
0001
1000
0010
1000
0001
1000
0010
,  // measure 8
1000
0001
1000
0010
1000
0001
1000
0100
,  // measure 9
0010
0001
1000
0010
1000
0001
1000
0001
,  // measure 10
2000
0000
0000
0000
3002
0000
0000
0000
1003
0000
0000
0001
1000
0000
0010
0000
,  // measure 11
1000
0001
0000
1000
0001
0000
0010
0000
1000
0000
0010
0000
0100
0000
0010
0000
,  // measure 12
0100
0001
0000
0100
0001
0000
0010
0000
1000
0000
0001
0000
0100
0000
0010
0000
,  // measure 13
1000
0001
0000
1000
0001
0000
0100
0000
1000
0000
0001
0000
1000
0000
0010
0000
,  // measure 14
1000
0010
0000
1000
0010
0000
0100
0000
1000
0000
0001
0000
0100
0000
0010
0000
,  // measure 15
1000
0010
1000
0001
1000
0100
0010
0001
,  // measure 16
1000
0001
1000
0010
1000
0001
1000
0001
,  // measure 17
1000
0010
1000
0010
1000
0001
1000
0010
,  // measure 18
1000
0000
0001
0000
1000
0000
0001
0000
1000
0000
0000
0001
1000
0000
0010
0000
,  // measure 19
1000
0001
1000
0001
1000
0010
1000
0010
,  // measure 20
1000
0100
1000
0100
1000
0001
1000
0001
,  // measure 21
1000
0010
1000
0010
1000
0100
1000
0100
,  // measure 22
1000
0001
1000
0001
1000
0010
1000
0010
,  // measure 23
1000
0010
0000
1000
0001
0000
0100
0000
1000
0000
0001
0000
1000
0000
0001
0000
,  // measure 24
1000
0001
0000
1000
0001
0000
0001
0000
1000
0000
0001
0000
1000
0000
0010
0000
,  // measure 25
1000
0100
0000
1000
0100
0000
0010
0000
0001
0000
1000
0000
0010
0000
0100
0000
,  // measure 26
1000
0010
0000
1000
0010
0000
0100
0000
0001
0000
0010
0000
0100
0000
1000
0000
,  // measure 27
0010
0001
0000
0010
0001
0000
0100
0000
1000
0000
0001
0000
1000
0000
0001
0000
,  // measure 28
1000
0100
0000
1000
0100
0000
0010
0000
0001
0000
0010
0000
1000
0000
0001
0000
,  // measure 29
1000
0010
0000
1000
0010
0000
0100
0000
0001
0000
0010
0000
1000
0000
0001
0000
,  // measure 30
0100
0001
0000
0100
0001
0000
0010
0000
1000
0000
0001
0000
1000
0000
0010
0000
,  // measure 31
2000
3002
0203
0320
,  // measure 32
2030
3002
0203
0320
,  // measure 33
1030
0001
1000
0010
1000
0001
1000
0010
,  // measure 34
1000
0010
1000
0000
0100
0010
0100
0000
0010
0001
0010
0000
1000
0001
1000
0000
,  // measure 35
0001
1000
0010
0100
1000
0001
1000
0010
,  // measure 36
1000
0010
1000
0001
1000
0010
1000
0001
,  // measure 37
0100
0010
1000
0001
1000
0100
0010
0001
,  // measure 38
2000
0000
0000
0000
0000
0000
0000
0000
3001
0000
0000
1000
0001
0000
0010
0000
,  // measure 39
1000
0001
0000
1000
0001
0000
0100
0000
1000
0000
0001
0000
1000
0000
0010
0000
,  // measure 40
1000
0100
0000
1000
0100
0000
0010
0000
1000
0000
0001
0000
1000
0000
0010
0000
,  // measure 41
0100
0001
0000
0100
0001
0000
0010
0000
1000
0000
0001
0000
0100
0000
0010
0000
,  // measure 42
0001
1000
0001
0010
1000
0001
1000
0010
,  // measure 43
1000
0100
0000
1000
0100
0000
0010
0000
1000
0000
0001
0000
1000
0000
0001
0000
,  // measure 44
1000
0001
0000
1000
0001
0000
0100
0000
1000
0000
0010
0000
1000
0000
0001
0000
,  // measure 45
2000
3002
0203
0320
,  // measure 46
2030
3002
0203
0320
,  // measure 47
2030
3002
0203
0320
,  // measure 48
2030
3002
2003
3020
,  // measure 49
1030
0001
1000
0010
1000
0001
1000
0010
,  // measure 50
1000
0001
1000
0010
1000
0001
1000
0010
,  // measure 51
2000
0000
3001
1000
0001
1000
0001
0000
,  // measure 52
1000
0001
1000
0001
1000
0001
2000
0000
0000
0000
0000
0000
,  // measure 53
3000
0000
0000
0000
;

//---------------dance-single - Destrier75----------------
#NOTES:
     dance-single:
     Destrier75:
     Challenge:
     14:
     0.660,0.867,0.392,0.098,0.623:
0000
0000
0000
0000
,
0000
0000
0000
0000
,
0000
0000
0000
0000
,
0000
0000
0000
0000
,
0000
0000
0000
0000
,
1010
1001
0110
1001
,
0001
0000
0000
0100
0000
1000
0000
0010
0000
1000
0000
0001
0100
0000
0010
0000
,
1000
0000
0000
1000
0000
0001
0000
1000
0001
0000
0100
0001
0100
0000
0010
0000
,
1000
0000
0000
0100
0000
0010
0000
1000
0000
0001
0000
1000
0001
0000
1000
0000
,
0001
0010
0001
0000
1000
0000
0010
0000
0100
0000
0000
0010
0100
0000
0001
0000
,
1000
0010
0000
1000
0010
0000
0100
0010
0000
0010
0001
0010
0001
0000
0010
0000
,
1000
0001
0000
1000
0001
0000
0001
1000
0000
0001
1000
0000
1001
0000
0000
0000
,
1000
0010
0000
0010
1000
0000
0001
1000
0000
1000
0100
1000
0100
0000
0010
0000
,
1000
0001
0000
1000
0001
0000
0010
1000
0000
0010
1000
0000
0010
0000
1000
0010
,
1000
0000
0010
0000
1000
0000
0001
0000
0100
0010
0100
0010
0100
0000
0001
0000
,
1000
0000
0001
0000
0100
0000
0010
0000
1000
0000
0001
0000
0100
0000
0001
0100
,
0001
0000
0010
0000
1000
0000
0001
0000
1000
0001
1000
0001
1000
0000
0010
0000
,
1000
0000
0001
0000
0100
0000
0010
0000
1000
0000
0000
0010
1000
0000
0010
0000
,
1010
1010
1001
1001
1100
1100
1001
1001
,
0101
0101
0011
0011
1001
1001
0101
0101
,
0011
0011
1001
1001
0101
0101
0011
0011
,
1001
1001
1010
1010
0110
0110
0101
0101
,
0100
0001
0000
0100
0001
0000
0010
1000
0000
1000
0100
1000
0100
0000
0010
0000
,
1000
0001
0000
1000
0001
0000
0100
0001
0000
1000
0001
1000
0001
0000
0000
0000
,
1000
0010
0000
0010
1000
0000
0001
1000
0000
1000
0001
1000
0001
0000
0100
0000
,
0001
1000
0000
1000
0010
0000
0010
0001
0000
0001
1000
0001
1000
0000
0000
0000
,
1000
0010
0000
2000
0000
0000
3010
0000
1000
0000
0001
0000
0100
0000
0010
0000
,
1000
0001
0000
1000
0001
0000
0001
0000
0100
0000
0010
0000
1000
0000
0010
0000
,
1000
0010
0000
1000
0010
0000
0100
0010
0000
0100
0010
0100
0010
0000
0100
0000
,
0001
0100
0000
0001
0100
0000
0001
1000
0000
0001
1000
0000
1001
0000
0000
0000
,
2000
0001
3002
0100
,
0203
0010
0320
1000
,
1030
1000
0001
0001
0100
0100
0010
0010
,
1000
0100
0010
0001
1000
0100
0010
0001
1000
0100
0010
0001
1000
0100
0010
0001
,
1000
0000
0000
0000
0001
1000
0000
1000
0001
0000
0010
0000
1000
0000
0001
0000
,
1001
0000
0000
0000
1000
0010
0000
1000
0010
0000
1000
0000
0001
0000
0100
0000
,
0002
0000
2003
0000
3010
0001
0100
0010
,
0002
0000
0000
0000
0000
0000
0000
0000
0103
0000
0000
0001
0100
0000
0010
0000
,
1000
0001
0000
1000
0001
0000
0100
0000
1000
0000
0010
0000
1000
0001
1000
0000
,
0001
0100
0000
0001
0100
0000
0010
0000
1000
0100
0010
0001
1000
0100
1000
0000
,
1000
0001
0000
1000
0001
0000
0100
0000
0001
0000
0001
0000
0101
0000
0010
0000
,
1000
0010
1000
0001
1000
0010
1000
0001
,
1000
0001
0000
1000
0001
0000
0100
0000
0001
0100
0000
0001
0100
0000
0010
0000
,
1000
0010
0000
1000
0010
0000
1000
0000
0001
0000
1000
0001
1000
0000
0001
0000
,
1000
0010
1000
0001
1000
0010
1000
0001
,
1000
0000
0010
0000
1000
0000
0001
0000
1000
0000
0010
1000
0000
0010
1000
0000
,
1000
1000
0001
0001
0100
0100
0010
0010
,
1000
0100
0010
0001
1000
0100
0010
0001
1000
0100
0010
0001
1000
0100
0010
0001
,
1000
0000
0000
0010
1000
0000
0010
1000
0000
0010
1000
0010
1000
0000
0010
0000
,
0100
0001
0000
0100
0001
0000
0100
0001
0000
0100
0001
0100
0001
0000
0010
0000
,
2000
0000
3001
0100
0001
0100
0010
0000
,
1000
0001
1000
0001
1000
0001
2000
0000
0000
0000
0000
0000
,
3000
0000
0000
0000
;
